osu file format v14

[General]
AudioFilename: audio.mp3
AudioLeadIn: 0
PreviewTime: 40879
Countdown: 0
SampleSet: Soft
StackLeniency: 0.7
Mode: 0
LetterboxInBreaks: 0
WidescreenStoryboard: 0

[Editor]
DistanceSpacing: 1.2
BeatDivisor: 4
GridSize: 32
TimelineZoom: 1.3

[Metadata]
Title:Sore wa Chiisana Hikari no Youna (TV Size)
TitleUnicode:それは小さな光のような (TV Size)
Artist:Sayuri
ArtistUnicode:さユり
Creator:Kuki1537
Version:Revival
Source:僕だけがいない街
Tags:bokumachi boku dake ga inai machi erased ending ed anime japanese browiec my_angel_ram pop rock my angel ram
BeatmapID:2347052
BeatmapSetID:1123162

[Difficulty]
HPDrainRate:6
CircleSize:4
OverallDifficulty:8.5
ApproachRate:8.7
SliderMultiplier:1.8
SliderTickRate:1

[Events]
//Background and Video events
0,0,"bg.jpg",0,0
Video,0,"video.mp4"
//Break Periods
//Storyboard Layer 0 (Background)
//Storyboard Layer 1 (Fail)
//Storyboard Layer 2 (Pass)
//Storyboard Layer 3 (Foreground)
//Storyboard Layer 4 (Overlay)
//Storyboard Sound Samples

[TimingPoints]
598,416.666666666667,3,2,22,50,1,0
598,-166.666666666667,3,2,22,50,0,0
4750,416.666666666667,3,2,22,50,1,0
5591,416.666666666667,3,2,22,50,1,0
5591,-166.666666666667,3,2,22,50,0,0
24739,416.666666666667,3,2,22,50,1,0
25573,416.666666666667,3,2,22,65,1,0
25573,-133.333333333333,3,2,22,65,0,0
27135,-133.333333333333,3,2,22,5,0,0
27239,-133.333333333333,3,2,22,65,0,0
29635,-133.333333333333,3,2,22,5,0,0
29739,-133.333333333333,3,2,22,65,0,0
43073,-100,3,2,22,80,0,1
83073,-100,3,2,22,80,0,0
83177,-100,3,2,22,50,0,0
84323,-100,3,2,22,40,0,0
85573,-100,3,2,22,30,0,0
86823,-100,3,2,22,20,0,0
88073,-100,3,2,22,10,0,0
88489,-100,3,2,22,5,0,0

[Colours]
Combo1 : 53,91,223
Combo2 : 227,9,41
Combo3 : 228,199,137
Combo4 : 179,111,81

[HitObjects]
169,47,598,6,0,P|181:85|168:163,1,107.999996704102,2|2,0:2|0:2,0:2:0:0:
107,210,1223,2,0,P|69:203|41:206,2,53.9999983520508,2|0|0,0:2|0:2|0:2,0:2:0:0:
191,238,1848,2,0,B|230:258|230:258|302:245,1,107.999996704102,2|2,0:2|0:2,0:2:0:0:
364,189,2473,2,0,P|368:157|371:125,2,53.9999983520508,2|0|0,0:2|0:2|0:2,0:2:0:0:
378,279,3098,2,0,P|383:321|452:365,1,107.999996704102,2|2,0:2|0:2,0:2:0:0:
509,277,3723,2,0,P|479:285|439:290,2,53.9999983520508,2|0|0,0:2|0:2|0:2,0:2:0:0:
439,205,4348,1,2,0:2:0:0:
286,221,4750,5,2,0:2:0:0:
257,150,4958,1,2,0:2:0:0:
299,87,5166,1,2,0:2:0:0:
374,78,5375,1,2,0:2:0:0:
439,127,5591,6,0,P|402:156|340:152,1,107.999996704102,2|0,0:2|0:2,0:2:0:0:
394,241,6216,1,0,0:2:0:0:
394,241,6424,2,0,P|388:276|383:306,1,53.9999983520508,2|0,0:2|0:2,0:2:0:0:
509,382,6841,2,0,P|470:375|387:368,1,107.999996704102,2|0,0:2|0:2,0:2:0:0:
281,303,7466,1,0,0:2:0:0:
281,303,7674,2,0,P|289:331|286:363,1,53.9999983520508,2|0,0:2|0:2,0:2:0:0:
201,211,8091,6,0,B|267:196|246:233|317:219,1,107.999996704102,2|0,0:2|0:2,0:2:0:0:
298,90,8716,1,0,0:2:0:0:
298,90,8924,2,0,P|294:131|291:152,1,53.9999983520508,2|0,0:2|0:2,0:2:0:0:
125,247,9341,2,0,P|117:195|148:146,1,107.999996704102,2|0,0:2|0:2,0:2:0:0:
231,63,9966,1,0,0:2:0:0:
231,63,10174,2,0,P|200:75|159:73,1,53.9999983520508,2|0,0:2|0:2,0:2:0:0:
7,24,10591,6,0,B|75:5|55:43|122:23,1,107.999996704102,2|0,0:2|0:2,0:2:0:0:
144,149,11216,1,0,0:2:0:0:
36,105,11424,2,0,P|28:132|22:166,1,53.9999983520508,2|0,0:2|0:2,0:2:0:0:
135,355,11841,2,0,P|143:311|113:255,1,107.999996704102,2|0,0:2|0:2,0:2:0:0:
5,309,12466,1,0,0:2:0:0:
5,309,12674,2,0,P|37:320|70:319,1,53.9999983520508,2|0,0:2|0:2,0:2:0:0:
202,230,13091,6,0,P|234:219|267:220,1,53.9999983520508,2|0,0:2|0:2,0:2:0:0:
370,380,13507,2,0,P|376:353|379:326,1,53.9999983520508,2|0,0:2|0:2,0:2:0:0:
346,196,13924,2,0,P|338:227|337:250,1,53.9999983520508,2|0,0:2|0:2,0:2:0:0:
452,379,14341,2,0,B|464:337|464:337|448:253,1,107.999996704102,2|0,0:2|0:2,0:2:0:0:
494,189,14966,1,0,0:2:0:0:
494,189,15174,2,0,P|497:162|499:135,1,53.9999983520508,2|0,0:2|0:2,0:2:0:0:
399,0,15591,6,0,P|376:33|296:53,1,107.999996704102,2|0,0:2|0:2,0:2:0:0:
208,116,16216,1,0,0:2:0:0:
208,116,16424,2,0,P|242:119|263:130,1,53.9999983520508,2|0,0:2|0:2,0:2:0:0:
123,207,16841,2,0,P|118:149|110:76,1,107.999996704102,2|0,0:2|0:2,0:2:0:0:
32,8,17466,1,0,0:2:0:0:
32,8,17674,2,0,P|26:49|22:74,1,53.9999983520508,2|0,0:2|0:2,0:2:0:0:
92,147,18091,6,0,P|95:173|99:200,1,53.9999983520508,2|0,0:2|0:2,0:2:0:0:
34,346,18507,1,2,0:2:0:0:
0,202,18716,1,0,0:2:0:0:
114,294,18924,2,0,P|140:299|167:301,1,53.9999983520508,2|0,0:2|0:2,0:0:0:0:
244,179,19341,2,0,P|248:205|253:239,1,53.9999983520508,2|0,0:2|0:2,0:2:0:0:
197,377,19757,2,0,P|163:382|129:373,2,53.9999983520508,2|0|0,0:2|0:2|0:2,0:2:0:0:
396,174,20591,6,0,P|387:209|390:232,1,53.9999983520508,2|0,0:2|0:2,0:2:0:0:
503,327,21007,2,0,P|477:301|455:292,1,53.9999983520508,2|0,0:2|0:2,0:2:0:0:
322,338,21424,2,0,P|356:328|375:314,1,53.9999983520508,2|0,0:2|0:2,0:2:0:0:
474,206,21841,2,0,P|485:169|457:84,1,107.999996704102,2|2,3:2|0:2,0:2:0:0:
387,33,22466,1,2,0:2:0:0:
387,33,22674,2,0,P|357:46|333:48,1,53.9999983520508,2|0,0:2|0:2,0:2:0:0:
229,17,23091,6,0,P|244:55|223:142,2,107.999996704102,2|2|2,0:2|0:2|0:2,0:2:0:0:
142,73,24341,1,2,0:2:0:0:
14,274,24739,5,2,0:2:0:0:
80,236,24947,1,2,0:2:0:0:
154,245,25155,1,2,0:2:0:0:
208,297,25364,1,2,0:2:0:0:
273,334,25573,6,0,P|324:341|356:324,2,67.5000025749208,2|8|10,1:2|0:2|0:2,0:2:0:0:
229,223,26198,1,0,1:2:0:0:
374,159,26406,1,8,0:2:0:0:
309,266,26614,1,2,0:2:0:0:
307,102,26823,2,0,P|344:76|424:82,1,101.250003862381,2|0,0:2|0:2,0:2:0:0:
427,82,27239,1,2,3:2:0:0:
482,259,27448,1,0,1:2:0:0:
374,159,27656,1,8,0:2:0:0:
349,324,27864,1,2,0:2:0:0:
512,186,28073,6,0,P|480:180|436:196,1,67.5000025749208,2|0,1:2|0:2,0:2:0:0:
291,267,28489,1,2,3:2:0:0:
438,354,28698,1,8,0:2:0:0:
359,185,28906,2,0,P|366:219|372:264,1,67.5000025749208,10|0,3:2|0:2,0:2:0:0:
265,349,29323,2,0,P|228:364|151:343,1,101.250003862381,2|0,0:2|0:2,0:2:0:0:
145,333,29739,1,2,3:2:0:0:
108,172,29948,1,0,1:2:0:0:
216,279,30156,1,8,0:2:0:0:
50,320,30364,1,2,3:2:0:0:
182,135,30573,6,0,P|191:176|175:219,2,67.5000025749208,2|8|10,1:2|0:2|0:2,0:2:0:0:
51,103,31198,1,0,1:2:0:0:
116,257,31406,2,0,P|145:280|184:286,1,67.5000025749208,10|0,0:2|0:2,0:2:0:0:
266,97,31823,1,2,1:2:0:0:
108,172,32031,1,8,0:2:0:0:
275,251,32239,2,0,P|281:218|287:177,1,67.5000025749208,0|0,3:2|1:2,0:2:0:0:
177,34,32656,2,0,P|181:67|188:100,1,67.5000025749208,10|0,0:2|0:2,0:2:0:0:
367,116,33073,6,0,P|403:78|377:-21,1,135.000005149842,2|2,1:2|0:2,0:2:0:0:
323,44,33698,1,0,0:2:0:0:
436,163,33906,2,0,P|477:176|510:168,1,67.5000025749208,10|0,3:2|0:2,0:2:0:0:
492,62,34323,1,0,1:2:0:0:
369,215,34531,1,8,0:2:0:0:
492,76,34739,1,0,3:2:0:0:
468,275,34948,1,0,1:2:0:0:
367,116,35156,2,0,P|362:158|356:199,1,67.5000025749208,10|0,0:2|0:2,0:2:0:0:
423,347,35573,6,0,P|467:360|505:352,2,67.5000025749208,2|8|8,1:2|0:2|0:2,0:2:0:0:
328,284,36198,1,2,1:2:0:0:
243,355,36406,2,0,P|199:368|161:360,1,67.5000025749208,10|0,0:2|0:2,0:2:0:0:
112,188,36823,1,2,1:2:0:0:
201,287,37031,1,8,0:2:0:0:
86,384,37239,2,0,P|92:348|96:310,1,67.5000025749208,2|0,3:2|1:2,0:2:0:0:
41,138,37656,1,8,0:2:0:0:
3,288,37864,1,2,0:2:0:0:
135,167,38073,6,0,P|166:152|199:148,1,67.5000025749208,2|0,1:2|0:2,0:2:0:0:
325,140,38489,1,2,3:2:0:0:
156,72,38698,1,8,0:2:0:0:
288,3,38906,2,0,P|283:45|276:88,1,67.5000025749208,10|0,0:2|0:2,0:2:0:0:
74,106,39323,1,2,1:2:0:0:
205,0,39531,1,10,0:2:0:0:
223,175,39739,1,2,3:2:0:0:
171,92,39948,1,0,1:2:0:0:
312,163,40156,2,0,P|309:200|290:238,1,67.5000025749208,8|0,0:2|0:2,0:2:0:0:
161,246,40573,5,8,0:2:0:0:
326,316,40781,1,0,1:2:0:0:
175,363,40989,2,0,P|136:371|104:376,1,67.5000025749208,2|8,0:2|0:3,0:2:0:0:
0,247,41406,2,0,P|39:255|71:260,1,67.5000025749208,2|8,0:2|0:3,0:2:0:0:
213,140,41823,2,0,P|174:148|142:153,1,67.5000025749208,10|0,3:2|0:2,0:2:0:0:
0,69,42239,1,2,0:2:0:0:
209,0,42656,1,2,0:2:0:0:
164,243,43073,5,6,1:2:0:0:
90,17,43281,1,2,3:2:0:0:
299,194,43489,1,2,3:2:0:0:
52,175,43698,1,10,0:3:0:0:
286,26,43906,1,8,0:2:0:0:
237,271,44114,1,2,3:2:0:0:
159,85,44323,1,10,0:3:0:0:
386,147,44531,1,2,0:2:0:0:
170,345,44739,2,0,P|135:266|178:190,1,180,10|8,0:3|0:2,0:2:0:0:
410,335,45364,1,2,0:2:0:0:
283,164,45573,5,2,1:2:0:0:
318,371,45781,1,2,0:2:0:0:
438,118,45989,1,2,1:2:0:0:
410,335,46198,1,10,0:3:0:0:
257,85,46406,1,10,0:2:0:0:
341,287,46614,1,2,3:2:0:0:
413,42,46823,1,10,0:3:0:0:
249,216,47031,1,2,0:2:0:0:
482,170,47239,2,0,P|496:126|501:78,1,90,2|0,1:2|0:2,0:2:0:0:
323,0,47656,2,0,P|328:44|341:87,1,90,10|0,0:2|0:2,0:2:0:0:
256,254,48073,5,2,1:2:0:0:
165,83,48281,1,2,3:2:0:0:
130,292,48489,2,0,P|81:312|21:307,1,90,10|8,0:3|0:3,0:2:0:0:
230,140,48906,1,8,0:2:0:0:
189,349,49114,1,2,3:2:0:0:
76,211,49323,2,0,P|121:174|175:165,1,90,10|0,0:3|0:2,0:2:0:0:
292,265,49739,2,0,P|237:244|202:202,1,90,10|0,0:3|0:2,0:2:0:0:
228,52,50156,2,0,P|237:109|218:160,1,90,10|0,0:2|0:2,0:2:0:0:
97,295,50573,6,0,P|76:251|81:193,1,90,2|0,1:2|0:2,0:2:0:0:
354,204,50989,2,0,P|326:244|273:268,1,90,10|8,0:3|0:3,0:2:0:0:
144,28,51406,2,0,P|192:31|240:65,1,90,10|0,0:2|0:2,0:2:0:0:
169,239,51823,1,10,0:3:0:0:
4,125,52031,1,0,0:3:0:0:
182,165,52239,2,0,P|229:172|275:179,1,90,2|0,1:2|3:2,0:2:0:0:
428,32,52656,1,8,0:2:0:0:
266,102,52864,1,2,0:2:0:0:
487,154,53073,5,6,1:2:0:0:
316,12,53281,1,2,3:2:0:0:
411,233,53489,2,0,P|451:258|507:261,1,90,10|8,0:3|0:3,0:0:0:0:
428,32,53906,1,8,0:2:0:0:
284,158,54114,1,2,0:2:0:0:
492,263,54323,2,0,P|498:213|503:171,1,90,2|8,1:2|0:3,0:2:0:0:
291,43,54739,2,0,P|296:91|302:137,1,90,2|0,1:2|0:2,0:2:0:0:
289,363,55156,1,8,0:2:0:0:
208,163,55364,1,2,0:2:0:0:
162,364,55573,5,2,1:2:0:0:
334,223,55781,1,2,0:2:0:0:
138,225,55989,2,0,P|83:233|36:240,1,90,10|8,0:3|0:3,0:2:0:0:
208,83,56406,2,0,P|263:91|310:98,1,90,10|0,0:2|0:2,0:2:0:0:
64,53,56823,2,0,P|71:106|77:158,1,90,2|0,1:2|0:2,0:2:0:0:
221,284,57239,2,0,P|226:239|232:194,1,90,2|0,3:2|0:2,0:2:0:0:
386,19,57656,2,0,P|393:72|399:124,1,90,10|0,0:2|0:2,0:2:0:0:
269,359,58073,6,0,P|218:373|167:354,1,90,2|0,1:2|0:2,0:2:0:0:
124,140,58489,1,2,3:2:0:0:
39,348,58698,1,10,0:3:0:0:
232,194,58906,2,0,P|274:174|329:177,1,90,10|0,0:2|0:2,0:2:0:0:
56,194,59323,2,0,P|36:144|52:91,1,90,0|0,3:2|0:2,0:2:0:0:
216,3,59739,1,10,0:3:0:0:
143,232,59948,1,8,0:3:0:0:
302,10,60156,2,0,P|310:68|315:104,1,90,10|0,0:2|0:2,0:2:0:0:
414,370,60573,6,0,P|420:325|426:280,1,90,2|0,1:2|0:2,0:2:0:0:
402,40,60989,1,10,0:3:0:0:
267,251,61198,1,10,0:3:0:0:
492,103,61406,1,10,0:2:0:0:
225,155,61614,1,0,0:2:0:0:
509,255,61823,2,0,P|465:279|411:276,1,90,0|0,3:2|0:2,0:2:0:0:
192,256,62239,5,10,0:2:0:0:
406,98,62448,1,8,0:2:0:0:
263,325,62656,1,10,0:2:0:0:
323,41,62864,1,8,0:2:0:0:
362,310,63073,5,6,1:2:0:0:
163,129,63281,1,2,0:3:0:0:
448,194,63489,1,2,0:2:0:0:
207,336,63698,1,10,0:3:0:0:
329,68,63906,1,10,0:2:0:0:
417,333,64114,1,2,3:2:0:0:
182,215,64323,1,10,0:3:0:0:
457,166,64531,1,2,0:2:0:0:
246,42,64739,2,0,P|194:32|148:53,1,90,2|0,1:2|0:2,0:2:0:0:
18,234,65156,1,8,0:2:0:0:
205,112,65364,1,2,0:2:0:0:
106,285,65573,5,2,1:2:0:0:
37,76,65781,1,2,0:2:0:0:
257,193,65989,2,0,P|318:210|356:195,1,90,10|8,0:3|0:3,0:2:0:0:
193,22,66406,2,0,P|198:62|205:114,1,90,10|0,0:2|0:2,0:2:0:0:
258,341,66823,1,2,1:2:0:0:
162,198,67031,1,2,3:2:0:0:
85,364,67239,2,0,P|40:379|-5:368,1,90,10|8,0:3|0:3,0:2:0:0:
220,260,67656,2,0,P|263:251|305:266,1,90,10|0,0:2|3:2,0:2:0:0:
45,292,68073,5,2,1:2:0:0:
124,127,68281,1,2,0:3:0:0:
172,335,68489,2,0,P|213:350|257:341,1,90,10|0,0:3|3:2,0:2:0:0:
301,149,68906,1,8,0:2:0:0:
136,251,69114,1,2,0:2:0:0:
347,316,69323,1,2,3:2:0:0:
212,160,69531,1,10,0:3:0:0:
188,362,69739,2,0,P|234:368|281:373,1,90,10|0,0:3|0:2,0:0:0:0:
453,279,70156,2,0,P|407:285|360:290,1,90,10|0,0:2|0:2,0:2:0:0:
317,72,70573,5,6,1:2:0:0:
219,259,70781,1,2,0:2:0:0:
392,158,70989,2,0,P|438:137|481:138,1,90,2|8,1:2|0:3,0:2:0:0:
302,280,71406,2,0,P|251:278|213:254,1,90,8|0,0:2|3:2,0:2:0:0:
294,109,71823,2,0,P|286:160|279:202,1,90,0|0,1:2|0:2,0:2:0:0:
128,285,72239,2,0,P|79:306|30:301,1,90,10|8,0:3|0:3,0:2:0:0:
195,179,72656,2,0,P|239:179|279:198,1,90,10|4,0:2|0:3,0:2:0:0:
21,222,73073,6,0,P|14:171|8:125,1,90,6|0,1:2|0:2,0:2:0:0:
203,8,73489,1,10,0:3:0:0:
164,190,73698,1,10,0:3:0:0:
26,51,73906,2,0,P|76:45|115:61,1,90,10|0,0:2|0:2,0:2:0:0:
332,122,74323,2,0,P|289:136|245:130,1,90,8|0,0:3|0:0,0:2:0:0:
418,51,74739,2,0,L|432:152,1,90,2|0,1:2|0:2,0:2:0:0:
415,304,75156,2,0,P|368:313|316:289,1,90,10|0,0:2|0:2,0:2:0:0:
316,100,75573,5,6,1:2:0:0:
480,233,75781,1,2,0:2:0:0:
270,181,75989,2,0,P|226:175|182:194,1,90,10|8,0:3|0:3,0:2:0:0:
254,375,76406,2,0,L|239:266,1,90,10|0,0:2|0:2,0:2:0:0:
110,117,76823,2,0,B|79:171|79:171|101:290,1,180,0|0,1:2|1:2,0:2:0:0:
290,197,77448,1,0,1:2:0:0:
170,48,77656,2,0,P|135:27|64:39,1,90,10|0,0:2|0:2,0:2:0:0:
215,267,78073,6,0,P|271:298|388:230,1,180,6|8,1:2|0:3,0:2:0:0:
422,88,78698,1,8,0:3:0:0:
265,4,78906,2,0,L|255:93,1,90,8|0,0:2|0:2,0:2:0:0:
98,258,79323,2,0,B|106:189|106:189|85:150|85:150|94:73,1,180,0|0,3:2|3:2,0:2:0:0:
216,257,79948,1,0,1:2:0:0:
11,214,80156,1,8,0:2:0:0:
178,122,80364,1,2,0:2:0:0:
68,335,80573,6,0,B|106:346|141:330|141:330|172:347|172:347|207:328|249:342,1,180,6|8,1:2|0:3,0:2:0:0:
386,224,81198,1,0,3:2:0:0:
192,147,81406,1,8,0:2:0:0:
341,300,81614,1,2,0:2:0:0:
333,64,81823,5,2,1:2:0:0:
186,257,82031,1,0,0:3:0:0:
432,145,82239,1,8,0:3:0:0:
162,63,82448,1,0,0:3:0:0:
327,325,82656,1,8,0:2:0:0:
432,28,82864,1,2,0:3:0:0:
161,245,83073,5,2,1:2:0:0:
256,192,83177,12,0,88489,0:2:0:0:
