osu file format v14

[General]
AudioFilename: audio.mp3
AudioLeadIn: 0
PreviewTime: 43123
Countdown: 0
SampleSet: Soft
StackLeniency: 0.7
Mode: 0
LetterboxInBreaks: 0
WidescreenStoryboard: 1

[Editor]
Bookmarks: 4373,10623,20623,25623,35623,43123,63123,83123
DistanceSpacing: 1
BeatDivisor: 2
GridSize: 32
TimelineZoom: 1

[Metadata]
Title:Sore wa Chiisana Hikari no Youna
TitleUnicode:それは小さな光のような
Artist:Sayuri
ArtistUnicode:さユり
Creator:Mking
Version:Easy
Source:僕だけがいない街
Tags:tv size Boku dake ga inai Machi Erased Ending Kaitjuh
BeatmapID:1556849
BeatmapSetID:737654

[Difficulty]
HPDrainRate:3
CircleSize:2.6
OverallDifficulty:3
ApproachRate:3
SliderMultiplier:1
SliderTickRate:1

[Events]
//Background and Video events
0,0,"thumb-1920-697276.jpg",0,0
//Break Periods
//Storyboard Layer 0 (Background)
//Storyboard Layer 1 (Fail)
//Storyboard Layer 2 (Pass)
//Storyboard Layer 3 (Foreground)
//Storyboard Sound Samples

[TimingPoints]
677,416.666666666667,4,2,1,30,1,0
2290,416.666666666667,3,2,1,30,1,0
2510,416.666666666667,3,2,1,30,1,0
3123,416.666666666667,3,2,1,30,1,0
4789,-100,3,2,1,30,0,0
10623,-100,3,2,1,30,0,0
21873,-100,3,2,1,30,0,0
23123,-100,3,2,1,30,0,0
25623,-100,3,2,1,50,0,0
41456,-100,3,2,1,55,0,0
41873,-100,3,2,1,60,0,0
42289,-100,3,2,1,60,0,0
43123,-100,3,2,1,70,0,1
71873,-100,3,2,1,70,0,0
83123,-100,3,2,1,70,0,0
86039,-100,3,2,1,5,0,0

[Colours]
Combo1 : 128,0,128
Combo2 : 255,128,255
Combo3 : 0,255,128
Combo4 : 242,24,57

[HitObjects]
110,62,4789,6,0,P|88:112|95:159,1,100
196,127,5623,6,0,L|306:131,1,100,2|0,0:0|0:0,0:0:0:0:
359,208,6456,1,2,0:0:0:0:
319,300,6873,2,0,P|438:269|454:186,1,200,2|2,0:0|0:0,0:0:0:0:
441,108,8123,2,0,L|331:104,1,100,2|0,0:0|0:0,0:0:0:0:
278,27,8956,1,2,0:0:0:0:
203,93,9373,2,0,B|220:187|143:191|169:290,1,200,2|2,0:0|0:0,0:0:0:0:
237,356,10623,6,0,L|347:352,1,100,2|0,0:0|0:0,0:0:0:0:
400,275,11456,1,2,0:0:0:0:
320,213,11873,2,0,L|324:103,1,100,2|0,0:0|0:0,0:0:0:0:
253,42,12706,1,2,0:0:0:0:
193,122,13123,2,0,P|144:128|89:107,2,100,2|2|2,0:0|0:0|0:0,0:0:0:0:
266,189,14373,2,0,P|354:313|404:314,1,200,2|2,0:0|0:0,0:0:0:0:
449,237,15623,6,0,L|445:127,1,100,2|0,0:0|0:0,0:0:0:0:
368,74,16456,1,2,0:0:0:0:
300,147,16873,2,0,L|190:143,1,100,2|0,0:0|0:0,0:0:0:0:
137,66,17706,1,2,0:0:0:0:
71,141,18123,2,0,P|65:190|86:245,2,100,2|2|2,0:0|0:0|0:0,0:0:0:0:
9,62,19373,1,2,0:0:0:0:
91,5,19789,2,0,P|143:3|201:30,1,100,2|0,0:0|0:0,0:0:0:0:
255,93,20623,2,0,P|261:142|240:197,2,100,2|2|2,0:0|0:0|0:0,0:0:0:0:
256,192,21873,12,2,24373,0:0:0:0:
70,118,25623,6,0,B|51:166|51:166|49:222,2,100,2|10|8,0:0|0:0|0:0,0:0:0:0:
161,78,26873,1,0,0:0:0:0:
244,134,27289,2,0,P|291:108|347:116,1,100
426,157,28123,2,0,B|445:109|445:109|447:53,2,100,2|2|10,0:0|0:0|0:0,0:0:0:0:
336,200,29373,2,0,B|288:181|288:181|232:179,2,100,2|2|8,0:0|0:0|0:0,0:0:0:0:
414,262,30623,6,0,P|371:295|324:298,1,100,2|10,0:0|0:0,0:0:0:0:
233,334,31456,1,10,0:0:0:0:
151,276,31873,2,0,B|93:231|117:147|117:147|196:153,1,200,2|10,0:0|0:0,0:0:0:0:
249,217,33123,2,0,P|271:163|266:123,1,100,2|2,0:0|0:0,0:0:0:0:
232,28,33956,1,10,0:0:0:0:
321,18,34373,2,0,B|392:8|392:8|405:81|356:145,1,200,0|10,0:0|0:0,0:0:0:0:
295,201,35623,6,0,P|417:218|461:162,1,200,2|10,0:0|0:0,0:0:0:0:
437,69,36873,2,0,P|481:51|514:4,2,100,2|2|8,0:0|0:0|0:0,0:0:0:0:
352,136,38123,2,0,L|242:132,1,100,2|2,0:0|0:0,0:0:0:0:
161,174,38956,1,10,0:0:0:0:
76,120,39373,1,2,0:0:0:0:
256,192,39789,12,10,41873,0:0:0:0:
69,125,43123,6,0,P|159:93|255:133,1,200,6|8,0:0|0:0,0:0:0:0:
308,213,44373,1,2,0:0:0:0:
389,155,44789,2,0,P|407:207|397:258,1,100,2|8,0:0|0:0,0:0:0:0:
326,318,45623,2,0,B|284:326|247:302|247:302|235:325|235:325|185:302|138:318,1,200,2|10,0:0|0:0,0:0:0:0:
79,241,46873,1,2,0:0:0:0:
150,170,47290,2,0,L|146:70,1,100,2|10,0:0|0:0,0:0:0:0:
238,31,48123,6,0,P|336:57|358:145,1,200,2|8,0:0|0:0,0:0:0:0:
294,220,49373,2,0,P|349:244|399:237,2,100,2|2|10,0:0|0:0|0:0,0:0:0:0:
196,197,50623,2,0,P|147:232|128:279,2,100,2|2|10,0:0|0:0|0:0,0:0:0:0:
266,126,51873,1,10,0:0:0:0:
236,30,52290,2,8,P|193:4|144:1,1,100,10|8,0:0|0:0,0:0:0:0:
76,74,53123,6,0,B|62:123|62:123|76:184,1,100,6|2,0:0|0:0,0:0:0:0:
103,266,53956,1,8,0:0:0:0:
196,231,54373,2,0,B|245:217|245:217|306:231,1,100,2|2,0:0|0:0,0:0:0:0:
388,257,55206,1,8,0:0:0:0:
451,179,55623,2,0,P|481:220|486:268,2,100,2|2|10,0:0|0:0|0:0,0:0:0:0:
384,104,56873,2,0,P|404:57|443:29,2,100,2|2|10,0:0|0:0|0:0,0:0:0:0:
355,200,58123,2,0,P|304:205|260:185,1,100,2|2,0:0|0:0,0:0:0:0:
205,102,58956,2,0,L|95:95,1,100,10|0,0:0|0:0,0:0:0:0:
48,177,59789,6,0,L|158:184,1,100,2|10,0:0|0:0,0:0:0:0:
198,269,60623,1,2,0:0:0:0:
248,182,61039,1,2,0:0:0:0:
196,96,61456,2,0,P|301:97|346:179,1,200,10|10,0:0|0:0,0:0:0:0:
359,262,62706,1,10,0:0:0:0:
301,342,63123,6,0,P|211:374|115:334,1,200,6|10,0:0|0:0,0:0:0:0:
72,247,64373,1,2,0:0:0:0:
112,155,64789,2,0,P|154:189|170:241,1,100,2|8,0:0|0:0,0:0:0:0:
147,329,65623,2,0,P|234:313|266:214,1,200,2|10,0:0|0:0,0:0:0:0:
186,156,66873,2,0,P|221:124|283:119,1,100,2|2,0:0|0:0,0:0:0:0:
362,146,67706,1,10,0:0:0:0:
404,236,68123,6,0,P|460:154|423:68,1,200,2|8,0:0|0:0,0:0:0:0:
334,23,69373,1,2,0:0:0:0:
263,94,69789,2,0,L|163:90,1,100,2|10,0:0|0:0,0:0:0:0:
92,160,70623,1,2,0:0:0:0:
22,232,71039,2,0,P|70:258|116:257,1,100,2|8,0:0|0:0,0:0:0:0:
202,208,71873,1,0,0:0:0:0:
260,288,72289,2,0,L|360:292,1,100,2|10,0:0|0:0,0:0:0:0:
453,329,73123,5,6,0:0:0:0:
440,231,73539,1,2,0:0:0:0:
360,173,73956,2,0,L|356:73,1,100,10|0,0:0|0:0,0:0:0:0:
265,29,74789,2,0,L|261:129,1,100,2|10,0:0|0:0,0:0:0:0:
181,187,75623,1,2,0:0:0:0:
125,270,76039,2,0,P|182:289|219:280,2,100,2|10|2,0:0|0:0|0:0,0:0:0:0:
56,197,77289,1,2,0:0:0:0:
46,97,77706,1,10,0:0:0:0:
146,95,78123,6,0,B|338:118|265:-4|461:17|461:17|467:104|350:140,1,500,2|8,0:0|0:0,0:0:0:0:
277,179,80623,2,0,L|268:289,1,100,2|0,0:0|0:0,0:0:0:0:
203,354,81456,1,8,0:0:0:0:
152,267,81873,2,0,L|148:167,1,100,2|0,0:0|0:0,0:0:0:0:
167,69,82706,1,8,0:0:0:0:
252,17,83123,5,2,0:0:0:0:
256,192,83331,12,0,86873,0:0:0:0:
