osu file format v14

[General]
AudioFilename: audio.mp3
AudioLeadIn: 0
PreviewTime: 42728
Countdown: 0
SampleSet: Soft
StackLeniency: 0.7
Mode: 0
LetterboxInBreaks: 0
WidescreenStoryboard: 0

[Editor]
Bookmarks: 38248
DistanceSpacing: 1.2
BeatDivisor: 4
GridSize: 8
TimelineZoom: 1

[Metadata]
Title:Sore wa Chiisana Hikari no Youna
TitleUnicode:それは小さな光のような
Artist:Sayuri
ArtistUnicode:さユり
Creator:Hey lululu
Version:konG's Insane
Source:僕だけがいない街
Tags:tv size boku dake ga inai machi erased ending 23kong kencho
BeatmapID:1013310
BeatmapSetID:474376

[Difficulty]
HPDrainRate:6
CircleSize:4
OverallDifficulty:7
ApproachRate:8
SliderMultiplier:1.7
SliderTickRate:2

[Events]
//Background and Video events
0,0,"Bakanano.jpg",0,0
Video,0,"video.avi"
//Break Periods
//Storyboard Layer 0 (Background)
//Storyboard Layer 1 (Fail)
//Storyboard Layer 2 (Pass)
//Storyboard Layer 3 (Foreground)
//Storyboard Sound Samples

[TimingPoints]
2728,416.666666666667,3,2,1,35,1,0
3978,-125,3,2,97,35,0,0
25123,-125,3,2,98,55,0,0
38248,-125,3,2,96,55,0,0
38457,-125,3,2,98,55,0,0
40540,-125,3,2,98,25,0,0
40957,-125,3,2,98,35,0,0
41373,-125,3,2,98,45,0,0
41790,-125,3,2,98,55,0,0
42207,-125,3,2,98,65,0,0
42623,-100,3,2,99,70,0,0
42728,-100,3,2,99,70,0,1
50748,-100,3,2,95,70,0,1
50957,-100,3,2,99,70,0,1
82623,-100,3,2,1,50,0,0

[Colours]
Combo1 : 192,192,192
Combo2 : 255,0,0
Combo3 : 0,0,255
Combo4 : 0,174,255

[HitObjects]
161,72,4394,6,0,P|125:62|78:67,2,68
222,125,5019,1,0,0:0:0:0:
222,125,5228,6,0,L|390:114,1,136,6|0,0:0|0:0,0:0:0:0:
409,53,5853,2,0,P|445:51|490:63,2,68,0|0|0,0:0|3:0|0:0,0:0:0:0:
331,153,6478,6,0,L|341:302,1,136,2|0,0:0|3:0,0:0:0:0:
412,326,7103,2,0,P|458:323|503:305,2,68,0|0|0,0:0|0:0|3:0,0:0:0:0:
298,268,7728,6,0,P|235:265|163:310,1,136,2|0,0:0|0:0,0:0:0:0:
105,346,8353,2,0,L|27:339,2,68,0|0|0,0:0|3:0|0:0,0:0:0:0:
149,265,8978,6,0,L|13:252,1,136,2|0,0:0|3:0,0:0:0:0:
110,180,9603,1,0,0:0:0:0:
110,180,9811,2,0,P|121:148|122:96,1,68,0|0,0:0|3:0,0:0:0:0:
60,64,10228,6,0,P|138:79|220:65,1,136,2|0,0:0|0:0,0:0:0:0:
268,40,10853,1,0,0:0:0:0:
343,69,11061,2,0,P|380:69|436:54,1,68,0|0,3:0|0:0,0:0:0:0:
483,27,11478,6,0,P|421:33|381:110,1,136,2|0,0:0|3:0,0:0:0:0:
376,171,12103,1,0,0:0:0:0:
376,171,12311,2,0,P|382:208|397:243,1,68,0|0,0:0|3:0,0:0:0:0:
294,149,12728,6,0,P|238:156|147:179,2,136,2|0|0,0:0|0:0|3:0,0:0:0:0:
74,113,13978,5,2,0:0:0:0:
171,247,14395,1,0,3:0:0:0:
246,196,14603,1,0,0:0:0:0:
169,156,14811,1,0,0:0:0:0:
171,259,15019,1,0,3:0:0:0:
79,240,15228,6,0,P|77:281|86:335,2,68,6|0|0,0:0|0:0|0:0,0:0:0:0:
82,158,15853,1,0,0:0:0:0:
153,116,16061,2,0,P|186:111|220:108,1,68,0|0,3:0|0:0,0:0:0:0:
399,182,16478,6,0,P|332:191|267:176,1,136,2|0,0:0|3:0,0:0:0:0:
311,101,17103,1,0,0:0:0:0:
311,101,17311,2,0,P|344:95|378:92,1,68,0|0,0:0|3:0,0:0:0:0:
425,212,17728,6,0,P|421:269|402:362,1,136,2|0,0:0|0:0,0:0:0:0:
327,367,18353,1,0,0:0:0:0:
253,332,18561,2,0,P|219:326|162:328,1,68,0|0,3:0|0:0,0:0:0:0:
150,245,18978,6,0,P|222:244|305:263,1,136,2|0,0:0|3:0,0:0:0:0:
361,223,19603,2,0,P|368:189|367:155,1,68
352,80,20019,1,0,3:0:0:0:
226,76,20228,6,0,P|218:109|219:143,1,68,2|0,0:0|0:0,0:0:0:0:
242,220,20644,1,0,0:0:0:0:
194,153,20853,1,0,0:0:0:0:
112,147,21061,1,0,3:0:0:0:
44,193,21269,1,0,0:0:0:0:
21,271,21478,6,0,P|86:283|166:265,1,136,6|0,0:0|3:0,0:0:0:0:
229,238,22103,2,0,P|267:237|310:258,2,68,0|0|0,0:0|0:0|3:0,0:0:0:0:
236,319,22728,6,0,P|301:331|363:305,1,136,2|0,0:0|0:0,0:0:0:0:
421,246,23353,1,0,0:0:0:0:
382,174,23561,2,0,P|381:139|391:94,1,68,0|0,3:0|0:0,0:0:0:0:
398,323,23978,5,2,0:0:0:0:
55,303,25228,5,4,0:3:0:0:
203,191,25436,1,8,0:0:0:0:
134,283,25644,2,0,P|127:253|126:213,1,68,8|0,0:0|0:0,0:0:0:0:
264,246,26061,2,0,P|270:275|272:316,1,68,8|8,0:0|0:0,0:0:0:0:
203,191,26478,6,0,P|255:165|325:194,1,136,2|8,0:0|0:0,0:0:0:0:
346,270,27103,1,0,0:0:0:0:
272,312,27311,1,2,0:0:0:0:
199,350,27519,1,8,0:0:0:0:
346,352,27728,6,0,P|383:355|413:352,1,68,2|0,0:0|0:0,0:0:0:0:
278,269,28144,2,0,P|315:272|345:269,1,68,0|8,0:0|0:0,0:0:0:0:
215,178,28561,2,0,P|252:181|282:178,1,68,8|0,0:0|0:0,0:0:0:0:
428,77,28978,6,0,P|373:79|292:91,1,136,2|0,0:0|0:0,0:0:0:0:
211,95,29603,1,2,0:0:0:0:
156,34,29811,2,0,P|111:34|73:42,1,68,8|0,0:0|0:0,0:0:0:0:
127,180,30228,6,0,P|120:146|124:112,1,68,2|8,0:0|0:0,0:0:0:0:
269,137,30644,2,0,P|275:170|271:204,1,68,8|2,0:0|0:0,0:0:0:0:
83,262,31061,6,0,P|149:262|228:265,1,136,8|2,0:0|0:0,0:0:0:0:
254,352,31686,1,8,0:0:0:0:
219,265,31894,1,0,0:0:0:0:
312,281,32103,1,2,0:0:0:0:
160,340,32311,1,8,0:0:0:0:
132,336,32728,6,0,P|122:267|121:191,1,136,2|0,0:0|0:0,0:0:0:0:
210,167,33353,1,2,0:0:0:0:
37,113,33561,2,0,P|80:108|121:112,1,68,8|0,0:0|0:0,0:0:0:0:
295,119,33978,5,2,0:0:0:0:
126,219,34186,1,8,0:0:0:0:
315,119,34394,1,0,0:0:0:0:
185,80,34603,1,2,0:0:0:0:
274,197,34811,6,0,P|335:202|388:169,1,102,8|0,0:0|0:0,0:0:0:0:
390,165,35228,1,2,0:0:0:0:
485,78,35436,2,0,P|474:110|470:143,1,68,8|8,0:0|0:0,0:0:0:0:
512,255,35853,1,2,0:0:0:0:
348,289,36061,1,8,0:0:0:0:
368,285,36478,6,0,P|417:292|453:306,1,68,2|8,0:0|0:0,0:0:0:0:
256,331,36894,2,0,P|207:324|171:310,1,68,2|0,0:0|0:0,0:0:0:0:
306,231,37311,1,8,0:0:0:0:
141,297,37519,1,0,0:0:0:0:
66,148,37728,6,0,P|60:104|62:72,1,68,2|0,0:0|0:0,0:0:0:0:
142,177,38144,2,0,P|89:226|17:212,1,136,2|8,0:0|0:0,0:0:0:0:
208,130,38769,1,0,0:0:0:0:
141,297,38978,5,2,0:0:0:0:
66,148,39186,1,8,0:0:0:0:
232,121,39394,2,0,P|271:119|306:126,1,68,2|8,0:0|0:0,0:0:0:0:
401,71,39811,6,0,P|379:123|370:213,1,136,8|4,0:0|0:3,0:0:0:0:
405,330,40436,1,4,0:3:0:0:
287,246,40644,6,0,L|204:256,1,68,4|2,0:3|0:0,0:0:0:0:
250,329,41061,2,0,L|167:339,1,68,4|2,0:3|0:2,0:0:0:0:
0,179,41478,6,0,L|83:189,1,68,8|2,0:0|0:2,0:0:0:0:
37,262,41895,2,0,L|120:272,1,68,4|2,0:3|0:2,0:0:0:0:
246,171,42311,1,4,0:3:0:0:
129,108,42728,5,6,0:0:0:0:
278,243,42936,1,0,0:0:0:0:
306,41,43144,1,2,0:0:0:0:
512,110,43353,2,0,P|423:111|317:118,1,170,8|2,0:0|0:0,0:0:0:0:
265,130,43978,5,0,0:0:0:0:
444,71,44186,1,2,0:0:0:0:
403,282,44394,2,0,P|380:226|454:146,1,170,10|8,0:0|0:0,0:0:0:0:
461,226,45019,1,2,0:0:0:0:
188,188,45228,5,2,0:0:0:0:
343,156,45436,1,0,0:0:0:0:
263,272,45644,1,2,0:0:0:0:
110,103,45853,1,8,0:0:0:0:
306,147,46061,1,8,0:0:0:0:
186,197,46269,1,2,0:0:0:0:
187,82,46478,6,0,P|240:78|285:80,1,85,2|0,0:0|0:0,0:0:0:0:
56,173,46894,2,0,P|22:100|84:17,1,170,10|8,0:0|0:0,0:0:0:0:
280,92,47519,1,2,0:0:0:0:
110,103,47728,5,2,0:0:0:0:
231,0,47936,1,0,0:0:0:0:
289,106,48144,2,0,P|338:106|398:98,1,85,8|0,0:0|0:0,0:0:0:0:
458,79,48561,1,0,0:0:0:0:
292,63,48769,1,2,0:0:0:0:
277,201,48978,6,0,P|365:202|466:191,1,170,2|8,0:0|0:0,0:0:0:0:
190,188,49603,1,2,0:0:0:0:
117,229,49811,2,0,P|118:286|124:328,1,85,8|0,0:0|0:0,0:0:0:0:
332,112,50228,6,0,P|331:55|325:13,1,85,2|0,0:0|0:0,0:0:0:0:
91,41,50644,2,0,P|176:82|271:65,1,170,2|0,0:0|0:0,0:0:0:0:
327,27,51269,1,2,0:0:0:0:
260,164,51478,5,0,0:0:0:0:
448,202,51686,1,2,0:0:0:0:
334,106,51894,1,8,0:0:0:0:
359,304,52103,1,2,0:0:0:0:
193,217,52311,2,0,P|268:207|328:211,1,127.5,10|0,0:0|0:0,0:0:0:0:
346,220,52728,5,6,0:0:0:0:
149,286,52936,2,0,P|107:292|55:285,1,85,8|0,0:0|0:0,0:0:0:0:
174,136,53353,1,2,0:0:0:0:
233,288,53561,1,8,0:0:0:0:
380,186,53769,1,0,0:0:0:0:
174,136,53978,6,0,P|178:182|198:223,1,85,2|0,0:0|0:0,0:0:0:0:
236,73,54394,2,0,P|159:49|86:114,1,170,8|8,0:0|0:0,0:0:0:0:
378,44,55019,1,8,0:0:0:0:
284,179,55228,5,2,0:0:0:0:
443,129,55436,1,2,0:0:0:0:
443,129,55644,2,0,P|441:210|453:310,1,170,8|8,0:0|0:0,0:0:0:0:
473,372,56269,1,2,0:0:0:0:
330,285,56478,6,0,P|285:289|223:311,1,85,2|0,0:0|0:0,0:0:0:0:
133,366,56894,2,0,P|152:325|163:260,1,85,8|0,0:0|0:0,0:0:0:0:
162,158,57311,2,0,P|187:194|238:237,1,85,8|0,0:0|0:0,0:0:0:0:
418,121,57728,6,0,P|342:121|235:149,1,170,2|0,0:0|0:0,0:0:0:0:
75,173,58353,1,2,0:0:0:0:
75,173,58561,2,0,P|77:221|85:278,1,85,8|2,0:0|0:0,0:0:0:0:
159,130,58978,6,0,P|163:80|75:15,1,170,2|0,0:0|0:0,0:0:0:0:
2,49,59603,1,2,0:0:0:0:
242,109,59811,2,0,P|297:113|334:107,1,85,8|0,0:0|0:0,0:0:0:0:
440,15,60228,6,0,P|435:109|427:205,1,170,2|0,0:0|0:0,0:0:0:0:
352,311,60853,2,0,L|352:226,1,85,2|8,0:0|0:0,0:0:0:0:
508,217,61269,1,2,0:0:0:0:
352,145,61478,5,0,0:0:0:0:
430,321,61686,1,2,0:0:0:0:
337,136,61894,2,0,P|296:124|245:127,1,85,8|2,0:0|0:0,0:0:0:0:
203,297,62311,2,0,P|243:308|295:306,1,85,8|8,0:0|0:0,0:0:0:0:
352,145,62728,5,6,0:0:0:0:
195,318,62936,1,0,0:0:0:0:
153,164,63144,1,2,0:0:0:0:
339,241,63353,1,8,0:0:0:0:
256,88,63561,1,8,0:0:0:0:
173,241,63769,1,2,0:0:0:0:
166,39,63978,6,0,P|119:41|65:59,1,85,2|0,0:0|0:0,0:0:0:0:
270,98,64394,2,0,P|352:107|402:51,1,127.5,8|0,0:0|0:0,0:0:0:0:
406,47,64811,1,8,0:0:0:0:
142,115,65019,1,2,0:0:0:0:
396,195,65228,5,2,0:0:0:0:
320,350,65436,1,0,0:0:0:0:
252,193,65644,2,0,P|243:258|249:292,1,85,2|8,0:0|0:0,0:0:0:0:
409,296,66061,2,0,P|418:231|412:197,1,85,8|2,0:0|0:0,0:0:0:0:
161,307,66478,5,0,0:0:0:0:
331,245,66686,1,2,0:0:0:0:
150,140,66894,2,0,P|155:214|226:173,1,170,8|8,0:0|0:0,0:0:0:0:
233,107,67519,1,2,0:0:0:0:
15,83,67728,5,2,0:0:0:0:
150,140,67936,1,0,0:0:0:0:
233,23,68144,2,0,P|277:14|345:23,1,85,2|8,0:0|0:0,0:0:0:0:
504,67,68561,2,0,P|460:76|392:67,1,85,8|2,0:0|0:0,0:0:0:0:
338,89,68978,5,2,0:0:0:0:
512,49,69186,1,2,0:0:0:0:
451,206,69394,2,0,P|361:203|274:190,1,170,8|8,0:0|0:0,0:0:0:0:
201,173,70019,1,2,0:0:0:0:
356,326,70228,5,2,0:0:0:0:
173,363,70436,1,0,0:0:0:0:
255,230,70644,2,0,P|178:269|100:245,1,170,2|8,0:0|0:0,0:0:0:0:
38,183,71269,1,2,0:0:0:0:
124,46,71478,6,0,P|178:47|210:52,1,85,2|2,0:0|0:0,0:0:0:0:
197,133,71894,2,0,P|251:134|283:139,1,85,8|0,0:0|0:0,0:0:0:0:
262,217,72311,2,0,P|316:218|348:223,1,85,8|8,0:0|0:0,0:0:0:0:
372,40,72728,6,0,P|375:126|447:170,1,170,6|0,0:0|0:0,0:0:0:0:
448,84,73353,1,2,0:0:0:0:
489,243,73561,1,8,0:0:0:0:
281,138,73769,1,2,0:0:0:0:
439,169,73978,5,2,0:0:0:0:
335,290,74186,1,8,0:0:0:0:
335,290,74394,2,0,P|250:289|151:295,1,170,2|8,0:0|0:0,0:0:0:0:
91,340,75019,1,2,0:0:0:0:
208,207,75228,6,0,P|218:152|222:121,2,85,6|2|8,0:0|0:0|0:0,0:0:0:0:
90,251,75853,1,0,0:0:0:0:
153,78,76061,2,0,P|194:47|298:98,1,170,2|2,0:0|0:0,0:0:0:0:
325,244,76686,5,2,0:0:0:0:
471,114,76894,1,8,0:0:0:0:
309,165,77103,1,0,0:0:0:0:
420,280,77311,2,0,P|481:291|508:287,1,85,8|8,0:0|0:0,0:0:0:0:
302,239,77728,6,0,B|257:228|217:245|217:245|174:264|123:251,1,170,6|0,0:0|0:0,0:0:0:0:
72,165,78353,1,2,0:0:0:0:
307,145,78561,1,8,0:0:0:0:
264,313,78769,1,2,0:0:0:0:
223,132,78978,6,0,P|255:78|365:83,1,170,2|2,0:0|0:0,0:0:0:0:
467,295,79603,2,0,P|435:349|325:344,1,170,8|2,0:0|0:0,0:0:0:0:
114,192,80228,6,0,P|66:191|20:201,1,85,6|0,0:0|0:0,0:0:0:0:
182,259,80644,1,2,0:0:0:0:
182,259,80853,2,0,P|265:257|361:260,1,170,8|2,0:0|0:0,0:0:0:0:
134,337,81478,5,6,0:0:0:0:
276,341,81686,1,0,0:0:0:0:
85,256,81894,1,2,0:0:0:0:
351,259,82103,1,8,0:0:0:0:
138,175,82311,1,8,0:0:0:0:
248,341,82519,1,8,0:0:0:0:
422,193,82728,5,6,0:0:0:0:
256,192,82936,12,2,86200,0:0:0:0:
