osu file format v14

[General]
AudioFilename: audio.mp3
AudioLeadIn: 0
PreviewTime: 42728
Countdown: 0
SampleSet: Soft
StackLeniency: 0.7
Mode: 0
LetterboxInBreaks: 0
WidescreenStoryboard: 0

[Editor]
DistanceSpacing: 1.1
BeatDivisor: 4
GridSize: 8
TimelineZoom: 2.7

[Metadata]
Title:Sore wa Chiisana Hikari no Youna
TitleUnicode:それは小さな光のような
Artist:Sayuri
ArtistUnicode:さユり
Creator:Hey lululu
Version:Review
Source:僕だけがいない街
Tags:tv size boku dake ga inai machi erased ending 23kong kencho
BeatmapID:1018869
BeatmapSetID:474376

[Difficulty]
HPDrainRate:6
CircleSize:4
OverallDifficulty:8
ApproachRate:8.5
SliderMultiplier:1.8
SliderTickRate:1

[Events]
//Background and Video events
Video,0,"video.avi"
0,0,"Bakanano.jpg",0,0
//Break Periods
//Storyboard Layer 0 (Background)
//Storyboard Layer 1 (Fail)
//Storyboard Layer 2 (Pass)
//Storyboard Layer 3 (Foreground)
//Storyboard Sound Samples

[TimingPoints]
2728,416.666666666667,3,2,1,50,1,0
3978,-133.333333333333,3,2,1,50,0,0
25228,-111.111111111111,3,2,1,50,0,0
26478,-111.111111111111,3,2,1,50,0,0
26894,-111.111111111111,3,2,2,50,0,0
27311,-111.111111111111,3,2,1,50,0,0
27728,-111.111111111111,3,2,1,50,0,0
28978,-111.111111111111,3,2,1,50,0,0
30228,-111.111111111111,3,2,1,50,0,0
31478,-111.111111111111,3,2,1,50,0,0
31894,-111.111111111111,3,2,2,50,0,0
32103,-111.111111111111,3,2,1,50,0,0
32728,-111.111111111111,3,2,1,50,0,0
33978,-111.111111111111,3,2,1,50,0,0
39811,-111.111111111111,3,2,2,50,0,0
40019,-111.111111111111,3,2,1,50,0,0
40644,-166.666666666667,3,2,99,50,0,0
41894,-111.111111111111,3,2,1,50,0,0
42728,-100,3,2,3,70,0,1
82728,-100,3,2,1,50,0,0
83978,-100,3,2,1,40,0,0
85228,-100,3,2,1,30,0,0
86478,-100,3,2,1,20,0,0
87728,-100,3,2,1,10,0,0
88353,-100,3,2,1,5,0,0

[Colours]
Combo1 : 192,192,192
Combo2 : 255,0,0
Combo3 : 0,0,255
Combo4 : 0,174,255

[HitObjects]
421,208,3978,5,0,0:0:0:0:
421,208,4394,1,2,0:0:0:0:
402,108,4603,1,0,0:0:0:0:
314,58,4811,1,0,0:0:0:0:
223,102,5019,1,0,0:0:0:0:
193,199,5228,6,0,B|184:246|184:246|211:342,1,135.000005149842,0|2,0:0|0:0,0:0:0:0:
309,328,5853,1,0,0:0:0:0:
325,228,6061,2,0,P|324:190|305:146,1,67.5000025749208
278,87,6478,6,0,L|132:73,1,135.000005149842,0|2,0:0|0:0,0:0:0:0:
184,204,7103,2,0,L|275:185,1,67.5000025749208
358,227,7519,1,0,0:0:0:0:
405,338,7728,6,0,P|349:347|286:303,1,135.000005149842,0|2,0:0|0:0,0:0:0:0:
278,194,8353,1,0,0:0:0:0:
278,194,8561,2,0,P|282:149|273:104,1,67.5000025749208
222,20,8978,6,0,L|75:25,1,135.000005149842,0|2,0:0|0:0,0:0:0:0:
44,118,9603,1,0,0:0:0:0:
200,112,9811,1,0,0:0:0:0:
130,217,10019,1,0,0:0:0:0:
309,200,10228,6,0,L|449:183,1,135.000005149842,0|2,0:0|0:0,0:0:0:0:
267,58,10853,1,0,0:0:0:0:
267,58,11061,2,0,P|252:92|251:140,1,67.5000025749208
235,237,11478,6,0,B|205:220|171:235|171:235|136:248|105:230,1,135.000005149842,0|2,0:0|0:0,0:0:0:0:
98,44,12103,1,0,0:0:0:0:
245,105,12311,1,0,0:0:0:0:
102,141,12519,1,0,0:0:0:0:
218,183,12728,6,0,P|255:187|299:168,1,67.5000025749208
323,307,13144,1,2,0:0:0:0:
371,206,13353,1,0,0:0:0:0:
223,267,13561,2,0,L|138:268,1,67.5000025749208
208,137,13978,6,0,P|173:77|199:11,1,135.000005149842,0|2,0:0|0:0,0:0:0:0:
316,170,14603,1,0,0:0:0:0:
150,194,14811,1,0,0:0:0:0:
254,71,15019,1,0,0:0:0:0:
398,190,15228,6,0,L|366:352,1,135.000005149842,0|2,0:0|0:0,0:0:0:0:
198,268,15853,1,0,0:0:0:0:
247,169,16061,1,0,0:0:0:0:
288,328,16269,1,0,0:0:0:0:
128,198,16478,6,0,P|101:268|138:345,1,135.000005149842,0|2,0:0|0:0,0:0:0:0:
288,328,17103,1,0,0:0:0:0:
201,264,17311,1,0,0:0:0:0:
198,372,17519,1,0,0:0:0:0:
381,285,17728,6,0,P|445:290|506:341,2,135.000005149842,0|2|0,0:0|0:0|0:0,0:0:0:0:
236,323,18769,1,0,0:0:0:0:
236,323,18978,2,0,L|247:177,1,135.000005149842,0|2,0:0|0:0,0:0:0:0:
256,74,19603,2,0,L|188:80,1,67.5000025749208
404,104,20019,1,0,0:0:0:0:
340,208,20228,6,0,L|318:354,2,135.000005149842,0|2|0,0:0|0:0|0:0,0:0:0:0:
212,117,21478,2,0,P|288:120|324:8,1,202.500007724762,8|2,0:0|0:0,0:0:0:0:
212,117,22311,2,0,L|230:195,1,67.5000025749208
268,305,22728,6,0,B|199:315|199:315|120:309,1,135.000005149842
157,183,23353,2,0,B|91:178|91:178|22:188,1,135.000005149842
22,187,23978,1,4,0:0:0:0:
266,174,25228,6,0,P|224:176|186:191,2,80.9999975280763,0|8|8,0:0|0:0|0:0,0:0:0:0:
358,226,25853,1,0,0:0:0:0:
446,179,26061,2,0,P|455:219|450:263,1,80.9999975280763,8|0,0:0|0:0,0:0:0:0:
346,326,26478,6,0,B|265:342|265:342|182:326,2,161.999995056153,0|8|8,0:0|0:0|0:0,0:0:0:0:
212,220,27519,1,0,0:0:0:0:
316,157,27728,6,0,L|329:239,2,80.9999975280763
246,89,28353,1,0,0:0:0:0:
246,89,28561,2,0,P|273:60|312:47,1,80.9999975280763,8|0,0:0|0:0,0:0:0:0:
232,169,28978,6,0,B|146:182|146:182|76:149,2,161.999995056153,0|0|8,0:0|0:0|0:0,0:0:0:0:
264,66,30019,1,0,0:0:0:0:
329,146,30228,5,0,0:0:0:0:
329,146,30436,2,0,L|324:240,1,80.9999975280763,0|8,0:0|0:0,0:0:0:0:
455,336,30853,2,0,L|460:242,1,80.9999975280763,0|8,0:0|0:0,0:0:0:0:
469,127,31269,1,0,0:0:0:0:
335,331,31478,5,8,0:0:0:0:
338,110,31686,1,8,0:0:0:0:
455,336,31894,1,8,0:0:0:0:
269,226,32103,1,8,0:0:0:0:
469,127,32311,1,8,0:0:0:0:
238,118,32728,6,0,P|306:84|393:108,2,161.999995056153,0|0|8,0:0|0:0|0:0,0:0:0:0:
122,314,33769,1,0,0:0:0:0:
182,200,33978,5,8,0:0:0:0:
250,382,34186,1,8,0:0:0:0:
31,241,34394,1,8,0:0:0:0:
322,167,34603,1,0,0:0:0:0:
216,55,34811,2,0,L|94:46,1,121.499996292114,8|0,0:0|0:0,0:0:0:0:
57,70,35228,6,0,L|65:165,1,80.9999975280763,0|8,0:0|0:0,0:0:0:0:
190,270,35644,1,0,0:0:0:0:
191,148,35853,1,0,0:0:0:0:
71,268,36061,2,0,L|57:364,1,80.9999975280763,8|0,0:0|0:0,0:0:0:0:
190,270,36478,5,8,0:0:0:0:
349,230,36686,1,8,0:0:0:0:
257,199,36894,1,8,0:0:0:0:
284,302,37103,1,0,0:0:0:0:
333,133,37311,1,8,0:0:0:0:
377,318,37519,1,0,0:0:0:0:
405,96,37728,6,0,P|350:52|267:85,1,161.999995056153
395,182,38353,1,8,0:0:0:0:
417,10,38561,1,8,0:0:0:0:
333,133,38769,1,0,0:0:0:0:
464,231,38978,6,0,P|477:199|469:143,1,80.9999975280763,8|8,0:0|0:0,0:0:0:0:
247,241,39394,1,8,0:0:0:0:
432,322,39603,1,0,0:0:0:0:
400,184,39811,1,8,0:0:0:0:
280,372,40019,1,8,0:0:0:0:
198,156,40228,5,8,0:0:0:0:
201,339,40436,1,0,0:0:0:0:
334,242,40644,2,0,L|395:254,1,53.9999983520508,2|2,0:0|0:0,0:0:0:0:
198,156,41061,2,0,L|137:168,1,53.9999983520508,2|2,0:0|0:0,0:0:0:0:
251,257,41478,2,0,P|255:294|252:318,1,53.9999983520508,2|2,0:0|0:0,0:0:0:0:
199,156,41894,5,0,0:0:0:0:
403,169,42311,1,0,0:0:0:0:
174,35,42728,5,4,0:0:0:0:
243,285,42936,1,0,0:0:0:0:
69,162,43144,1,0,0:0:0:0:
330,128,43353,2,0,L|325:226,1,90,0|8,0:0|0:0,0:0:0:0:
174,35,43769,1,0,0:0:0:0:
415,166,43978,6,0,L|410:264,1,90
253,82,44394,2,0,P|322:33|404:73,1,180,0|8,0:0|0:0,0:0:0:0:
301,232,45019,1,0,0:0:0:0:
170,27,45228,5,0,0:0:0:0:
401,69,45436,1,0,0:0:0:0:
210,216,45644,1,0,0:0:0:0:
434,240,45853,1,0,0:0:0:0:
239,92,46061,1,8,0:0:0:0:
190,311,46269,1,0,0:0:0:0:
322,133,46478,6,0,P|328:94|315:43,1,90
106,280,46894,2,0,P|191:311|273:276,1,180,0|8,0:0|0:0,0:0:0:0:
253,104,47519,1,0,0:0:0:0:
123,108,47728,6,0,L|125:203,1,90
253,104,48144,1,0,0:0:0:0:
360,197,48353,2,0,L|358:292,2,90,0|8|0,0:0|0:0|0:0,0:0:0:0:
379,62,48978,6,0,P|332:64|283:115,1,90,2|0,0:0|0:0,0:0:0:0:
114,124,49394,2,0,P|167:131|204:157,1,90,2|0,0:0|0:0,0:0:0:0:
371,220,49811,2,0,P|324:222|275:273,1,90,10|0,0:0|0:0,0:0:0:0:
344,384,50228,6,0,L|352:290,1,90,2|0,0:0|0:0,0:0:0:0:
263,59,50644,2,0,L|247:177,1,90,2|0,0:0|0:0,0:0:0:0:
117,384,51061,2,0,L|131:289,1,90,10|0,0:0|0:0,0:0:0:0:
100,58,51478,5,10,0:0:0:0:
251,205,51686,1,10,0:0:0:0:
261,46,51894,1,2,0:0:0:0:
90,213,52103,1,8,0:0:0:0:
101,71,52311,1,8,0:0:0:0:
219,206,52519,1,0,0:0:0:0:
274,28,52728,6,0,P|267:73|271:126,1,90,4|0,0:0|0:0,0:0:0:0:
269,291,53144,2,0,P|346:238|424:278,1,180,0|8,0:0|0:0,0:0:0:0:
249,176,53769,1,0,0:0:0:0:
269,291,53978,6,0,P|268:335|259:386,1,90
90,270,54394,2,0,P|58:184|116:121,1,180,0|8,0:0|0:0,0:0:0:0:
269,291,55019,1,0,0:0:0:0:
337,128,55228,6,0,L|345:25,1,90
179,285,55644,2,0,L|187:388,1,90
344,202,56061,1,8,0:0:0:0:
113,208,56269,1,0,0:0:0:0:
362,376,56478,6,0,L|379:273,1,90
240,52,56894,2,0,L|257:155,1,90
124,373,57311,2,0,L|141:270,1,90,8|0,0:0|0:0,0:0:0:0:
399,83,57728,6,0,L|416:183,1,90
210,46,58144,1,0,0:0:0:0:
369,273,58353,1,0,0:0:0:0:
392,76,58561,1,8,0:0:0:0:
170,197,58769,1,0,0:0:0:0:
252,142,58978,6,0,P|266:213|195:292,1,180
147,112,59603,1,0,0:0:0:0:
368,183,59811,2,0,L|458:148,1,90,8|0,0:0|0:0,0:0:0:0:
276,34,60228,6,0,B|234:57|194:35|194:35|152:14|102:33,1,180
338,114,60853,1,0,0:0:0:0:
254,222,61061,2,0,L|244:328,1,90,8|0,0:0|0:0,0:0:0:0:
368,267,61478,6,0,L|477:270,1,90
369,62,61894,1,8,0:0:0:0:
246,251,62103,1,8,0:0:0:0:
443,143,62311,1,8,0:0:0:0:
239,48,62519,1,8,0:0:0:0:
268,271,62728,5,4,0:0:0:0:
349,61,62936,1,0,0:0:0:0:
143,151,63144,1,0,0:0:0:0:
360,211,63353,1,0,0:0:0:0:
205,47,63561,1,8,0:0:0:0:
218,271,63769,1,0,0:0:0:0:
53,157,63978,6,0,L|155:150,1,90
293,82,64394,2,0,P|313:158|407:185,1,180,0|8,0:0|0:0,0:0:0:0:
388,27,65019,1,0,0:0:0:0:
220,12,65228,6,0,P|176:12|123:22,2,90
389,49,65853,1,0,0:0:0:0:
247,110,66061,2,0,P|243:153|245:206,1,90,8|0,0:0|0:0,0:0:0:0:
315,384,66478,5,0,0:0:0:0:
331,170,66686,1,0,0:0:0:0:
144,290,66894,2,0,P|129:249|126:199,1,90
145,81,67311,2,0,P|197:88|242:79,1,90,8|0,0:0|0:0,0:0:0:0:
460,129,67728,6,0,P|417:119|373:126,1,90
257,232,68144,2,0,P|205:162|234:80,1,180,0|8,0:0|0:0,0:0:0:0:
376,269,68769,1,0,0:0:0:0:
130,300,68978,6,0,L|35:295,1,90
261,372,69394,2,0,B|266:314|266:314|242:256|242:256|251:182,1,180,0|8,0:0|0:0,0:0:0:0:
376,269,70019,1,0,0:0:0:0:
237,114,70228,6,0,P|186:138|166:178,1,90
335,236,70644,1,0,0:0:0:0:
278,26,70853,1,0,0:0:0:0:
409,122,71061,2,0,L|513:119,1,90,8|0,0:0|0:0,0:0:0:0:
333,305,71478,5,10,0:0:0:0:
444,77,71686,1,10,0:0:0:0:
449,310,71894,1,2,0:0:0:0:
333,75,72103,1,8,0:0:0:0:
512,198,72311,1,8,0:0:0:0:
256,189,72519,1,0,0:0:0:0:
354,328,72728,6,0,P|388:250|337:163,1,180,4|0,0:0|0:0,0:0:0:0:
182,354,73353,1,0,0:0:0:0:
121,139,73561,1,8,0:0:0:0:
277,288,73769,1,0,0:0:0:0:
292,120,73978,6,0,P|293:77|286:18,1,90
203,215,74394,2,0,P|246:272|366:260,1,180,0|8,0:0|0:0,0:0:0:0:
414,132,75019,1,0,0:0:0:0:
303,92,75228,6,0,P|298:140|302:188,1,90,4|0,0:0|0:0,0:0:0:0:
510,233,75644,2,0,P|515:185|511:137,1,90
484,331,76061,1,8,0:0:0:0:
394,103,76269,1,0,0:0:0:0:
321,238,76478,6,0,P|278:261|217:248,1,90
400,16,76894,2,0,P|444:32|475:74,1,90
163,318,77311,2,0,L|163:171,1,135,8|0,0:0|0:0,0:0:0:0:
181,137,77728,6,0,P|136:145|83:129,1,90,4|0,0:0|0:0,0:0:0:0:
390,73,78144,1,0,0:0:0:0:
279,264,78353,1,0,0:0:0:0:
212,45,78561,1,10,0:0:0:0:
389,222,78769,1,2,0:0:0:0:
155,288,78978,6,0,P|112:296|57:283,1,90,4|0,0:0|0:0,0:0:0:0:
313,113,79394,1,0,0:0:0:0:
285,372,79603,1,0,0:0:0:0:
177,96,79811,1,10,0:0:0:0:
144,363,80019,1,0,0:0:0:0:
372,273,80228,6,0,P|378:316|369:369,1,90,4|0,0:0|0:0,0:0:0:0:
125,274,80644,1,0,0:0:0:0:
281,152,80853,1,0,0:0:0:0:
221,360,81061,1,10,0:0:0:0:
188,95,81269,1,2,0:0:0:0:
372,273,81478,5,4,0:0:0:0:
114,210,81686,1,0,0:0:0:0:
168,17,81894,5,0,0:0:0:0:
249,246,82103,1,0,0:0:0:0:
24,289,82311,5,10,0:0:0:0:
209,134,82519,1,0,0:0:0:0:
294,358,82728,5,2,0:0:0:0:
256,192,82832,12,0,88353,0:0:0:0:
