osu file format v14

[General]
AudioFilename: audio.mp3
AudioLeadIn: 0
PreviewTime: 195297
Countdown: 0
SampleSet: Soft
StackLeniency: 0.7
Mode: 0
LetterboxInBreaks: 0
WidescreenStoryboard: 1

[Editor]
Bookmarks: 87797,117797,175297,195297,255297
DistanceSpacing: 1
BeatDivisor: 2
GridSize: 32
TimelineZoom: 1.8

[Metadata]
Title:Sore wa Chiisana Hikari no Youna
TitleUnicode:それは小さな光のような
Artist:Sayuri
ArtistUnicode:さユり
Creator:Hey lululu
Version:Normal.
Source:僕だけがいない街
Tags:ミカヅキの航海 Mikadzuki no kokai sorewachiisanahikarinoyouna-special edition Boku dake ga Inai Machi 酸欠少女さユり Sanketsu shojo sayuri ERASED full ed ending anime japanese j-rock rock lu^3
BeatmapID:3209537
BeatmapSetID:1535614

[Difficulty]
HPDrainRate:4
CircleSize:3.5
OverallDifficulty:5
ApproachRate:6
SliderMultiplier:1
SliderTickRate:1

[Events]
//Background and Video events
0,0,"BG.jpg",0,0
//Break Periods
2,195497,203830
//Storyboard Layer 0 (Background)
//Storyboard Layer 1 (Fail)
//Storyboard Layer 2 (Pass)
//Storyboard Layer 3 (Foreground)
//Storyboard Layer 4 (Overlay)
//Storyboard Sound Samples

[TimingPoints]
297,416.666666666667,3,2,1,60,1,0
297,-100,3,2,1,60,0,0
5297,-100,3,2,2,60,0,0
5401,-100,3,2,1,60,0,0
30297,-100,3,2,1,75,0,0
47797,-100,3,2,1,85,0,1
87797,-100,3,2,1,75,0,0
91547,-100,3,2,2,75,0,0
92797,-100,3,2,1,75,0,0
96547,-100,3,2,2,75,0,0
97797,-100,3,2,1,75,0,0
135297,-100,3,2,1,85,0,1
174880,-100,3,2,1,85,0,0
175297,-100,3,2,1,85,0,1
193213,-100,3,2,2,85,0,1
195297,-100,3,2,1,60,0,0
204047,-100,3,2,2,60,0,0
209047,-100,3,2,2,60,0,0
210297,-100,3,2,1,75,0,0
215297,-100,3,2,1,85,0,1
254880,-100,3,2,1,85,0,0
255297,-100,3,2,1,85,0,1
265297,-100,3,2,1,85,0,0
266547,-138.888888888889,3,2,1,40,0,0
267797,-138.888888888889,3,2,1,20,0,0
269047,-138.888888888889,3,2,1,10,0,0
270297,-125,3,2,1,5,0,0

[Colours]
Combo1 : 221,81,81
Combo2 : 255,128,64
Combo3 : 202,202,0
Combo4 : 128,128,64

[HitObjects]
86,332,297,6,0,B|65:299|65:299|96:220,1,100,2|2,0:0|0:0,0:0:0:0:
137,238,922,1,2,0:0:0:0:
265,315,1547,2,0,L|371:345,1,100,2|2,0:0|0:0,0:0:0:0:
407,361,2172,1,2,0:0:0:0:
478,229,2797,6,0,B|462:196|462:196|490:125,1,100,2|2,0:0|0:0,0:0:0:0:
505,91,3422,1,2,0:0:0:0:
383,3,4047,2,0,P|342:31|282:39,1,100,2|2,0:0|0:0,0:0:0:0:
246,20,4672,1,2,0:0:0:0:
105,71,5297,6,0,P|102:150|68:231,1,150,6|2,0:0|0:0,0:0:0:0:
164,337,6547,2,0,P|167:258|201:177,1,150,2|2,0:0|0:0,0:0:0:0:
341,188,7797,2,0,P|385:237|483:224,2,150,2|2|2,0:0|0:0|0:0,0:0:0:0:
327,89,9463,6,0,L|273:105,1,50,2|0,0:0|0:0,0:0:0:0:
251,144,9880,2,0,L|196:128,1,50
153,137,10297,6,0,P|131:186|140:240,1,100,2|2,0:0|0:0,0:0:0:0:
174,323,11130,2,0,L|245:305,1,50,2|0,0:0|0:0,0:0:0:0:
264,283,11547,2,0,P|301:315|359:319,1,100,2|2,0:0|0:0,0:0:0:0:
442,282,12380,1,2,0:0:0:0:
503,203,12797,6,0,L|483:94,1,100,2|2,0:0|0:0,0:0:0:0:
438,108,13422,1,2,0:0:0:0:
438,108,13630,2,0,P|409:127|378:138,1,50,2|0,0:0|0:0,0:0:0:0:
345,124,14047,2,0,P|307:101|240:90,1,100,2|2,0:0|0:0,0:0:0:0:
181,160,14880,1,2,0:0:0:0:
98,101,15297,6,0,P|82:168|69:204,1,100,2|2,0:0|0:0,0:0:0:0:
48,294,16130,2,0,P|70:285|101:278,1,50,2|0,0:0|0:0,0:0:0:0:
144,290,16547,2,0,P|170:337|226:357,1,100,2|2,0:0|0:0,0:0:0:0:
286,291,17380,2,0,L|349:309,1,50,2|0,0:0|0:0,0:0:0:0:
367,341,17797,6,0,P|414:309|465:324,2,100,2|2|2,0:0|0:0|0:0,0:0:0:0:
320,252,19047,2,0,P|331:192|362:154,1,100,2|2,0:0|0:0,0:0:0:0:
401,141,19672,1,2,0:0:0:0:
401,141,19880,2,0,L|388:85,1,50,2|2,0:0|0:0,0:0:0:0:
360,51,20297,6,0,B|312:62|312:62|256:40,1,100,2|2,0:0|0:0,0:0:0:0:
180,97,21130,2,0,L|129:130,1,50,2|0,0:0|0:0,0:0:0:0:
87,125,21547,2,0,P|71:196|50:233,1,100,2|2,0:0|0:0,0:0:0:0:
145,269,22380,1,2,0:0:0:0:
203,348,22797,6,0,P|263:306|303:306,2,100,2|2|2,0:0|0:0|0:0,0:0:0:0:
145,266,24047,2,0,L|157:199,1,50,2|0,0:0|0:0,0:0:0:0:
195,188,24463,2,0,L|178:76,1,100,2|2,0:0|0:0,0:0:0:0:
262,31,25297,6,0,B|298:67|298:67|359:60,1,100,2|2,0:0|0:0,0:0:0:0:
395,41,25922,1,2,0:0:0:0:
395,41,26130,2,0,L|368:149,1,100,2|2,0:0|0:0,0:0:0:0:
492,226,27172,2,0,P|462:229|408:280,1,100,2|2,0:0|0:0,0:0:0:0:
400,322,27797,6,0,P|350:301|301:304,1,100,2|2,0:0|0:0,0:0:0:0:
257,285,28422,2,0,P|207:306|158:303,1,100
129,266,29047,1,2,0:0:0:0:
396,130,30297,6,0,P|404:105|402:66,1,50,2|8,3:2|3:2,0:0:0:0:
363,53,30713,2,0,P|337:58|304:79,1,50,10|0,3:2|3:2,0:0:0:0:
290,112,31130,1,8,3:2:0:0:
201,65,31547,2,0,P|144:80|99:44,2,100,2|4|8,0:0|0:1|3:2,0:0:0:0:
210,164,32797,6,0,L|177:281,1,100,2|2,3:2|0:0,0:0:0:0:
150,298,33422,1,8,3:2:0:0:
150,298,33630,2,0,L|168:355,1,50,10|0,3:2|0:0,0:0:0:0:
211,365,34047,2,0,P|237:343|314:334,1,100,2|2,3:2|0:0,0:0:0:0:
398,351,34880,2,0,L|461:369,1,50,8|0,3:2|0:0,0:0:0:0:
480,327,35297,6,0,P|502:309|517:270,1,50,2|8,3:2|3:2,0:0:0:0:
479,253,35713,2,0,P|481:224|464:186,1,50,10|0,3:2|3:2,0:0:0:0:
445,163,36130,1,10,3:2:0:0:
368,225,36547,5,2,3:2:0:0:
368,225,36755,2,0,L|299:243,1,50,8|4,3:2|0:1,0:0:0:0:
276,263,37172,1,0,3:2:0:0:
276,263,37380,2,0,L|207:281,1,50,8|0,3:2|0:0,0:0:0:0:
184,249,37797,6,0,P|156:217|176:159,1,100,2|2,0:0|0:0,0:0:0:0:
244,99,38630,1,8,3:2:0:0:
171,29,39047,2,0,L|117:43,1,50,0|8,3:2|3:2,0:0:0:0:
98,85,39463,2,0,L|44:99,1,50,8|2,3:2|3:2,0:0:0:0:
14,133,39880,1,10,3:2:0:0:
92,194,40297,6,0,P|128:241|116:291,1,100,2|8,3:2|3:2,0:0:0:0:
115,331,40922,1,2,3:2:0:0:
115,331,41130,2,0,L|232:309,1,100,10|2,3:2|3:2,0:0:0:0:
296,256,41963,2,0,P|331:288|394:292,1,100,2|8,0:0|3:2,0:0:0:0:
425,270,42588,1,0,0:0:0:0:
425,270,42797,6,0,B|412:231|412:231|442:167,2,100,2|2|10,0:0|0:0|3:2,0:0:0:0:
366,351,44047,2,0,L|300:369,1,50,2|8,3:2|3:2,0:0:0:0:
274,339,44463,2,0,P|243:300|176:293,1,100,2|10,0:0|3:2,0:0:0:0:
96,302,45297,5,8,3:2:0:0:
96,302,45505,2,0,P|88:251|62:203,1,100,0|0,3:2|3:2,0:0:0:0:
98,170,46130,2,0,L|114:106,1,50,8|0,3:3|3:2,0:0:0:0:
149,90,46547,2,0,L|133:26,1,50,10|0,3:2|3:2,0:0:0:0:
173,7,46963,1,0,0:0:0:0:
258,58,47380,1,0,0:0:0:0:
353,28,47797,6,0,L|407:48,1,50,4|0,3:2|0:0,0:0:0:0:
444,67,48213,1,2,3:2:0:0:
444,67,48422,2,0,P|419:105|411:168,1,100,2|2,3:2|3:2,0:0:0:0:
437,200,49047,1,0,3:2:0:0:
498,278,49463,1,2,3:2:0:0:
420,341,49880,1,8,3:2:0:0:
327,302,50297,6,0,L|224:337,1,100,0|0,3:2|3:2,0:0:0:0:
199,304,50922,1,2,3:2:0:0:
199,304,51130,2,0,L|209:246,1,50,10|2,3:2|3:2,0:0:0:0:
174,216,51547,2,0,P|169:195|156:159,1,50,0|2,3:2|0:0,0:0:0:0:
176,121,51963,2,0,P|233:106|277:58,1,100,2|10,3:2|3:2,0:0:0:0:
349,28,52797,6,0,L|371:83,1,50,0|2,3:2|0:0,0:0:0:0:
409,101,53213,2,0,L|389:235,1,100,2|8,3:2|3:2,0:0:0:0:
408,247,53838,1,2,3:2:0:0:
408,247,54047,6,0,B|434:274|434:274|512:302,2,100,2|2|10,3:2|3:2|3:2,0:0:0:0:
325,190,55297,2,0,B|299:163|299:163|221:135,2,100,2|2|10,3:2|3:2|3:2,0:0:0:0:
276,277,56547,6,0,L|247:336,1,50,0|0,3:2|0:0,0:0:0:0:
208,341,56963,2,0,L|149:312,1,50,2|2,3:2|0:0,0:0:0:0:
118,295,57380,1,8,3:2:0:0:
79,202,57797,6,0,B|79:178|79:178|110:145,1,50,6|2,3:2|0:0,0:0:0:0:
137,130,58213,2,0,L|258:178,1,100,2|8,3:2|3:2,0:0:0:0:
272,192,58838,1,2,3:2:0:0:
272,192,59047,2,0,P|261:134|300:79,2,100,0|0|10,3:2|3:2|3:2,0:0:0:0:
362,235,60297,6,0,L|415:251,1,50,2|0,3:2|0:0,0:0:0:0:
454,270,60713,2,0,P|447:203|488:154,1,100,2|10,3:2|3:2,0:0:0:0:
441,77,61547,2,0,L|513:6,2,100,2|2|10,3:2|3:2|3:2,0:0:0:0:
344,102,62797,6,0,P|287:51|243:51,1,100,0|2,3:2|3:2,0:0:0:0:
233,85,63422,1,2,3:2:0:0:
233,85,63630,2,0,P|222:106|198:134,1,50,10|0,3:2|3:2,0:0:0:0:
161,150,64047,2,0,L|34:196,1,100,0|2,3:2|3:2,0:0:0:0:
14,269,64880,1,10,3:2:0:0:
76,346,65297,6,0,P|121:320|169:326,1,100,2|2,3:2|3:2,0:0:0:0:
257,369,66130,1,10,3:2:0:0:
356,375,66547,2,0,L|330:308,1,50,0|2,3:2|0:0,0:0:0:0:
377,297,66963,2,0,L|431:279,1,50,0|10,3:2|3:2,0:0:0:0:
470,262,67380,2,0,L|446:191,1,50,8|2,3:2|0:0,0:0:0:0:
458,164,67797,6,0,P|482:117|468:45,1,100,4|0,3:2|3:2,0:0:0:0:
437,54,68422,1,2,3:2:0:0:
437,54,68630,2,0,L|372:81,1,50,10|2,3:2|3:2,0:0:0:0:
354,108,69047,2,0,L|289:81,1,50,0|0,3:2|0:0,0:0:0:0:
257,88,69463,2,0,P|220:134|226:210,1,100,2|8,3:2|3:2,0:0:0:0:
235,224,70088,1,2,0:0:0:0:
235,224,70297,6,0,P|193:267|136:272,1,100,0|2,3:2|3:2,0:0:0:0:
64,233,71130,1,10,3:2:0:0:
13,150,71547,2,0,P|19:128|26:90,1,50,0|0,3:2|0:0,0:0:0:0:
40,53,71963,2,0,P|116:86|153:91,1,100,2|10,3:2|3:2,0:0:0:0:
208,154,72797,6,0,L|226:103,1,50,0|0,3:2|0:0,0:0:0:0:
274,99,73213,2,0,L|292:48,1,50,2|0,3:2|3:2,0:0:0:0:
332,24,73630,1,8,3:2:0:0:
387,107,74047,2,0,P|423:139|472:145,2,100,0|2|10,3:2|3:2|3:2,0:0:0:0:
330,189,75297,6,0,L|306:247,1,50,0|2,3:2|0:0,0:0:0:0:
289,280,75713,2,0,P|240:293|188:320,1,100,0|8,3:2|3:2,0:0:0:0:
95,322,76547,2,0,L|83:272,1,50,0|2,3:2|0:0,0:0:0:0:
42,245,76963,2,0,L|54:195,1,50,0|2,3:2|0:0,0:0:0:0:
86,158,77380,1,10,3:2:0:0:
171,106,77797,6,0,B|233:126|195:134|279:165,1,100,4|2,3:2|3:2,0:0:0:0:
285,203,78422,1,2,3:2:0:0:
285,203,78630,2,0,L|351:185,1,50,10|0,3:2|3:2,0:0:0:0:
378,168,79047,2,0,P|358:111|386:49,2,100,0|2|10,3:2|3:2|3:2,0:0:0:0:
459,225,80297,6,0,L|444:280,1,50,2|0,3:2|0:0,0:0:0:0:
473,314,80713,2,0,P|420:334|378:379,1,100,2|10,3:2|3:2,0:0:0:0:
341,345,81338,1,0,3:2:0:0:
341,345,81547,2,0,B|319:304|319:304|344:247,1,100,2|2,3:2|3:2,0:0:0:0:
386,166,82380,1,10,3:2:0:0:
293,126,82797,6,0,P|241:149|179:185,1,100,2|0,3:2|3:2,0:0:0:0:
194,219,83422,2,0,P|150:195|104:175,1,100,0|0,3:2|3:2,0:0:0:0:
56,189,84047,1,0,3:2:0:0:
8,101,84463,1,0,3:2:0:0:
77,28,84880,2,0,L|129:2,1,50,8|2,3:2|0:0,0:0:0:0:
168,23,85297,6,0,B|185:55|185:55|243:85,1,100,2|0,3:2|3:2,0:0:0:0:
268,126,85922,2,0,P|315:88|376:88,1,100,0|2,3:2|3:2,0:0:0:0:
394,110,86547,2,0,L|404:168,1,50,2|2,3:2|0:0,0:0:0:0:
445,184,86963,2,0,L|435:242,1,50,0|10,3:2|3:2,0:0:0:0:
404,271,87380,1,10,3:2:0:0:
328,336,87797,6,0,P|275:341|206:360,1,100,4|2,3:2|3:2,0:0:0:0:
184,329,88422,2,0,L|168:385,2,50,10|0|10,3:2|3:2|3:2,0:0:0:0:
154,288,89047,1,0,3:2:0:0:
263,186,89672,1,10,3:2:0:0:
166,71,90297,6,0,L|58:84,1,100,0|2,3:2|3:2,0:0:0:0:
30,117,90922,2,0,L|18:166,1,50,10|0,3:2|3:2,0:0:0:0:
41,209,91338,1,10,3:2:0:0:
41,209,91547,2,0,P|121:226|178:283,1,150,0|8,3:2|3:2,0:0:0:0:
302,341,92797,5,4,3:2:0:0:
426,255,93422,1,10,3:2:0:0:
426,255,93630,2,0,L|498:283,1,50,0|10,3:2|3:2,0:0:0:0:
510,239,94047,2,0,L|489:133,1,100,0|2,3:2|3:2,0:0:0:0:
454,114,94672,1,10,3:2:0:0:
454,114,94880,2,0,L|382:142,1,50,0|10,3:2|3:2,0:0:0:0:
362,155,95297,6,0,P|292:128|238:129,1,100,0|2,3:2|3:2,0:0:0:0:
253,78,95922,2,0,P|183:105|129:104,1,100,10|10,3:2|3:2,0:0:0:0:
116,79,96547,1,8,3:1:0:0:
46,150,96963,2,0,L|71:216,1,50,0|0,3:1|3:1,0:0:0:0:
102,227,97380,2,0,L|77:293,1,50,8|8,3:1|3:1,0:0:0:0:
87,323,97797,6,0,P|135:315|196:341,1,100,4|8,3:2|3:2,0:0:0:0:
274,291,98630,1,2,3:2:0:0:
363,335,99047,2,0,P|402:307|461:300,1,100,2|8,3:2|3:2,0:0:0:0:
494,270,99672,1,0,0:0:0:0:
494,270,99880,2,0,L|476:204,1,50,2|0,3:2|0:0,0:0:0:0:
447,184,100297,6,0,B|432:150|432:150|458:79,1,100,2|10,3:2|3:2,0:0:0:0:
325,13,101338,1,0,0:0:0:0:
325,13,101547,2,0,L|209:45,1,100,2|10,3:2|3:2,0:0:0:0:
150,102,102380,2,0,P|139:129|119:165,1,50,0|2,3:2|0:0,0:0:0:0:
89,178,102797,6,0,P|124:220|135:272,1,100,2|8,3:2|3:2,0:0:0:0:
156,314,103422,1,0,0:0:0:0:
156,314,103630,2,0,P|184:303|237:296,1,50,2|0,3:2|0:0,0:0:0:0:
242,266,104047,2,0,P|297:290|349:293,1,100,2|8,3:2|3:2,0:0:0:0:
425,248,104880,2,0,L|404:192,1,50,2|0,3:2|0:0,0:0:0:0:
432,157,105297,6,0,P|467:129|481:76,2,100,2|8|2,3:2|3:2|3:2,0:0:0:0:
383,146,106338,1,0,0:0:0:0:
383,146,106547,2,0,L|270:176,1,100,0|8,3:2|3:2,0:0:0:0:
237,259,107380,2,0,L|149:250,1,50,8|8,3:2|3:2,0:0:0:0:
152,290,107797,5,4,3:2:0:0:
10,148,108630,2,0,P|14:102|62:64,1,100,8|0,3:1|0:0,0:0:0:0:
245,117,109880,1,8,3:2:0:0:
338,82,110297,2,0,P|395:111|456:97,2,100,4|0|10,3:2|0:0|3:2,0:0:0:0:
411,14,111547,1,0,0:0:0:0:
485,199,112380,1,8,3:2:0:0:
414,270,112797,6,0,L|302:296,1,100,4|10,3:2|3:2,0:0:0:0:
242,360,113630,1,2,3:2:0:0:
171,289,114047,2,0,P|156:250|207:190,1,100,2|8,3:2|3:2,0:0:0:0:
225,176,114672,2,0,P|249:134|234:87,1,100,0|0,3:2|3:2,0:0:0:0:
196,55,115297,5,6,3:2:0:0:
72,139,115922,1,10,3:2:0:0:
5,4,116547,1,10,3:2:0:0:
200,45,117380,6,0,L|270:60,1,50,8|8,3:2|3:2,0:0:0:0:
299,57,117797,2,0,P|318:101|365:126,1,100,4|0,3:2|3:2,0:0:0:0:
412,123,118422,1,10,3:2:0:0:
465,207,118838,1,10,3:2:0:0:
465,207,119047,2,0,L|437:317,1,100,0|0,3:2|3:2,0:0:0:0:
443,353,119672,1,10,3:2:0:0:
355,305,120088,1,10,3:2:0:0:
355,305,120297,6,0,P|313:336|255:347,1,100,0|0,3:2|3:2,0:0:0:0:
221,326,120922,1,10,3:2:0:0:
127,360,121338,1,10,3:2:0:0:
127,360,121547,2,0,B|109:332|109:332|126:256,1,100,2|10,3:2|3:2,0:0:0:0:
197,199,122380,2,0,L|190:144,1,50,0|8,3:2|3:1,0:0:0:0:
151,117,122797,6,0,P|84:150|33:139,1,100,4|0,3:2|3:2,0:0:0:0:
27,186,123422,1,10,3:2:0:0:
27,186,123630,2,0,L|47:246,1,50,0|10,3:2|3:2,0:0:0:0:
58,281,124047,2,0,B|94:289|94:289|131:311|131:311|170:322,1,100,0|0,3:2|3:2,0:0:0:0:
196,335,124672,1,10,3:2:0:0:
196,335,124880,2,0,L|219:259,1,50,0|10,3:2|3:2,0:0:0:0:
215,237,125297,5,4,3:2:0:0:
306,196,125713,1,0,3:2:0:0:
382,259,126130,2,0,L|436:275,1,50,0|10,3:2|3:2,0:0:0:0:
477,258,126547,2,0,P|497:226|476:157,1,100,0|0,3:2|3:2,0:0:0:0:
449,133,127172,1,10,3:2:0:0:
449,133,127380,2,0,L|366:159,1,50,4|0,3:2|0:0,0:0:0:0:
351,140,127797,6,0,L|236:119,1,100,4|0,3:2|3:2,0:0:0:0:
210,148,128422,1,10,3:2:0:0:
210,148,128630,2,0,L|152:137,1,50,0|10,3:2|3:2,0:0:0:0:
112,152,129047,2,0,P|78:218|99:262,1,100,0|0,3:2|3:2,0:0:0:0:
88,338,129880,2,0,L|164:317,1,50,0|10,3:2|3:2,0:0:0:0:
185,316,130297,6,0,P|216:357|302:370,2,100,0|0|0,3:2|3:2|3:2,0:0:0:0:
246,236,131547,2,0,L|266:168,1,50,4|0,3:2|0:0,0:0:0:0:
252,138,131963,2,0,B|236:106|236:106|274:10,2,100,8|2|0,3:2|3:2|3:2,0:0:0:0:
336,192,133213,5,8,3:2:0:0:
425,147,133630,1,4,3:2:0:0:
496,217,134047,1,6,3:2:0:0:
385,317,134672,5,0,3:2:0:0:
385,317,134880,2,0,L|319:345,1,50,8|8,3:1|3:1,0:0:0:0:
295,362,135297,6,0,P|254:338|171:328,1,100,4|2,3:2|3:2,0:0:0:0:
159,351,135922,1,10,3:2:0:0:
97,272,136338,1,10,3:2:0:0:
97,272,136547,2,0,L|116:221,1,50,0|2,3:2|0:0,0:0:0:0:
98,177,136963,2,0,P|66:126|93:68,1,100,0|0,3:2|3:2,0:0:0:0:
139,14,137797,6,0,L|271:38,1,100,0|0,3:2|3:2,0:0:0:0:
273,66,138422,1,10,3:2:0:0:
273,66,138630,2,0,L|329:46,1,50,0|10,3:2|3:2,0:0:0:0:
369,57,139047,2,0,P|368:122|391:170,1,100,0|2,3:2|3:2,0:0:0:0:
459,215,139880,1,2,3:2:0:0:
400,296,140297,6,0,P|376:314|328:328,1,50,0|2,3:2|0:0,0:0:0:0:
308,316,140713,2,0,P|276:279|200:261,1,100,0|0,3:2|3:2,0:0:0:0:
184,285,141338,1,10,3:2:0:0:
184,285,141547,2,0,L|136:311,1,50,0|2,3:2|0:0,0:0:0:0:
96,333,141963,1,2,3:2:0:0:
42,248,142380,1,2,3:2:0:0:
115,179,142797,6,0,P|125:153|134:106,1,50,2|0,3:2|0:0,0:0:0:0:
130,80,143213,2,0,P|173:106|222:110,1,100,2|0,3:2|3:2,0:0:0:0:
297,177,144047,2,0,L|385:156,1,50,0|2,3:2|3:2,0:0:0:0:
389,140,144463,2,0,L|477:161,1,50,0|10,3:2|3:2,0:0:0:0:
472,187,144880,1,6,3:2:0:0:
402,259,145297,6,0,B|378:290|378:290|398:353,1,100,4|2,3:2|3:2,0:0:0:0:
439,373,145922,1,8,3:2:0:0:
439,373,146130,2,0,L|497:352,1,50,0|10,3:2|3:2,0:0:0:0:
485,305,146547,2,0,L|508:179,1,100,0|2,3:2|3:2,0:0:0:0:
428,140,147380,1,0,3:2:0:0:
333,172,147797,6,0,L|273:190,1,50,2|2,3:2|0:0,0:0:0:0:
240,207,148213,2,0,P|202:173|119:170,1,100,2|2,3:2|3:2,0:0:0:0:
113,189,148838,1,8,3:2:0:0:
113,189,149047,2,0,P|77:241|45:261,2,100,2|2|2,3:2|3:2|3:2,0:0:0:0:
42,118,150297,6,0,B|27:80|27:80|79:7,1,100,2|0,3:2|3:2,0:0:0:0:
102,3,150922,1,10,3:2:0:0:
102,3,151130,2,0,P|146:34|220:49,1,100,2|0,3:2|3:2,0:0:0:0:
283,12,151963,2,0,L|307:120,1,100,2|2,3:2|3:2,0:0:0:0:
345,201,152797,6,0,B|313:215|313:215|276:218|276:218|222:241,1,100,10|0,3:2|3:2,0:0:0:0:
218,267,153422,1,10,3:2:0:0:
218,267,153630,2,0,L|238:318,1,50,2|8,3:2|3:2,0:0:0:0:
256,359,154047,2,0,P|297:332|350:337,1,100,8|8,0:1|0:1,0:0:0:0:
438,373,154880,1,8,0:1:0:0:
493,289,155297,6,0,B|472:240|472:240|497:174,1,100,4|10,3:2|3:2,0:0:0:0:
507,149,155922,1,2,0:0:0:0:
507,149,156130,2,0,L|414:176,1,50,2|8,3:2|3:2,0:0:0:0:
411,145,156547,2,0,L|318:118,1,50,2|2,3:2|0:0,0:0:0:0:
319,155,156963,2,0,P|276:202|281:255,1,100,10|0,3:2|3:2,0:0:0:0:
209,312,157797,6,0,L|155:333,1,50,2|0,3:2|0:0,0:0:0:0:
115,313,158213,2,0,P|50:293|44:243,1,100,8|0,3:2|3:2,0:0:0:0:
96,184,159047,1,2,3:2:0:0:
96,184,159255,2,0,L|70:98,1,50,0|10,0:0|3:2,0:0:0:0:
163,78,159880,2,0,L|177:125,1,50,2|10,3:2|3:2,0:0:0:0:
248,196,160505,5,2,0:0:0:0:
248,196,160713,2,0,P|321:171|364:177,1,100,10|0,3:2|3:2,0:0:0:0:
371,212,161338,1,10,3:2:0:0:
371,212,161547,2,0,L|348:281,1,50,2|0,3:2|0:0,0:0:0:0:
363,308,161963,2,0,P|290:333|247:327,1,100,10|2,3:2|3:2,0:0:0:0:
168,329,162797,6,0,B|138:309|138:309|46:334,1,100,0|8,3:2|3:2,0:0:0:0:
29,237,163630,2,0,L|43:172,1,50,0|8,3:2|3:2,0:0:0:0:
80,159,164047,2,0,P|123:195|179:203,1,100,0|0,3:2|3:2,0:0:0:0:
211,184,164672,1,14,3:2:0:0:
211,184,164880,2,0,L|269:206,1,50,8|0,3:2|0:0,0:0:0:0:
301,226,165297,5,4,3:2:0:0:
350,139,165713,2,0,L|332:83,2,50,0|10|0,3:2|3:2|3:2,0:0:0:0:
388,171,166338,1,10,3:2:0:0:
388,171,166547,2,0,P|443:179|483:253,1,100,2|0,3:2|3:2,0:0:0:0:
474,259,167172,1,10,3:2:0:0:
474,259,167380,2,0,L|455:333,1,50,2|8,3:2|3:2,0:0:0:0:
417,330,167797,6,0,B|381:341|381:341|357:340|357:340|306:358,1,100,2|0,3:2|3:2,0:0:0:0:
242,290,168630,1,0,3:2:0:0:
142,295,169047,2,0,P|120:348|91:393,2,100,2|2|2,3:2|3:2|3:2,0:0:0:0:
82,214,170297,6,0,P|69:180|100:115,1,100,4|8,3:2|3:2,0:0:0:0:
138,108,170922,1,2,0:0:0:0:
138,108,171130,2,0,L|199:134,1,50,0|8,3:2|3:2,0:0:0:0:
215,166,171547,2,0,P|269:149|351:175,1,100,2|8,3:2|3:2,0:0:0:0:
352,124,172172,2,0,P|402:150|441:226,1,100,0|8,0:0|3:2,0:0:0:0:
410,230,172797,5,4,3:2:0:0:
368,320,173213,2,0,L|313:336,1,50,8|0,3:2|3:2,0:0:0:0:
280,303,173630,2,0,L|225:287,1,50,8|0,3:2|3:2,0:0:0:0:
191,318,174047,2,0,P|143:331|100:367,1,100,12|0,3:2|3:2,0:0:0:0:
54,354,174672,1,8,3:2:0:0:
54,354,174880,2,0,L|37:283,1,50,0|0,3:2|3:2,0:0:0:0:
71,264,175297,6,0,P|99:226|92:142,1,100,4|0,3:2|3:2,0:0:0:0:
108,124,175922,2,0,L|237:159,1,100,8|0,3:3|3:2,0:0:0:0:
252,165,176547,1,2,3:2:0:0:
390,107,177172,2,0,L|410:51,2,50,8|8|8,3:0|3:2|3:0,0:0:0:0:
409,153,177797,6,0,L|441:286,1,100,0|0,3:2|3:2,0:0:0:0:
444,298,178422,1,8,3:3:0:0:
444,298,178630,2,0,L|391:319,1,50,8|0,3:2|3:2,0:0:0:0:
351,336,179047,2,0,P|305:313|214:307,1,100,2|0,3:2|3:2,0:0:0:0:
218,272,179672,2,0,P|169:288|100:348,1,100,2|0,0:0|0:0,0:0:0:0:
80,305,180297,6,0,B|66:264|66:264|103:179,1,100,2|0,3:2|3:2,0:0:0:0:
170,154,181130,1,8,3:2:0:0:
269,162,181547,2,0,L|339:131,1,50,0|2,3:2|0:0,0:0:0:0:
350,106,181963,2,0,L|421:133,1,50,0|2,3:2|0:0,0:0:0:0:
446,120,182380,2,0,L|477:190,1,50,10|2,3:2|0:0,0:0:0:0:
433,203,182797,6,0,L|403:327,1,100,2|0,3:2|3:2,0:0:0:0:
374,336,183422,1,8,3:3:0:0:
225,317,184047,2,0,P|179:336|113:340,2,100,2|2|10,3:2|3:2|3:2,0:0:0:0:
296,246,185297,6,0,L|364:263,1,50,4|2,3:2|0:0,0:0:0:0:
365,303,185713,2,0,L|433:320,1,50,2|8,3:2|3:3,0:0:0:0:
443,355,186130,1,10,3:2:0:0:
494,269,186547,2,0,B|519:214|519:214|472:119,1,150,2|2,3:2|0:0,0:0:0:0:
454,90,187380,1,10,3:2:0:0:
354,84,187797,6,0,L|286:101,1,50,4|2,3:2|0:0,0:0:0:0:
285,141,188213,2,0,L|217:158,1,50,2|8,3:2|3:3,0:0:0:0:
207,193,188630,1,10,3:2:0:0:
113,156,189047,2,0,P|94:224|59:300,1,150,2|2,3:2|0:0,0:0:0:0:
24,330,189880,1,10,3:2:0:0:
121,350,190297,6,0,P|193:358|227:399,1,100,2|0,3:2|3:2,0:0:0:0:
240,332,190922,2,0,P|281:305|331:307,1,100,2|8,0:0|3:3,0:0:0:0:
377,327,191547,2,0,L|402:201,1,100,2|0,3:2|3:2,0:0:0:0:
410,129,192380,2,0,L|342:144,1,50,12|0,3:2|0:0,0:0:0:0:
314,158,192797,6,0,P|264:116|209:127,1,100,4|8,3:2|3:2,0:0:0:0:
192,147,193422,1,8,3:2:0:0:
192,147,193630,2,0,L|145:211,1,50,8|8,3:2|3:2,0:0:0:0:
113,199,194047,1,10,3:2:0:0:
256,192,194255,12,6,195297,3:2:0:0:
256,96,204880,5,6,0:0:0:0:
186,167,205297,2,0,P|123:215|47:208,2,150,2|2|2,0:0|0:0|0:0,0:0:0:0:
271,218,206963,2,0,L|256:275,1,50,2|2,0:0|0:0,0:0:0:0:
247,315,207380,1,2,0:0:0:0:
346,308,207797,2,0,P|404:349|484:348,2,150,2|2|2,0:0|0:0|0:0,0:0:0:0:
416,236,209463,2,0,B|429:187|429:187|404:114,1,100,6|2,0:0|0:0,0:0:0:0:
384,44,210297,6,0,P|352:82|289:91,1,100,2|0,0:0|0:0,0:0:0:0:
261,119,210922,1,2,0:0:0:0:
261,119,211130,2,0,L|144:97,1,100,0|2,0:0|0:0,0:0:0:0:
70,140,211963,2,0,B|42:183|42:183|59:238,1,100,2|2,0:0|0:0,0:0:0:0:
33,327,212797,6,0,P|87:302|138:322,1,100,2|0,0:0|0:0,0:0:0:0:
153,352,213422,1,2,0:0:0:0:
153,352,213630,2,0,L|235:373,1,50
249,380,214047,1,2,0:0:0:0:
340,340,214463,2,0,B|358:308|358:308|339:226,1,100,8|8,0:1|0:1,0:0:0:0:
251,208,215297,6,0,L|278:91,1,100,4|0,3:2|3:2,0:0:0:0:
313,79,215922,1,10,3:2:0:0:
313,79,216130,2,0,L|375:94,1,50,0|10,3:2|3:2,0:0:0:0:
385,134,216547,2,0,L|447:119,1,50,2|0,3:2|0:0,0:0:0:0:
477,99,216963,2,0,P|515:136|499:197,1,100,2|0,3:2|3:2,0:0:0:0:
485,222,217588,5,10,3:2:0:0:
463,319,218005,1,0,0:0:0:0:
463,319,218213,2,0,P|396:307|338:309,1,100,2|2,3:2|3:2,0:0:0:0:
271,269,219047,2,0,L|238:334,1,50,0|0,3:2|0:0,0:0:0:0:
203,335,219463,2,0,B|176:353|176:353|92:334,1,100,2|2,3:2|3:2,0:0:0:0:
38,268,220297,6,0,L|19:199,1,50,2|0,3:2|0:0,0:0:0:0:
15,170,220713,2,0,P|68:179|124:152,1,100,2|0,3:2|3:2,0:0:0:0:
147,130,221338,1,10,3:2:0:0:
147,130,221547,2,0,L|221:148,1,50,0|0,3:2|0:0,0:0:0:0:
224,182,221963,2,0,P|294:144|334:144,1,100,2|2,3:2|3:2,0:0:0:0:
412,155,222797,6,0,L|397:226,1,50,2|0,3:2|0:0,0:0:0:0:
429,245,223213,2,0,P|454:291|421:341,1,100,2|0,3:2|3:2,0:0:0:0:
338,309,224047,2,0,L|267:325,1,50,0|2,3:2|0:0,0:0:0:0:
249,350,224463,2,0,L|178:366,1,50,0|10,3:2|3:2,0:0:0:0:
164,326,224880,1,8,3:2:0:0:
115,238,225297,6,0,P|100:194|61:122,2,100,4|2|2,3:2|3:2|3:2,0:0:0:0:
167,232,226338,1,8,3:2:0:0:
167,232,226547,2,0,L|268:249,1,100,8|2,3:2|3:2,0:0:0:0:
339,180,227380,2,0,L|363:113,1,50,2|8,3:2|3:2,0:0:0:0:
355,82,227797,6,0,P|398:40|441:35,1,100,14|2,3:2|3:2,0:0:0:0:
482,52,228422,1,8,3:2:0:0:
482,52,228630,2,0,L|465:99,1,50,2|8,3:2|3:2,0:0:0:0:
476,147,229047,1,10,3:2:0:0:
403,215,229463,1,2,3:2:0:0:
454,300,229880,1,2,3:2:0:0:
354,307,230297,6,0,L|298:330,1,50,12|0,3:2|0:0,0:0:0:0:
269,357,230713,2,0,P|232:327|146:324,1,100,2|2,3:2|3:2,0:0:0:0:
83,338,231547,1,8,3:2:0:0:
2,278,231963,2,0,L|26:160,1,100,2|2,3:2|3:2,0:0:0:0:
66,156,232588,1,8,3:2:0:0:
66,156,232797,6,0,L|53:75,1,50,10|0,3:2|0:0,0:0:0:0:
90,69,233213,2,0,B|138:85|138:85|202:51,1,100,2|2,3:2|3:2,0:0:0:0:
275,25,234047,2,0,L|331:42,1,50,0|8,3:2|0:1,0:0:0:0:
372,39,234463,2,0,L|396:164,1,100,8|8,0:1|0:1,0:0:0:0:
398,186,235088,1,8,0:1:0:0:
398,186,235297,6,0,P|343:196|305:244,1,100,4|0,3:2|3:2,0:0:0:0:
277,262,235922,2,0,L|161:234,1,100,8|8,3:2|3:2,0:0:0:0:
134,217,236547,2,0,P|109:273|38:285,1,100,10|0,3:2|3:2,0:0:0:0:
31,266,237172,1,8,3:2:0:0:
2,170,237588,1,8,3:2:0:0:
2,170,237797,6,0,L|43:50,1,100,8|0,3:2|3:2,0:0:0:0:
52,28,238422,2,0,P|94:61|150:63,1,100,8|10,3:2|3:2,0:0:0:0:
184,44,239047,1,10,3:2:0:0:
326,91,239672,6,0,L|306:165,1,50,10|0,3:2|3:2,0:0:0:0:
346,176,240088,2,0,B|421:156|421:156|484:211,1,150,10|2,3:2|3:2,0:0:0:0:
471,253,240922,1,8,3:2:0:0:
471,253,241130,2,0,L|460:317,1,50,0|8,3:2|3:2,0:0:0:0:
430,340,241547,2,0,P|380:322|308:328,1,100,8|0,3:2|3:2,0:0:0:0:
291,349,242172,1,8,3:2:0:0:
214,220,242797,6,0,P|228:178|241:96,1,100,8|0,3:2|3:2,0:0:0:0:
207,84,243422,1,8,3:2:0:0:
207,84,243630,2,0,L|124:108,1,50,0|8,3:2|3:2,0:0:0:0:
109,88,244047,2,0,B|86:59|86:59|114:-21,2,100,8|0|8,3:2|3:2|3:2,0:0:0:0:
84,131,245088,1,8,3:2:0:0:
84,131,245297,6,0,L|41:224,1,100,10|0,3:2|3:2,0:0:0:0:
9,259,245922,1,10,3:2:0:0:
80,328,246338,1,8,3:2:0:0:
80,328,246547,2,0,P|125:291|181:289,1,100,10|0,3:2|3:2,0:0:0:0:
204,255,247172,2,0,P|249:292|305:294,1,100,10|8,3:2|3:2,0:0:0:0:
337,284,247797,5,10,3:2:0:0:
436,258,248213,1,0,3:2:0:0:
436,258,248422,2,0,L|457:127,1,100,10|8,3:2|3:2,0:0:0:0:
420,119,249047,2,0,B|384:132|384:132|365:150|365:150|290:179,1,100,10|0,3:2|3:2,0:0:0:0:
293,130,249672,2,0,B|257:117|257:117|238:99|238:99|163:70,1,100,10|8,3:2|3:2,0:0:0:0:
154,80,250297,6,0,P|172:148|180:200,1,100,10|0,3:2|3:2,0:0:0:0:
160,224,250922,1,10,3:2:0:0:
226,298,251338,1,8,3:2:0:0:
226,298,251547,2,0,B|201:329|201:329|118:355,1,100,10|0,3:2|3:2,0:0:0:0:
97,327,252172,1,10,3:2:0:0:
18,265,252588,1,8,3:2:0:0:
18,265,252797,6,0,P|40:206|42:155,1,100,10|0,3:2|3:2,0:0:0:0:
22,123,253422,1,10,3:2:0:0:
90,50,253838,1,8,3:2:0:0:
90,50,254047,2,0,P|162:77|229:82,1,100,10|0,3:2|3:2,0:0:0:0:
205,126,254672,2,0,P|277:99|344:94,1,100,10|8,3:2|3:1,0:0:0:0:
345,75,255297,6,0,L|324:182,1,100,4|2,3:2|3:2,0:0:0:0:
341,220,255922,1,10,3:2:0:0:
341,220,256130,2,0,L|330:280,1,50,0|8,3:2|3:2,0:0:0:0:
362,308,256547,1,10,3:2:0:0:
269,344,256963,1,2,3:2:0:0:
269,344,257172,2,0,P|208:316|138:327,1,100,10|8,3:2|3:2,0:0:0:0:
127,328,257797,6,0,L|26:358,1,100,10|2,3:2|3:2,0:0:0:0:
2,315,258422,2,0,P|-10:270|26:219,1,100,10|8,3:2|3:2,0:0:0:0:
61,206,259047,2,0,L|143:230,1,50,10|0,3:2|0:0,0:0:0:0:
154,240,259463,1,10,3:2:0:0:
193,147,259880,2,0,L|207:99,1,50,8|0,3:2|0:0,0:0:0:0:
230,54,260297,6,0,P|290:85|350:84,1,100,10|2,3:2|3:2,0:0:0:0:
368,70,260922,1,10,3:2:0:0:
444,134,261338,1,8,3:2:0:0:
444,134,261547,2,0,L|417:242,1,100,10|2,3:2|3:2,0:0:0:0:
439,277,262172,2,0,P|391:301|365:362,1,100,10|8,3:2|3:2,0:0:0:0:
318,334,262797,6,0,P|287:311|202:321,1,100,10|0,3:2|3:2,0:0:0:0:
191,343,263422,1,10,3:2:0:0:
114,278,263838,1,10,3:2:0:0:
114,278,264047,6,0,L|138:217,1,50,8|8,3:1|0:1,0:0:0:0:
109,187,264463,2,0,L|133:126,1,50,2|10,3:2|3:2,0:0:0:0:
107,94,264880,2,0,L|131:33,1,50,2|10,3:2|3:2,0:0:0:0:
106,0,265297,1,2,0:1:0:0:
256,192,265505,12,0,270297,0:0:0:0:
