osu file format v14

[General]
AudioFilename: audio.mp3
AudioLeadIn: 0
PreviewTime: 42728
Countdown: 0
SampleSet: Soft
StackLeniency: 0.7
Mode: 0
LetterboxInBreaks: 0
WidescreenStoryboard: 0

[Editor]
Bookmarks: 283,5228,10228,15228,20228,25228,30228,35228,40228,42728,47728,52728,57728,62728,67728,72728,77728,82728,87728
DistanceSpacing: 1.8
BeatDivisor: 4
GridSize: 4
TimelineZoom: 1.5

[Metadata]
Title:Sore wa Chiisana Hikari no Youna
TitleUnicode:それは小さな光のような
Artist:Sayuri
ArtistUnicode:さユり
Creator:Hey lululu
Version:Kencho's Hard
Source:僕だけがいない街
Tags:tv size boku dake ga inai machi erased ending 23kong kencho
BeatmapID:1072132
BeatmapSetID:474376

[Difficulty]
HPDrainRate:5
CircleSize:4
OverallDifficulty:6
ApproachRate:7
SliderMultiplier:1.4
SliderTickRate:1

[Events]
//Background and Video events
Video,0,"video.avi"
0,0,"Bakanano.jpg",0,0
//Break Periods
//Storyboard Layer 0 (Background)
//Storyboard Layer 1 (Fail)
//Storyboard Layer 2 (Pass)
//Storyboard Layer 3 (Foreground)
//Storyboard Sound Samples

[TimingPoints]
2728,416.666666666667,3,2,1,50,1,0
26894,-100,3,2,2,50,0,0
27311,-100,3,2,1,50,0,0
31894,-100,3,2,2,50,0,0
32103,-100,3,2,1,50,0,0
39811,-100,3,2,2,50,0,0
40019,-100,3,2,1,50,0,0
40644,-100,3,2,3,50,0,0
41894,-100,3,2,1,50,0,0
42728,-90.9090909090909,3,2,3,70,0,1
82728,-100,3,2,1,50,0,0
83978,-100,3,2,1,40,0,0
85228,-100,3,2,1,30,0,0
86478,-100,3,2,1,20,0,0
87728,-100,3,2,1,10,0,0
88353,-100,3,2,1,5,0,0

[Colours]
Combo1 : 192,192,192
Combo2 : 255,0,0
Combo3 : 0,0,255
Combo4 : 0,174,255

[HitObjects]
368,314,3978,5,0,0:0:0:0:
494,164,4394,2,0,L|424:158,1,70,2|0,0:0|0:0,0:0:0:0:
338,111,4811,2,0,L|268:116,1,70,0|0,0:0|0:0,0:0:0:0:
180,159,5228,6,0,P|224:108|212:41,1,140,0|2,0:0|0:0,0:0:0:0:
117,16,5853,1,0,0:0:0:0:
41,77,6061,2,0,P|34:112|37:146,1,70,0|0,0:0|0:0,0:0:0:0:
67,240,6478,6,0,L|206:234,1,140,0|2,0:0|0:0,0:0:0:0:
283,172,7103,1,0,0:0:0:0:
360,232,7311,2,0,P|366:266|363:300,1,70,0|0,0:0|0:0,0:0:0:0:
277,347,7728,6,0,L|137:341,1,140,0|2,0:0|0:0,0:0:0:0:
46,302,8353,1,0,0:0:0:0:
141,272,8561,2,0,P|144:306|137:340,1,70,0|0,0:0|0:0,0:0:0:0:
74,230,8978,6,0,P|130:193|194:214,1,140,0|2,0:0|0:0,0:0:0:0:
270,277,9603,1,0,0:0:0:0:
364,252,9811,2,0,L|370:182,1,70,0|0,0:0|0:0,0:0:0:0:
283,137,10228,6,0,L|270:277,1,140,0|2,0:0|0:0,0:0:0:0:
194,214,10853,1,0,0:0:0:0:
151,302,11061,2,0,L|81:295,1,70,0|0,0:0|0:0,0:0:0:0:
54,200,11478,6,0,L|193:213,1,140,0|2,0:0|0:0,0:0:0:0:
235,125,12103,1,0,0:0:0:0:
158,67,12311,2,0,P|141:97|138:132,1,70,0|0,0:0|0:0,0:0:0:0:
193,214,12728,6,0,B|239:223|239:223|329:202,2,140,0|2|0,0:0|0:0|0:0,0:0:0:0:
46,83,13978,5,0,0:0:0:0:
4,274,14394,2,0,L|10:343,1,70,2|0,0:0|0:0,0:0:0:0:
109,344,14811,2,0,L|115:274,1,70,0|0,0:0|0:0,0:0:0:0:
192,214,15228,6,0,P|258:228|282:291,1,140,0|2,0:0|0:0,0:0:0:0:
245,382,15853,1,0,0:0:0:0:
338,351,16061,2,0,P|372:348|407:355,1,70,0|0,0:0|0:0,0:0:0:0:
500,323,16478,6,0,P|501:253|487:184,1,140,0|2,0:0|0:0,0:0:0:0:
420,112,17103,1,0,0:0:0:0:
337,164,17311,2,0,P|302:166|267:159,1,70,0|0,0:0|0:0,0:0:0:0:
187,104,17728,6,0,P|242:62|309:70,2,140,0|2|0,0:0|0:0|0:0,0:0:0:0:
147,296,18978,5,0,0:0:0:0:
333,354,19394,2,0,P|402:356|470:339,1,140,2|0,0:0|0:0,0:0:0:0:
382,164,20228,6,0,P|312:161|244:178,2,140,0|2|0,0:0|0:0|0:0,0:0:0:0:
333,354,21478,6,0,B|287:363|287:363|196:342,1,140,8|0,0:0|0:0,0:0:0:0:
101,318,22103,1,2,0:0:0:0:
189,274,22311,2,0,P|199:308|196:343,1,70,0|0,0:0|0:0,0:0:0:0:
115,236,22728,5,0,0:0:0:0:
325,312,23144,1,0,0:0:0:0:
286,91,23561,1,0,0:0:0:0:
196,342,23978,5,4,0:0:0:0:
391,355,24394,2,0,P|402:322|399:287,1,70,0|0,0:0|0:0,0:0:0:0:
333,214,24811,2,0,P|321:181|324:146,1,70,0|0,0:0|0:0,0:0:0:0:
366,57,25228,6,0,L|296:51,1,70,0|8,0:0|0:0,0:0:0:0:
199,45,25644,1,8,0:0:0:0:
158,134,25853,1,0,0:0:0:0:
255,141,26061,2,0,L|324:146,1,70,8|0,0:0|0:0,0:0:0:0:
353,242,26478,6,0,L|214:231,1,140,0|8,0:0|0:0,0:0:0:0:
255,141,27103,1,0,0:0:0:0:
296,51,27311,2,0,L|365:56,1,70,8|0,0:0|0:0,0:0:0:0:
458,89,27728,6,0,P|486:152|475:220,1,140,0|0,0:0|0:0,0:0:0:0:
423,303,28353,1,0,0:0:0:0:
408,206,28561,2,0,P|443:206|475:220,1,70,8|0,0:0|0:0,0:0:0:0:
332,266,28978,6,0,P|263:269|196:250,1,140,0|0,0:0|0:0,0:0:0:0:
126,181,29603,1,0,0:0:0:0:
103,276,29811,2,0,P|97:310|97:345,1,70,8|0,0:0|0:0,0:0:0:0:
190,320,30228,6,0,P|195:285|195:250,1,70,0|8,0:0|0:0,0:0:0:0:
126,181,30644,1,8,0:0:0:0:
103,276,30853,1,0,0:0:0:0:
190,320,31061,2,0,L|259:314,1,70,8|0,0:0|0:0,0:0:0:0:
351,349,31478,6,0,P|371:321|380:287,1,70,8|8,0:0|0:0,0:0:0:0:
365,190,31894,2,0,P|330:185|296:195,1,70,8|0,0:0|0:0,0:0:0:0:
221,258,32311,2,0,P|234:289|259:314,1,70,8|0,0:0|0:0,0:0:0:0:
351,349,32728,6,0,B|309:343|309:343|217:376,2,140,0|0|8,0:0|0:0|0:0,0:0:0:0:
437,172,33978,6,0,L|428:102,1,70,8|8,0:0|0:0,0:0:0:0:
354,39,34394,2,0,L|345:108,1,70,8|0,0:0|0:0,0:0:0:0:
332,206,34811,1,8,0:0:0:0:
332,206,35228,6,0,P|299:194|264:197,1,70,0|8,0:0|0:0,0:0:0:0:
193,264,35644,1,8,0:0:0:0:
171,168,35853,1,0,0:0:0:0:
100,235,36061,2,0,L|95:304,1,70,8|0,0:0|0:0,0:0:0:0:
189,334,36478,6,0,L|193:264,1,70,8|8,0:0|0:0,0:0:0:0:
265,197,36894,2,0,L|261:127,1,70,8|0,0:0|0:0,0:0:0:0:
171,168,37311,1,8,0:0:0:0:
193,264,37519,1,0,0:0:0:0:
286,293,37728,6,0,P|356:293|425:278,1,140,0|0,0:0|0:0,0:0:0:0:
467,189,38353,1,8,0:0:0:0:
406,111,38561,2,0,P|371:111|336:119,1,70,8|0,0:0|0:0,0:0:0:0:
254,172,38978,5,8,0:0:0:0:
221,79,39186,1,8,0:0:0:0:
132,37,39394,2,0,L|123:107,1,70,8|8,0:0|0:0,0:0:0:0:
27,128,39811,2,0,L|36:198,1,70,8|8,0:0|0:0,0:0:0:0:
49,295,40228,5,8,0:0:0:0:
140,331,40436,1,0,0:0:0:0:
183,243,40644,2,0,P|149:234|114:236,1,70,2|0,0:0|0:0,0:0:0:0:
237,325,41061,2,0,P|271:327|305:318,1,70,2|0,0:0|0:0,0:0:0:0:
256,160,41478,6,0,L|262:229,1,70,2|0,0:0|0:0,0:0:0:0:
312,106,41894,2,0,P|248:81|191:117,1,140,0|0,0:0|0:0,0:0:0:0:
57,286,42728,6,0,L|133:291,1,77.0000023498536,4|0,0:0|0:0,0:0:0:0:
223,231,43144,1,0,0:0:0:0:
313,291,43353,2,0,L|389:286,1,77.0000023498536,0|8,0:0|0:0,0:0:0:0:
382,178,43769,1,0,0:0:0:0:
479,226,43978,5,0,0:0:0:0:
390,286,44186,1,0,0:0:0:0:
382,178,44394,2,0,P|449:160|479:225,1,154.000004699707,0|8,0:0|0:0,0:0:0:0:
390,286,45019,1,0,0:0:0:0:
287,320,45228,6,0,P|248:320|212:308,1,77.0000023498536,0|0,0:0|0:0,0:0:0:0:
129,240,45644,1,0,0:0:0:0:
230,202,45853,2,0,P|268:201|304:213,1,77.0000023498536,0|8,0:0|0:0,0:0:0:0:
287,320,46269,1,0,0:0:0:0:
390,286,46478,5,0,0:0:0:0:
382,178,46686,1,0,0:0:0:0:
274,167,46894,2,0,L|286:320,1,154.000004699707,0|8,0:0|0:0,0:0:0:0:
137,163,47728,6,0,L|130:86,2,77.0000023498536,0|0|0,0:0|0:0|0:0,0:0:0:0:
48,225,48353,1,0,0:0:0:0:
146,270,48561,2,0,L|222:263,1,77.0000023498536,8|0,0:0|0:0,0:0:0:0:
305,334,48978,6,0,L|151:346,2,154.000004699707,2|2|10,0:0|0:0|0:0,0:0:0:0:
412,324,50019,1,0,0:0:0:0:
474,236,50228,6,0,P|478:198|465:161,1,77.0000023498536,2|0,0:0|0:0,0:0:0:0:
369,209,50644,2,0,P|345:179|310:162,1,77.0000023498536,2|0,0:0|0:0,0:0:0:0:
275,264,51061,2,0,P|237:259|200:272,1,77.0000023498536,10|0,0:0|0:0,0:0:0:0:
247,369,51478,6,0,P|323:361|374:307,1,154.000004699707,0|0,0:0|0:0,0:0:0:0:
420,94,52311,2,0,L|344:89,1,77.0000023498536,8|0,0:0|0:0,0:0:0:0:
244,44,52728,6,0,P|232:81|239:119,2,77.0000023498536,4|0|0,0:0|0:0|0:0,0:0:0:0:
343,89,53353,1,0,0:0:0:0:
387,187,53561,2,0,L|311:192,1,77.0000023498536,8|0,0:0|0:0,0:0:0:0:
218,247,53978,6,0,P|263:188|239:119,2,154.000004699707,0|0|8,0:0|0:0|0:0,0:0:0:0:
114,274,55019,1,0,0:0:0:0:
54,184,55228,6,0,P|47:146|49:107,1,77.0000023498536,0|0,0:0|0:0,0:0:0:0:
157,101,55644,2,0,P|163:138|161:177,1,77.0000023498536,0|0,0:0|0:0,0:0:0:0:
114,274,56061,1,8,0:0:0:0:
218,247,56269,1,0,0:0:0:0:
190,350,56478,6,0,L|113:355,1,77.0000023498536
142,251,56894,2,0,L|218:247,1,77.0000023498536
47,299,57311,1,8,0:0:0:0:
47,299,57728,6,0,P|26:226|38:151,1,154.000004699707,0|0,0:0|0:0,0:0:0:0:
119,80,58353,1,0,0:0:0:0:
177,171,58561,6,0,P|103:187|38:150,1,154.000004699707,8|0,0:0|0:0,0:0:0:0:
211,21,59394,2,0,P|284:5|349:41,1,154.000004699707,0|8,0:0|0:0,0:0:0:0:
323,249,60228,6,0,P|279:187|268:111,1,154.000004699707
377,118,60853,1,0,0:0:0:0:
425,214,61061,2,0,P|431:252|423:290,1,77.0000023498536,8|0,0:0|0:0,0:0:0:0:
311,370,61478,6,0,P|277:305|325:249,1,154.000004699707,0|8,0:0|0:0,0:0:0:0:
423,289,62103,1,8,0:0:0:0:
417,181,62311,2,0,L|340:176,1,77.0000023498536,8|8,0:0|0:0,0:0:0:0:
246,250,62728,6,0,L|323:250,1,77.0000023498536,4|0,0:0|0:0,0:0:0:0:
229,176,63144,2,0,L|153:181,1,77.0000023498536,0|0,0:0|0:0,0:0:0:0:
146,288,63561,1,8,0:0:0:0:
247,325,63769,2,0,P|254:287|245:249,1,77.0000023498536
152,181,64186,5,0,0:0:0:0:
40,207,64394,2,0,L|42:360,1,154.000004699707,0|8,0:0|0:0,0:0:0:0:
156,383,65019,1,0,0:0:0:0:
247,325,65228,6,0,P|254:287|245:249,1,77.0000023498536
111,253,65644,2,0,P|140:277|176:289,1,77.0000023498536
244,172,66061,2,0,P|207:184|179:210,1,77.0000023498536,8|0,0:0|0:0,0:0:0:0:
319,210,66478,6,0,L|396:203,1,77.0000023498536
455,113,66894,2,0,P|387:132|395:202,1,154.000004699707,0|8,0:0|0:0,0:0:0:0:
206,330,67728,6,0,L|129:323,1,77.0000023498536,0|0,0:0|0:0,0:0:0:0:
44,256,68144,2,0,P|38:179|57:105,1,154.000004699707,0|8,0:0|0:0,0:0:0:0:
139,34,68769,1,0,0:0:0:0:
247,44,68978,6,0,L|324:51,1,77.0000023498536,0|0,0:0|0:0,0:0:0:0:
409,118,69394,2,0,P|414:194|395:268,1,154.000004699707,0|8,0:0|0:0,0:0:0:0:
314,340,70019,1,0,0:0:0:0:
206,330,70228,6,0,P|193:293|193:255,1,77.0000023498536,0|0,0:0|0:0,0:0:0:0:
275,186,70644,2,0,B|244:217|244:217|189:231|141:192,2,154.000004699707,0|8|2,0:0|0:0|0:0,0:0:0:0:
435,42,71894,6,0,P|452:117|448:194,1,154.000004699707,10|8,0:0|0:0,0:0:0:0:
360,256,72519,1,0,0:0:0:0:
435,334,72728,6,0,L|511:337,1,77.0000023498536,4|0,0:0|0:0,0:0:0:0:
360,256,73144,2,0,L|283:252,1,77.0000023498536,0|0,0:0|0:0,0:0:0:0:
125,319,73561,2,0,L|202:323,1,77.0000023498536,8|0,0:0|0:0,0:0:0:0:
181,216,73978,6,0,P|107:203|40:239,2,154.000004699707,0|0|8,0:0|0:0|0:0,0:0:0:0:
378,129,75228,6,0,P|349:103|313:92,1,77.0000023498536,4|0,0:0|0:0,0:0:0:0:
172,115,75644,2,0,P|246:128|313:92,1,154.000004699707,0|8,0:0|0:0,0:0:0:0:
370,0,76269,1,0,0:0:0:0:
471,39,76478,6,0,L|466:115,1,77.0000023498536,0|0,0:0|0:0,0:0:0:0:
381,205,76894,2,0,L|377:128,1,77.0000023498536,0|0,0:0|0:0,0:0:0:0:
451,256,77311,1,8,0:0:0:0:
451,256,77728,6,0,P|385:291|317:261,1,154.000004699707,4|0,0:0|0:0,0:0:0:0:
264,167,78353,1,0,0:0:0:0:
170,220,78561,2,0,L|93:221,1,77.0000023498536,10|2,0:0|0:0,0:0:0:0:
57,323,78978,6,0,L|211:320,2,154.000004699707,4|0|10,0:0|0:0|0:0,0:0:0:0:
93,221,80019,1,0,0:0:0:0:
129,119,80228,6,0,L|282:115,1,154.000004699707,4|0,0:0|0:0,0:0:0:0:
385,151,80853,1,0,0:0:0:0:
285,190,81061,2,0,P|276:152|283:115,1,77.0000023498536,10|2,0:0|0:0,0:0:0:0:
368,258,81478,6,0,P|304:297|230:282,1,154.000004699707,4|0,0:0|0:0,0:0:0:0:
138,227,82103,1,0,0:0:0:0:
285,190,82311,1,10,0:0:0:0:
230,282,82519,1,0,0:0:0:0:
193,135,82728,5,2,0:0:0:0:
256,192,82832,12,0,88353,0:0:0:0:
