osu file format v14

[General]
AudioFilename: audio.mp3
AudioLeadIn: 0
PreviewTime: 42728
Countdown: 0
SampleSet: Soft
StackLeniency: 0.7
Mode: 0
LetterboxInBreaks: 0
WidescreenStoryboard: 0

[Editor]
DistanceSpacing: 0.9
BeatDivisor: 4
GridSize: 8
TimelineZoom: 1

[Metadata]
Title:Sore wa Chiisana Hikari no Youna
TitleUnicode:それは小さな光のような
Artist:Sayuri
ArtistUnicode:さユり
Creator:Hey lululu
Version:Easy
Source:僕だけがいない街
Tags:tv size boku dake ga inai machi erased ending 23kong kencho
BeatmapID:1013307
BeatmapSetID:474376

[Difficulty]
HPDrainRate:3
CircleSize:2.5
OverallDifficulty:3
ApproachRate:3
SliderMultiplier:1
SliderTickRate:1

[Events]
//Background and Video events
Video,0,"video.avi"
0,0,"Bakanano.jpg",0,0
//Break Periods
//Storyboard Layer 0 (Background)
//Storyboard Layer 1 (Fail)
//Storyboard Layer 2 (Pass)
//Storyboard Layer 3 (Foreground)
//Storyboard Sound Samples

[TimingPoints]
2728,416.666666666667,3,2,1,50,1,0
26894,-100,3,2,2,50,0,0
27311,-100,3,2,1,50,0,0
31894,-100,3,2,2,50,0,0
32311,-100,3,2,1,50,0,0
39811,-100,3,2,2,50,0,0
40228,-100,3,2,1,50,0,0
42728,-100,3,2,3,70,0,1
82728,-100,3,2,1,50,0,0
83978,-100,3,2,1,40,0,0
85228,-100,3,2,1,30,0,0
86478,-100,3,2,1,20,0,0
87728,-100,3,2,1,10,0,0
88353,-100,3,2,1,5,0,0

[Colours]
Combo1 : 192,192,192
Combo2 : 255,0,0
Combo3 : 0,0,255
Combo4 : 0,174,255

[HitObjects]
375,324,3978,5,0,0:0:0:0:
290,293,4394,2,0,P|231:296|183:320,1,100
112,351,5228,6,0,B|95:289|95:289|109:211|109:211|93:134,1,200,0|2,0:0|0:0,0:0:0:0:
65,72,6478,2,0,B|112:48|112:48|200:73|200:73|273:49,1,200,0|2,0:0|0:0,0:0:0:0:
341,39,7728,2,0,B|391:101|384:168|384:168|357:206|368:249,1,200,0|2,0:0|0:0,0:0:0:0:
323,304,8978,2,0,P|222:265|156:318,1,200,0|2,0:0|0:0,0:0:0:0:
67,327,10228,6,0,B|85:272|60:228|60:228|33:178|56:110,1,200,0|2,0:0|0:0,0:0:0:0:
93,54,11478,2,0,B|160:69|160:69|226:49|226:49|293:64,1,200,0|2,0:0|0:0,0:0:0:0:
311,149,12728,2,0,L|325:253,2,100,0|0|2,0:0|0:0|0:0,0:0:0:0:
382,94,13978,2,0,P|445:85|415:198,1,200,0|2,0:0|0:0,0:0:0:0:
474,277,15228,6,0,B|420:290|377:248|377:248|311:248|278:278,1,200,0|2,0:0|0:0,0:0:0:0:
202,301,16478,2,0,P|174:256|197:106,1,200,0|2,0:0|0:0,0:0:0:0:
261,62,17728,2,0,P|313:58|368:96,2,100,0|0|2,0:0|0:0|0:0,0:0:0:0:
294,145,18978,1,0,0:0:0:0:
381,163,19394,2,0,P|427:134|446:77,1,100
370,42,20228,6,0,L|266:37,2,100,0|0|2,0:0|0:0|0:0,0:0:0:0:
422,115,21478,2,0,B|425:205|425:205|404:293,1,150,8|2,0:0|0:0,0:0:0:0:
285,311,22728,2,0,P|198:292|242:122,1,300
329,166,25228,6,0,L|342:45,2,100,0|8|8,0:0|0:0|0:0,0:0:0:0:
241,145,26478,2,0,P|190:139|140:157,2,100,0|8|8,0:0|0:0|0:0,0:0:0:0:
254,234,27728,2,0,L|254:345,1,100,0|8,0:0|0:0,0:0:0:0:
169,365,28561,1,8,0:0:0:0:
149,275,28978,2,0,P|122:234|72:212,2,100,0|8|8,0:0|0:0|0:0,0:0:0:0:
168,362,30228,6,8,L|271:360,1,100
316,284,31061,1,8,0:0:0:0:
363,207,31478,2,0,P|418:203|473:245,1,100,0|8,0:0|0:0,0:0:0:0:
474,311,32311,1,8,0:0:0:0:
405,368,32728,6,0,L|299:365,2,100,0|0|8,0:0|0:0|0:0,0:0:0:0:
455,293,33978,2,0,P|472:196|416:104,1,200,0|8,0:0|0:0,0:0:0:0:
362,176,35228,6,8,P|314:193|249:188,1,100
205,124,36061,1,8,0:0:0:0:
128,171,36478,2,0,L|122:289,2,100,0|0|8,0:0|0:0|0:0,0:0:0:0:
128,80,37728,2,8,P|166:42|218:33,2,100
207,122,38978,2,0,B|252:150|302:110|302:110|347:160|404:133,1,200,0|8,0:0|0:0,0:0:0:0:
374,52,40228,5,0,0:0:0:0:
293,12,40644,2,0,B|233:34|233:34|152:26|152:26|91:43,1,200
133,124,41894,2,0,P|142:175|135:237,1,100
190,296,42728,6,0,P|236:268|283:269,1,100,4|0,0:0|0:0,0:0:0:0:
358,314,43561,1,8,0:0:0:0:
396,233,43978,2,0,P|398:188|382:130,1,100
326,66,44811,1,8,0:0:0:0:
287,146,45228,2,0,P|297:253|226:294,1,200,0|8,0:0|0:0,0:0:0:0:
154,239,46478,2,0,P|106:218|50:233,2,100,0|0|8,0:0|0:0|0:0,0:0:0:0:
98,309,47728,6,0,P|142:330|198:317,1,100
264,269,48561,1,8,0:0:0:0:
347,302,48978,2,0,L|450:329,2,100,2|2|10,0:0|0:0|0:0,0:0:0:0:
286,236,50228,2,0,L|175:255,2,100,2|2|10,0:0|0:0|0:0,0:0:0:0:
368,200,51478,2,0,P|387:119|299:52,1,200,0|8,0:0|0:0,0:0:0:0:
300,142,52728,6,0,P|244:142|192:169,1,100,4|0,0:0|0:0,0:0:0:0:
121,137,53561,1,8,0:0:0:0:
84,219,53978,2,0,L|91:330,2,100,0|0|8,0:0|0:0|0:0,0:0:0:0:
172,234,55228,2,0,P|218:252|272:252,1,100
341,201,56061,1,8,0:0:0:0:
407,140,56478,2,0,L|392:33,1,100
310,5,57311,1,8,0:0:0:0:
278,90,57728,6,0,P|228:97|167:84,1,100
114,26,58561,1,8,0:0:0:0:
69,104,58978,2,0,P|56:162|78:216,2,100,0|0|8,0:0|0:0|0:0,0:0:0:0:
145,152,60228,2,0,P|193:118|241:119,1,100
216,206,61061,1,8,0:0:0:0:
305,214,61478,2,0,L|297:320,1,100
209,332,62311,1,8,0:0:0:0:
144,268,62728,6,0,P|92:266|49:296,1,100,4|0,0:0|0:0,0:0:0:0:
117,353,63561,1,8,0:0:0:0:
205,338,63978,2,0,P|232:302|229:236,2,100,0|0|8,0:0|0:0|0:0,0:0:0:0:
289,369,65228,2,0,L|397:352,1,100
433,276,66061,1,8,0:0:0:0:
396,193,66478,2,0,L|406:87,2,100,0|0|8,0:0|0:0|0:0,0:0:0:0:
307,210,67728,6,0,P|259:205|212:232,2,100,0|0|8,0:0|0:0|0:0,0:0:0:0:
275,295,68978,2,0,P|223:319|164:310,2,100,0|0|8,0:0|0:0|0:0,0:0:0:0:
340,357,70228,1,0,0:0:0:0:
384,278,70644,2,0,L|377:169,1,100,0|8,0:0|0:0,0:0:0:0:
316,112,71478,2,0,P|280:149|226:159,2,100,0|0|8,0:0|0:0|0:0,0:0:0:0:
238,66,72728,6,0,L|106:59,1,100,4|0,0:0|0:0,0:0:0:0:
48,49,73561,1,8,0:0:0:0:
86,130,73978,2,0,P|94:185|91:243,1,100
67,315,74811,1,8,0:0:0:0:
155,299,75228,2,0,P|201:290|252:301,1,100
331,258,76061,1,8,0:0:0:0:
371,177,76478,2,0,L|376:65,1,100
295,36,77311,1,8,0:0:0:0:
232,100,77728,6,0,B|184:124|184:124|84:121|84:121|30:85,1,200,4|8,0:0|0:0,0:0:0:0:
18,181,78978,2,0,B|19:311|19:311|88:369,1,200,4|8,0:0|0:0,0:0:0:0:
147,306,80228,2,0,B|201:274|201:274|343:274,1,200,4|8,0:0|0:0,0:0:0:0:
428,268,81478,2,0,B|436:195|436:195|410:133|410:133|416:62,1,200,4|8,0:0|0:0,0:0:0:0:
337,28,82728,5,2,0:0:0:0:
256,192,82936,12,0,88353,0:0:0:0:
