osu file format v14

[General]
AudioFilename: audio.mp3
AudioLeadIn: 0
PreviewTime: 195282
Countdown: 0
SampleSet: Soft
StackLeniency: 0.4
Mode: 0
LetterboxInBreaks: 0
EpilepsyWarning: 1
WidescreenStoryboard: 1

[Editor]
Bookmarks: 36948,123198
DistanceSpacing: 1
BeatDivisor: 4
GridSize: 32
TimelineZoom: 3.099999

[Metadata]
Title:Sore wa Chiisana Hikari no Youna
TitleUnicode:それは小さな光のような
Artist:Sayuri
ArtistUnicode:さユり
Creator:Haruto
Version:Timelapse
Source:僕だけがいない街
Tags:bokumachi boku dake ga inai machi erased ending ed full version arviejhay yohanes mikii haruto_aizawa haruto- yaldo_27
BeatmapID:929627
BeatmapSetID:430934

[Difficulty]
HPDrainRate:6.5
CircleSize:3.9
OverallDifficulty:8
ApproachRate:8.3
SliderMultiplier:1.75
SliderTickRate:1

[Events]
//Background and Video events
0,0,"55791059_p00.jpg",0,0
//Break Periods
2,195482,204562
//Storyboard Layer 0 (Background)
//Storyboard Layer 1 (Fail)
//Storyboard Layer 2 (Pass)
//Storyboard Layer 3 (Foreground)
Sprite,Foreground,Centre,"SB\highlight.png",320,240 M,0,265282,,328,392 S,0,265282,,1 P,0,265282,,A F,0,265282,266282,1,0 C,0,265282,266282,255,191,0
Sprite,Foreground,Centre,"SB\highlight.png",320,240 M,0,265486,,337,360 S,0,265486,,1 P,0,265486,,A F,0,265486,266486,1,0 C,0,265486,266486,255,191,0
Sprite,Foreground,Centre,"SB\highlight.png",320,240 M,0,265690,,368,344 S,0,265690,,1 P,0,265690,,A F,0,265690,266690,1,0 C,0,265690,266690,255,191,0
Sprite,Foreground,Centre,"SB\highlight.png",320,240 M,0,265894,,400,336 S,0,265894,,1 P,0,265894,,A F,0,265894,266894,1,0 C,0,265894,266894,255,191,0
Sprite,Foreground,Centre,"SB\highlight.png",320,240 M,0,266098,,440,328 S,0,266098,,1 P,0,266098,,A F,0,266098,267098,1,0 C,0,266098,267098,255,191,0
Sprite,Foreground,Centre,"SB\highlight.png",320,240 M,0,266302,,456,296 S,0,266302,,1 P,0,266302,,A F,0,266302,267302,1,0 C,0,266302,267302,255,191,0
Sprite,Foreground,Centre,"SB\highlight.png",320,240 M,0,266506,,408,312 S,0,266506,,1 P,0,266506,,A F,0,266506,267506,1,0 C,0,266506,267506,255,191,0
Sprite,Foreground,Centre,"SB\highlight.png",320,240 M,0,266710,,368,288 S,0,266710,,1 P,0,266710,,A F,0,266710,267710,1,0 C,0,266710,267710,255,191,0
Sprite,Foreground,Centre,"SB\highlight.png",320,240 M,0,266914,,432,272 S,0,266914,,1 P,0,266914,,A F,0,266914,267914,1,0 C,0,266914,267914,255,191,0
Sprite,Foreground,Centre,"SB\highlight.png",320,240 M,0,267118,,464,208 S,0,267118,,1 P,0,267118,,A F,0,267118,268118,1,0 C,0,267118,268118,255,191,0
Sprite,Foreground,Centre,"SB\highlight.png",320,240 M,0,267322,,440,144 S,0,267322,,1 P,0,267322,,A F,0,267322,268322,1,0 C,0,267322,268322,255,191,0
Sprite,Foreground,Centre,"SB\highlight.png",320,240 M,0,267526,,368,120 S,0,267526,,1 P,0,267526,,A F,0,267526,268526,1,0 C,0,267526,268526,255,191,0
Sprite,Foreground,Centre,"SB\highlight.png",320,240 M,0,267730,,320,168 S,0,267730,,1 P,0,267730,,A F,0,267730,268730,1,0 C,0,267730,268730,255,191,0
Sprite,Foreground,Centre,"SB\highlight.png",320,240 M,0,267934,,272,120 S,0,267934,,1 P,0,267934,,A F,0,267934,268934,1,0 C,0,267934,268934,255,191,0
Sprite,Foreground,Centre,"SB\highlight.png",320,240 M,0,268138,,200,144 S,0,268138,,1 P,0,268138,,A F,0,268138,269138,1,0 C,0,268138,269138,255,191,0
Sprite,Foreground,Centre,"SB\highlight.png",320,240 M,0,268342,,176,208 S,0,268342,,1 P,0,268342,,A F,0,268342,269342,1,0 C,0,268342,269342,255,191,0
Sprite,Foreground,Centre,"SB\highlight.png",320,240 M,0,268546,,208,272 S,0,268546,,1 P,0,268546,,A F,0,268546,269546,1,0 C,0,268546,269546,255,191,0
Sprite,Foreground,Centre,"SB\highlight.png",320,240 M,0,268750,,272,288 S,0,268750,,1 P,0,268750,,A F,0,268750,269750,1,0 C,0,268750,269750,255,191,0
Sprite,Foreground,Centre,"SB\highlight.png",320,240 M,0,268954,,232,312 S,0,268954,,1 P,0,268954,,A F,0,268954,269954,1,0 C,0,268954,269954,255,191,0
Sprite,Foreground,Centre,"SB\highlight.png",320,240 M,0,269158,,184,296 S,0,269158,,1 P,0,269158,,A F,0,269158,270158,1,0 C,0,269158,270158,255,191,0
Sprite,Foreground,Centre,"SB\highlight.png",320,240 M,0,269362,,200,328 S,0,269362,,1 P,0,269362,,A F,0,269362,270362,1,0 C,0,269362,270362,255,191,0
Sprite,Foreground,Centre,"SB\highlight.png",320,240 M,0,269566,,240,336 S,0,269566,,1 P,0,269566,,A F,0,269566,270566,1,0 C,0,269566,270566,255,191,0
Sprite,Foreground,Centre,"SB\highlight.png",320,240 M,0,269770,,272,344 S,0,269770,,1 P,0,269770,,A F,0,269770,270770,1,0 C,0,269770,270770,255,191,0
Sprite,Foreground,Centre,"SB\highlight.png",320,240 M,0,269974,,304,360 S,0,269974,,1 P,0,269974,,A F,0,269974,270974,1,0 C,0,269974,270974,255,191,0
Sprite,Foreground,Centre,"SB\highlight.png",320,240 M,0,270178,,312,392 S,0,270178,,1 P,0,270178,,A F,0,270178,271178,1,0 C,0,270178,271178,255,191,0
//Storyboard Sound Samples

[TimingPoints]
282,416.666666666667,3,2,1,50,1,0
282,-133.333333333333,3,2,1,50,0,0
10282,-117.647058823529,3,2,1,50,0,0
30282,-100,3,2,1,50,0,0
47782,-90.9090909090909,3,2,1,75,0,1
66948,-95.2380952380952,3,2,1,65,0,0
67782,-90.9090909090909,3,2,1,75,0,1
87782,-100,3,2,1,55,0,0
107782,-105.263157894737,3,2,1,55,0,0
112782,-100,3,2,1,55,0,0
132782,-111.111111111111,3,2,1,55,0,0
135282,-90.9090909090909,3,2,1,75,0,1
154032,-95.2380952380952,3,2,1,65,0,0
155282,-100,3,2,1,75,0,1
175282,-95.2380952380952,3,2,1,60,0,0
195282,-100,3,2,1,55,0,0
205282,-133.333333333333,3,2,1,55,0,0
210282,-117.647058823529,3,2,1,60,0,0
215282,-90.9090909090909,3,2,1,75,0,1
234448,-95.2380952380952,3,2,1,65,0,0
235282,-90.9090909090909,3,2,1,75,0,1
254865,-95.2380952380952,3,2,1,65,0,0
255282,-95.2380952380952,3,2,1,80,0,1
265282,-200,3,2,1,65,0,0
265386,-200,3,2,1,5,0,0

[Colours]
Combo1 : 63,216,224
Combo2 : 153,77,0
Combo3 : 153,199,33
Combo4 : 222,83,71
Combo5 : 128,130,102
Combo6 : 127,127,127
Combo7 : 161,161,161
Combo8 : 255,191,0

[HitObjects]
96,119,282,70,0,P|110:180|120:256,1,131.25000500679,2|2,0:0|0:1,0:0:0:0:
206,279,907,2,0,P|214:213|229:150,1,131.25000500679,2|2,0:0|0:1,0:0:0:0:
303,96,1532,6,0,B|350:95|350:95|382:105|382:105|443:105,1,131.25000500679,2|2,0:1|0:0,0:0:0:0:
483,182,2157,2,0,P|505:242|476:313,1,131.25000500679,2|2,0:1|0:0,0:0:0:0:
411,247,2782,102,0,B|376:237|348:251|348:251|321:266|283:260,1,131.25000500679,2|2,0:0|0:1,0:0:0:0:
199,220,3407,2,0,P|137:201|66:224,1,131.25000500679,2|2,0:0|0:1,0:0:0:0:
74,310,4032,6,0,P|136:329|207:306,1,131.25000500679,2|2,0:0|0:1,0:0:0:0:
283,260,4657,2,0,B|294:217|294:217|281:122,1,131.25000500679,2|2,0:0|0:1,0:0:0:0:
214,79,5282,102,0,P|287:93|339:58,1,131.25000500679,2|2,0:0|0:1,0:0:0:0:
421,92,5907,2,0,B|407:126|420:159|420:159|432:191|422:228,1,131.25000500679,2|2,0:0|0:1,0:0:0:0:
332,235,6532,6,0,P|283:217|204:254,1,131.25000500679,2|2,0:0|0:1,0:0:0:0:
121,265,7157,2,0,L|-23:215,1,131.25000500679,2|2,0:0|0:1,0:0:0:0:
13,131,7782,102,0,L|146:177,1,131.25000500679,2|2,0:0|0:0,0:0:0:0:
212,244,8407,2,0,P|266:253|336:214,1,131.25000500679,2|2,0:0|0:0,0:0:0:0:
407,328,9032,6,0,P|433:268|417:205,1,131.25000500679,2|2,0:0|0:0,0:0:0:0:
349,85,9657,1,0,0:0:0:0:
332,220,9865,1,2,0:0:0:0:
428,120,10073,1,2,0:0:0:0:
292,146,10282,102,0,B|247:140|247:140|191:153|191:153|138:146,1,148.750002837181,2|2,0:0|0:1,0:0:0:0:
69,193,10907,1,2,0:0:0:0:
69,193,11115,2,0,P|56:239|64:282,1,74.3750014185906,2|0,0:1|0:0,0:0:0:0:
125,324,11532,6,0,B|182:312|182:312|275:325,1,148.750002837181,2|2,0:0|0:1,0:0:0:0:
357,298,12157,1,2,0:0:0:0:
357,298,12365,2,0,P|376:261|374:225,1,74.3750014185906,2|0,0:0|0:0,0:0:0:0:
286,240,12782,102,0,L|136:221,1,148.750002837181,2|2,0:0|0:1,0:0:0:0:
49,208,13407,1,2,0:0:0:0:
49,208,13615,2,0,P|68:166|105:140,1,74.3750014185906,2|0,0:1|0:0,0:0:0:0:
139,221,14032,6,0,B|148:271|148:271|137:325|137:325|145:371,1,148.750002837181,2|2,0:0|0:1,0:0:0:0:
221,321,14657,1,2,0:0:0:0:
221,321,14865,2,0,L|301:315,1,74.3750014185906,2|0,0:0|0:0,0:0:0:0:
409,257,15282,102,0,P|334:259|294:332,1,148.750002837181,2|2,0:0|0:1,0:0:0:0:
375,333,15907,1,2,0:0:0:0:
491,248,16115,1,2,0:1:0:0:
279,201,16323,1,2,0:0:0:0:
414,127,16532,2,0,P|442:194|408:257,1,148.750002837181,2|2,0:1|0:1,0:0:0:0:
360,191,17157,1,2,0:1:0:0:
360,191,17365,2,0,L|279:198,1,74.3750014185906,2|0,0:0|0:0,0:0:0:0:
197,209,17781,6,0,P|183:162|162:131,1,74.3750014185906,2|0,0:0|0:0,0:0:0:0:
72,136,18198,2,0,P|53:168|44:204,1,74.3750014185906,2|0,0:0|0:0,0:0:0:0:
94,288,18615,2,0,B|144:299|144:299|248:283,2,148.750002837181,2|2|2,0:0|0:0|0:1,0:0:0:0:
44,204,19657,1,2,0:1:0:0:
44,204,19865,2,0,L|44:124,1,74.3750014185906,2|0,0:0|0:0,0:0:0:0:
125,87,20282,102,0,B|167:77|200:89|200:89|235:102|279:86,1,148.750002837181,2|2,0:0|0:1,0:0:0:0:
351,127,20907,1,2,0:1:0:0:
351,127,21115,2,0,L|432:137,1,74.3750014185906,2|0,0:0|0:0,0:0:0:0:
401,222,21532,6,0,L|243:204,1,148.750002837181,2|2,0:0|0:0,0:0:0:0:
178,253,22157,1,2,0:1:0:0:
178,253,22365,2,0,P|177:296|188:333,1,74.3750014185906
170,170,22782,102,0,P|133:147|95:138,1,74.3750014185906,2|0,0:0|0:0,0:0:0:0:
253,205,23198,2,0,P|290:184|317:156,1,74.3750014185906,2|0,0:0|0:0,0:0:0:0:
390,117,23615,2,0,L|474:140,1,74.3750014185906,2|0,0:0|0:0,0:0:0:0:
460,226,24032,6,0,L|376:203,1,74.3750014185906,2|0,0:0|0:0,0:0:0:0:
306,74,24448,1,2,0:0:0:0:
306,74,24657,2,0,B|255:80|255:80|207:71|207:71|149:80,1,148.750002837181,2|0,0:0|0:0,0:0:0:0:
83,126,25282,102,0,P|64:205|105:260,1,148.750002837181,2|0,0:0|0:0,0:0:0:0:
189,251,25907,1,2,0:0:0:0:
189,251,26115,2,0,L|264:256,1,74.3750014185906,2|0,0:0|0:0,0:0:0:0:
247,153,26532,6,0,L|172:161,1,74.3750014185906,2|0,0:0|0:0,0:0:0:0:
343,190,26948,1,2,0:0:0:0:
282,357,27157,1,2,0:0:0:0:
263,256,27365,1,2,0:1:0:0:
422,122,27573,1,2,0:0:0:0:
361,290,27782,101,0,0:0:0:0:
361,290,28198,1,0,0:0:0:0:
282,357,28407,1,2,0:1:0:0:
245,153,28615,5,2,0:0:0:0:
263,256,28823,1,2,0:1:0:0:
422,122,29032,1,2,0:0:0:0:
263,256,30282,85,6,0:0:0:0:
283,123,30490,1,8,0:0:0:0:
283,123,30698,1,8,0:0:0:0:
205,179,30907,1,0,3:0:0:0:
339,201,31115,6,0,P|373:131|320:37,1,175,8|0,0:0|3:0,0:0:0:0:
118,140,31740,1,0,0:0:0:0:
205,179,31948,2,0,L|285:125,1,87.5
184,3,32365,2,0,L|104:57,1,87.5,8|0,0:0|0:0,0:0:0:0:
45,189,32782,2,0,P|52:272|141:318,1,175,4|0,0:0|0:0,0:0:0:0:
198,268,33407,1,8,0:0:0:0:
198,268,33615,1,8,0:0:0:0:
354,280,33823,1,0,0:0:0:0:
231,180,34032,5,0,3:0:0:0:
273,331,34240,1,0,0:0:0:0:
326,183,34448,2,0,P|306:125|265:91,1,87.5,2|0,0:1|3:0,0:0:0:0:
139,196,34865,1,8,0:0:0:0:
273,331,35073,1,0,0:0:0:0:
421,207,35282,102,0,L|429:106,1,87.5,0|8,3:0|0:0,0:0:0:0:
317,95,35698,2,0,L|327:195,1,87.5,8|0,0:0|3:0,0:0:0:0:
239,225,36115,2,0,L|217:128,1,87.5,8|0,0:0|3:0,0:0:0:0:
58,96,36532,5,0,0:0:0:0:
213,38,36740,1,8,0:0:0:0:
118,174,36948,1,2,0:1:0:0:
116,4,37157,1,0,3:0:0:0:
128,187,37365,1,8,0:0:0:0:
128,187,37782,102,0,B|163:218|157:267|157:267|150:313|189:353,1,175
335,258,38407,1,0,3:0:0:0:
335,258,38615,2,0,L|244:273,1,87.5,8|0,0:0|0:0,0:0:0:0:
407,196,39032,6,0,L|465:267,1,87.5,0|8,3:0|0:0,0:0:0:0:
317,164,39448,2,0,L|349:78,1,87.5,0|0,0:0|3:0,0:0:0:0:
393,332,39865,1,12,0:0:0:0:
231,186,40073,1,0,0:0:0:0:
437,110,40282,101,0,3:0:0:0:
335,258,40490,1,8,0:0:0:0:
335,258,40698,2,0,P|300:293|244:317,1,87.5,8|0,0:0|3:0,0:0:0:0:
64,187,41115,2,0,P|99:152|155:128,1,87.5,8|0,0:0|0:0,0:0:0:0:
231,186,41532,6,0,L|161:255,1,87.5,0|8,3:0|0:0,0:0:0:0:
225,73,41948,1,0,0:0:0:0:
225,73,42157,1,0,3:0:0:0:
337,264,42365,1,12,0:0:0:0:
407,196,42573,1,0,0:0:0:0:
314,170,42782,102,0,P|252:179|211:169,1,87.5,0|0,3:0|0:0,0:0:0:0:
118,310,43198,2,0,P|141:251|170:221,1,87.5,2|8,0:1|0:0,0:0:0:0:
96,68,43615,2,0,P|134:117|146:157,1,87.5,8|0,0:0|0:0,0:0:0:0:
241,265,44032,101,0,3:0:0:0:
70,195,44240,1,8,0:0:0:0:
215,82,44448,1,2,0:1:0:0:
157,233,44657,1,0,3:0:0:0:
143,140,44865,1,12,0:0:0:0:
228,174,45073,1,0,0:0:0:0:
84,292,45282,5,12,0:0:0:0:
84,292,45490,1,0,3:0:0:0:
313,208,45698,1,0,3:0:0:0:
0,258,45907,1,8,0:0:0:0:
0,258,46115,1,0,0:0:0:0:
215,82,46323,1,0,3:0:0:0:
172,326,46532,5,8,0:0:0:0:
143,140,46740,1,4,3:0:0:0:
400,237,46948,1,0,3:0:0:0:
70,195,47157,1,0,0:0:0:0:
300,118,47365,1,0,3:0:0:0:
300,118,47782,102,0,P|346:124|405:101,1,96.250002937317,4|0,3:2|0:0,0:0:0:0:
215,97,48198,2,0,P|172:114|132:164,1,96.250002937317,0|2,3:0|0:1,0:0:0:0:
255,269,48615,1,8,0:0:0:0:
229,176,48823,1,0,0:0:0:0:
70,217,49032,5,0,3:0:0:0:
186,335,49240,1,0,0:0:0:0:
139,151,49448,1,0,3:0:0:0:
95,311,49657,1,0,3:0:0:0:
322,199,49865,1,8,0:0:0:0:
229,176,50073,1,0,0:0:0:0:
186,335,50282,5,0,3:0:0:0:
345,294,50490,1,0,0:0:0:0:
295,106,50698,1,0,3:0:0:0:
70,217,50907,21,0,0:0:0:0:
186,335,51115,1,8,0:0:0:0:
388,129,51323,5,0,0:0:0:0:
202,83,51532,1,0,3:0:0:0:
279,366,51740,1,0,0:0:0:0:
413,224,51948,5,0,3:0:0:0:
139,151,52157,1,0,0:0:0:0:
255,269,52365,1,8,0:0:0:0:
255,269,52782,6,0,L|325:195,1,96.250002937317,0|0,3:0|0:0,0:0:0:0:
139,151,53198,2,0,L|69:218,1,96.250002937317,0|0,3:0|0:0,0:0:0:0:
295,106,53615,1,8,0:0:0:0:
189,60,53823,1,0,0:0:0:0:
189,60,54031,6,0,P|135:56|85:26,1,96.250002937317,0|0,3:0|0:0,0:0:0:0:
295,106,54448,2,0,P|264:150|213:179,1,96.250002937317,0|0,3:0|0:0,0:0:0:0:
396,57,54865,2,0,P|419:105|418:164,1,96.250002937317,8|0,0:0|0:0,0:0:0:0:
362,295,55282,6,0,L|340:186,1,96.250002937317,0|0,3:0|0:0,0:0:0:0:
255,259,55698,2,0,L|255:367,1,96.250002937317,0|0,3:0|0:0,0:0:0:0:
152,303,56115,2,0,L|163:207,1,96.250002937317,8|0,0:0|0:0,0:0:0:0:
422,147,56532,5,0,0:0:0:0:
255,259,56740,1,0,0:0:0:0:
241,58,56948,21,0,3:0:0:0:
342,200,57157,1,0,0:0:0:0:
247,154,57365,5,8,0:0:0:0:
335,95,57573,1,0,0:0:0:0:
349,304,57782,5,4,3:2:0:0:
159,213,57990,1,0,0:0:0:0:
247,154,58198,2,0,L|241:55,1,96.250002937317,0|0,3:0|0:0,0:0:0:0:
421,147,58615,2,0,L|427:245,1,96.250002937317,8|0,0:0|0:0,0:0:0:0:
255,259,59032,5,0,3:0:0:0:
335,95,59240,1,0,0:0:0:0:
342,200,59448,1,0,3:0:0:0:
159,213,59657,1,0,0:0:0:0:
241,58,59865,1,8,0:0:0:0:
255,259,60073,1,0,0:0:0:0:
152,108,60282,5,0,3:0:0:0:
335,95,60490,1,0,0:0:0:0:
335,95,60698,2,0,P|385:111|445:99,1,96.250002937317,0|0,3:0|0:0,0:0:0:0:
247,153,61115,1,8,0:0:0:0:
349,304,61323,1,0,0:0:0:0:
342,200,61532,6,0,L|441:209,1,96.250002937317,2|0,3:2|3:0,0:0:0:0:
255,259,61948,2,0,L|156:268,1,96.250002937317,2|0,0:0|0:0,0:0:0:0:
349,304,62365,2,0,L|448:313,1,96.250002937317,10|0,0:0|0:0,0:0:0:0:
159,268,62782,6,0,B|174:218|156:175|156:175|136:126|160:70,1,192.500005874634,0|0,3:0|3:0,0:0:0:0:
279,174,63407,1,0,0:0:0:0:
279,174,63615,2,0,P|184:162|160:65,1,192.500005874634,8|0,0:0|3:0,0:0:0:0:
245,96,64240,1,2,0:1:0:0:
245,96,64448,2,0,L|344:76,1,96.250002937317,0|0,3:0|0:0,0:0:0:0:
373,193,64865,2,0,L|274:173,1,96.250002937317,8|0,0:0|0:0,0:0:0:0:
185,224,65282,102,0,P|239:208|315:310,1,192.500005874634,0|0,3:0|3:0,0:0:0:0:
234,294,65907,1,0,0:0:0:0:
234,294,66115,2,0,B|191:306|191:306|35:297,1,192.500005874634,8|0,0:0|3:0,0:0:0:0:
94,215,66740,1,0,0:0:0:0:
144,143,66948,6,0,L|248:128,1,91.8749971961976,8|8,0:0|0:0,0:0:0:0:
94,215,67365,2,0,L|-7:201,1,91.8749971961976,8|8,0:0|0:0,0:0:0:0:
235,130,67782,21,6,3:2:0:0:
339,151,67990,1,0,0:0:0:0:
413,62,68198,5,0,3:0:0:0:
301,42,68407,1,0,0:0:0:0:
372,251,68615,5,8,0:0:0:0:
453,170,68823,1,0,0:0:0:0:
235,130,69032,5,0,3:0:0:0:
268,230,69240,1,0,0:0:0:0:
453,170,69448,5,0,3:0:0:0:
339,151,69657,1,0,3:0:0:0:
307,339,69865,1,8,0:0:0:0:
372,251,70073,1,0,0:0:0:0:
307,339,70282,6,0,L|206:351,1,96.250002937317,0|0,2:0|0:0,0:0:0:0:
149,253,70698,2,0,L|250:265,1,96.250002937317,0|0,3:0|0:0,0:0:0:0:
302,164,71115,2,0,L|201:176,1,96.250002937317,8|0,0:0|0:0,0:0:0:0:
149,253,71532,5,0,0:0:0:0:
92,331,71740,1,0,0:0:0:0:
92,331,71948,2,0,P|57:282|56:229,1,96.250002937317,0|0,3:0|0:0,0:0:0:0:
149,253,72365,2,0,P|175:198|221:173,1,96.250002937317,8|0,0:0|0:0,0:0:0:0:
433,299,72782,101,0,3:0:0:0:
433,299,72990,1,0,0:0:0:0:
243,263,73198,1,0,3:0:0:0:
404,110,73407,1,0,0:0:0:0:
338,288,73615,1,8,0:0:0:0:
314,175,73823,1,0,0:0:0:0:
314,175,74032,6,0,L|303:77,1,96.250002937317,0|0,3:0|0:0,0:0:0:0:
404,110,74448,2,0,L|417:205,1,96.250002937317,0|0,3:0|0:0,0:0:0:0:
220,156,74865,2,0,L|206:60,1,96.250002937317,8|0,0:0|0:0,0:0:0:0:
16,125,75282,85,2,0:0:0:0:
131,212,75490,1,0,0:0:0:0:
131,212,75698,2,0,L|117:112,1,96.250002937317,2|0,0:0|0:0,0:0:0:0:
63,312,76115,2,0,P|136:252|236:294,1,192.500005874634,8|2,0:0|3:2,0:0:0:0:
384,248,76740,1,2,0:0:0:0:
237,177,76948,5,0,3:0:0:0:
312,323,77157,1,2,0:0:0:0:
336,161,77365,1,8,0:0:0:0:
223,278,77573,1,0,0:0:0:0:
384,248,77782,6,0,P|426:206|385:74,1,192.500005874634,6|0,3:2|3:0,0:0:0:0:
147,155,78407,1,0,0:0:0:0:
147,155,78615,2,0,B|201:165|201:165|276:148|276:148|344:162,1,192.500005874634,8|0,0:0|3:0,0:0:0:0:
401,232,79240,1,0,3:0:0:0:
401,232,79448,2,0,P|431:183|430:135,1,96.250002937317,0|0,3:0|3:0,0:0:0:0:
250,172,79865,2,0,P|220:221|221:269,1,96.250002937317,8|0,0:0|0:0,0:0:0:0:
127,313,80282,102,0,L|79:222,1,96.250002937317,0|0,3:0|0:0,0:0:0:0:
174,174,80698,2,0,L|222:265,1,96.250002937317,0|0,3:0|0:0,0:0:0:0:
81,120,81115,2,0,P|173:142|243:82,1,192.500005874634,8|0,0:0|3:0,0:0:0:0:
337,102,81740,1,0,0:0:0:0:
359,191,81948,2,0,P|359:142|319:87,1,96.250002937317,0|0,3:0|0:0,0:0:0:0:
270,171,82365,1,8,0:0:0:0:
294,264,82573,1,0,0:0:0:0:
511,219,82782,6,0,P|465:164|350:207,1,192.500005874634,0|0,3:0|3:0,0:0:0:0:
229,337,83407,1,2,3:1:0:0:
229,337,83615,2,0,B|181:320|133:346|133:346|89:368|38:347,1,192.500005874634,8|0,0:0|3:0,0:0:0:0:
86,262,84240,1,0,0:0:0:0:
86,262,84448,2,0,L|66:166,1,96.250002937317,0|0,3:0|0:0,0:0:0:0:
175,105,84865,2,0,L|170:205,1,96.250002937317,8|0,0:0|0:0,0:0:0:0:
339,87,85282,86,0,P|289:57|168:118,1,192.500005874634,0|0,3:0|3:0,0:0:0:0:
253,249,85907,1,0,0:0:0:0:
253,249,86115,2,0,L|266:149,1,96.250002937317,8|0,0:0|0:0,0:0:0:0:
359,179,86532,6,0,B|343:293|343:293|320:340|275:347,1,192.500005874634,0|0,3:0|3:0,0:0:0:0:
157,262,87157,1,0,0:0:0:0:
157,262,87365,2,0,L|259:248,1,96.250002937317,8|0,0:0|0:0,0:0:0:0:
74,203,87782,101,4,3:2:0:0:
160,161,87990,2,0,P|181:108|173:59,1,87.5,0|0,0:0|3:0,0:0:0:0:
251,14,88407,1,8,0:0:0:0:
332,78,88615,2,0,P|333:121|352:161,1,87.5,0|8,3:0|0:0,0:0:0:0:
439,203,89032,5,0,3:0:0:0:
363,262,89240,1,0,0:0:0:0:
363,262,89448,2,0,L|377:348,1,87.5,0|8,3:0|0:0,0:0:0:0:
272,231,89865,2,0,L|260:337,1,87.5,0|8,3:0|0:0,0:0:0:0:
173,177,90282,102,0,L|184:270,1,87.5,0|0,3:0|0:0,0:0:0:0:
269,118,90698,2,0,P|236:83|188:68,1,87.5,0|8,3:0|0:0,0:0:0:0:
93,320,91115,2,0,P|126:355|174:370,1,87.5,0|8,3:0|0:0,0:0:0:0:
272,231,91532,5,0,3:0:0:0:
371,265,91740,1,8,0:0:0:0:
406,248,91844,1,8,0:0:0:0:
433,220,91948,1,8,3:2:0:0:
448,184,92052,1,8,0:0:0:0:
449,145,92156,101,8,0:0:0:0:
435,108,92260,1,8,0:0:0:0:
410,79,92365,1,8,3:2:0:0:
375,61,92469,1,8,0:0:0:0:
336,57,92573,1,8,0:0:0:0:
298,67,92677,1,8,0:0:0:0:
267,91,92782,5,4,3:2:0:0:
179,130,92990,1,0,0:0:0:0:
179,130,93198,2,0,P|155:166|102:183,1,87.5,0|8,3:0|0:0,0:0:0:0:
81,345,93615,1,0,3:0:0:0:
81,345,93823,1,8,0:0:0:0:
203,231,94032,101,0,3:0:0:0:
38,252,94240,1,0,0:0:0:0:
182,333,94448,1,0,3:0:0:0:
368,294,94657,1,8,0:0:0:0:
368,294,94865,2,0,L|267:302,1,87.5,0|8,3:0|0:0,0:0:0:0:
203,231,95282,6,0,L|195:184,1,43.75,2|2,0:0|0:0,0:0:0:0:
179,84,95490,2,0,L|223:100,1,43.75,2|2,0:0|0:0,0:0:0:0:
318,136,95698,2,0,L|281:166,1,43.75,2|2,0:0|0:0,0:0:0:0:
104,148,95907,2,0,P|81:102|85:54,1,87.5,8|0,0:0|3:2,0:0:0:0:
340,54,96323,2,0,P|339:98|318:136,1,87.5,8|8,0:0|0:0,0:0:0:0:
318,135,96636,1,10,0:0:0:0:
318,135,96740,1,2,3:2:0:0:
246,316,96948,102,0,L|300:325,1,43.75,0|0,3:0|0:0,0:0:0:0:
411,252,97157,2,0,L|355:253,1,43.75,0|0,3:0|1:0,0:0:0:0:
233,297,97365,2,0,L|287:306,1,43.75,8|8,0:0|0:0,0:0:0:0:
398,233,97574,2,0,L|342:234,1,43.75,8|8,0:0|0:0,0:0:0:0:
473,312,97782,6,0,P|500:261|450:137,1,175,6|8,0:0|0:0,0:0:0:0:
374,137,98407,1,0,0:0:0:0:
199,167,98615,2,0,L|286:177,1,87.5,0|0,3:0|0:0,0:0:0:0:
144,246,99032,2,0,L|58:256,1,87.5,0|0,3:0|0:0,0:0:0:0:
198,326,99448,2,0,B|249:318|249:318|323:329|323:329|375:321,1,175,8|2,0:0|3:2,0:0:0:0:
457,278,100073,1,0,3:0:0:0:
457,278,100282,102,0,L|477:191,1,87.5,2|0,3:2|0:0,0:0:0:0:
358,140,100698,2,0,L|377:225,1,87.5,10|0,0:0|0:0,0:0:0:0:
260,285,101115,2,0,L|279:199,1,87.5,0|0,3:0|0:0,0:0:0:0:
271,104,101532,5,0,3:0:0:0:
182,65,101740,1,0,0:0:0:0:
98,112,101948,2,0,B|119:157|98:198|98:198|78:233|90:284,1,175,8|0,0:0|3:0,0:0:0:0:
177,241,102573,1,0,0:0:0:0:
177,241,102782,102,0,P|223:231|276:244,1,87.5,2|0,3:2|0:0,0:0:0:0:
342,291,103198,2,0,P|384:297|427:287,1,87.5,8|0,0:0|0:0,0:0:0:0:
481,208,103615,2,0,B|475:163|475:163|494:85|494:85|485:32,1,175,2|2,3:2|3:2,0:0:0:0:
398,77,104240,1,0,3:0:0:0:
398,77,104448,2,0,P|355:67|312:73,1,87.5,8|0,0:0|0:0,0:0:0:0:
233,127,104864,2,0,P|206:158|159:171,1,87.5,0|0,3:0|0:0,0:0:0:0:
66,45,105282,6,0,P|106:52|141:87,1,87.5,0|0,3:0|0:0,0:0:0:0:
78,230,105698,2,0,P|64:191|76:143,1,87.5,8|0,0:0|0:0,0:0:0:0:
78,230,106115,2,0,P|91:268|79:316,1,87.5,4|0,3:2|0:0,0:0:0:0:
159,368,106532,1,6,0:0:0:0:
246,327,106740,101,8,0:0:0:0:
261,300,106844,1,8,0:0:0:0:
266,269,106948,1,8,0:0:0:0:
258,239,107052,1,8,0:0:0:0:
241,213,107157,1,8,0:0:0:0:
271,218,107261,1,8,0:0:0:0:
300,225,107365,1,8,0:0:0:0:
330,230,107469,1,8,0:0:0:0:
360,228,107573,1,8,0:0:0:0:
388,216,107677,1,8,0:0:0:0:
406,192,107782,6,0,P|398:128|312:80,1,166.249995560646,4|2,0:0|0:1,0:0:0:0:
260,142,108407,1,2,0:0:0:0:
161,129,108615,102,0,L|64:141,1,83.1249977803231,8|0,0:0|3:0,0:0:0:0:
0,213,109032,2,0,P|58:188|158:232,1,166.249995560646,8|2,0:0|0:1,0:0:0:0:
257,242,109657,1,4,0:3:0:0:
357,203,109865,2,0,L|451:219,1,83.1249977803231,8|0,0:0|0:0,0:0:0:0:
306,344,110282,6,0,P|360:283|357:203,1,166.249995560646,4|2,0:0|0:1,0:0:0:0:
269,139,110907,1,0,0:1:0:0:
161,129,111115,2,0,L|68:141,1,83.1249977803231,8|0,0:0|0:0,0:0:0:0:
206,227,111532,1,8,0:0:0:0:
269,139,111740,1,8,0:3:0:0:
224,40,111948,101,4,0:3:0:0:
350,117,112157,1,8,0:0:0:0:
376,138,112261,1,8,0:0:0:0:
392,167,112365,1,8,0:0:0:0:
397,199,112469,1,8,0:0:0:0:
387,230,112573,1,8,0:0:0:0:
364,254,112677,1,8,0:0:0:0:
332,264,112782,6,0,L|235:277,1,87.5,6|0,0:0|0:0,0:0:0:0:
122,209,113198,1,8,0:0:0:0:
31,241,113407,1,2,3:1:0:0:
105,304,113615,101,0,3:0:0:0:
49,147,113823,1,2,3:1:0:0:
49,147,114032,2,0,P|126:117|214:176,1,175,0|8,0:0|0:0,0:0:0:0:
272,225,114657,1,0,0:0:0:0:
366,198,114865,1,8,3:1:0:0:
296,131,115073,1,0,0:0:0:0:
272,225,115282,6,0,P|290:271|327:302,1,87.5,8|0,0:1|0:0,0:0:0:0:
202,157,115698,2,0,P|153:149|107:166,1,87.5,0|12,3:0|0:0,0:0:0:0:
296,131,116115,2,0,P|326:92|335:44,1,87.5,0|0,3:0|0:0,0:0:0:0:
202,157,116532,1,8,0:1:0:0:
191,183,117365,101,8,0:0:0:0:
191,218,117469,1,8,0:0:0:0:
191,253,117573,1,8,0:0:0:0:
191,288,117677,1,8,0:0:0:0:
191,323,117782,2,0,L|287:338,1,87.5,6|0,0:0|3:0,0:0:0:0:
367,303,118198,2,0,P|417:251|425:215,1,87.5,0|8,3:0|0:0,0:0:0:0:
303,133,118615,6,0,P|323:202|350:227,1,87.5,0|8,3:0|0:0,0:0:0:0:
482,162,119032,2,0,P|411:144|376:155,1,87.5,0|0,3:0|0:0,0:0:0:0:
307,137,119448,1,0,3:0:0:0:
307,137,119657,1,8,0:0:0:0:
217,27,119865,1,0,3:0:0:0:
313,37,120073,1,8,0:0:0:0:
207,123,120282,102,0,P|165:113|131:78,1,87.5,0|0,3:0|0:0,0:0:0:0:
58,142,120698,2,0,L|66:237,1,87.5,0|8,3:0|0:0,0:0:0:0:
142,288,121115,2,0,L|150:193,1,87.5,0|8,3:0|0:0,0:0:0:0:
211,127,121532,5,2,3:1:0:0:
211,127,121670,2,0,P|263:136|290:130,1,72.9166666666667,8|0,0:0|3:0,0:0:0:0:
435,204,121948,2,0,P|383:195|316:214,1,116.666666666667,8|8,0:2|0:0,0:0:0:0:
234,243,122365,1,2,3:1:0:0:
150,200,122573,101,8,0:0:0:0:
150,200,122677,1,8,0:0:0:0:
150,200,122782,2,0,B|188:226|187:279|187:279|185:331|225:359,1,175,4|2,3:2|3:1,0:0:0:0:
355,295,123407,1,8,0:0:0:0:
355,295,123615,2,0,P|308:280|253:290,1,87.5,0|8,3:0|0:0,0:0:0:0:
440,251,124032,6,0,P|450:299|486:341,1,87.5,0|0,3:0|0:0,0:0:0:0:
360,199,124448,2,0,P|396:165|415:113,1,87.5,0|8,3:0|0:0,0:0:0:0:
349,58,124865,1,0,3:0:0:0:
349,58,125073,1,8,0:0:0:0:
349,58,125282,102,0,B|296:52|296:52|234:64|234:64|167:55,1,175,4|0,3:2|3:0,0:0:0:0:
84,87,125907,1,8,0:0:0:0:
84,87,126115,2,0,P|55:127|51:170,1,87.5,0|8,3:0|0:0,0:0:0:0:
170,239,126532,2,0,L|156:145,1,87.5,0|0,3:0|0:0,0:0:0:0:
275,227,126948,2,0,L|262:313,1,87.5,0|8,3:0|0:0,0:0:0:0:
365,229,127365,2,0,P|410:193|421:137,1,87.5,4|0,0:0|0:0,0:0:0:0:
393,65,127782,5,4,0:0:0:0:
321,144,127990,1,0,0:0:0:0:
321,144,128198,2,0,L|238:119,1,87.5,0|8,3:0|0:0,0:0:0:0:
192,202,128615,2,0,L|275:227,1,87.5,0|8,3:0|0:0,0:0:0:0:
144,121,129032,102,0,B|139:171|139:171|152:244|152:244|146:294,1,175,0|0,3:0|3:0,0:0:0:0:
238,323,129657,1,8,0:0:0:0:
238,323,129865,1,0,3:0:0:0:
369,253,130073,1,8,0:0:0:0:
369,253,130282,6,0,P|280:256|238:338,1,175,0|0,3:0|3:0,0:0:0:0:
326,330,130907,1,8,0:0:0:0:
464,255,131115,1,0,3:0:0:0:
330,173,131323,1,8,0:0:0:0:
369,253,131532,101,4,3:2:0:0:
418,171,131740,1,8,3:1:0:0:
418,171,131948,2,0,P|392:113|278:104,1,175,8|0,0:0|3:0,0:0:0:0:
172,180,132643,1,8,0:0:0:0:
172,180,132782,6,0,L|176:290,1,78.7499975967408,0|0,3:0|0:0,0:0:0:0:
80,255,133198,1,8,0:0:0:0:
162,85,133615,101,4,3:2:0:0:
172,180,133823,1,8,0:0:0:0:
172,180,133927,1,8,0:0:0:0:
172,180,134032,1,0,3:0:0:0:
85,138,134657,1,0,3:0:0:0:
172,180,134865,5,8,0:0:0:0:
192,191,134969,1,8,0:0:0:0:
214,196,135073,1,8,0:0:0:0:
237,196,135177,1,8,0:0:0:0:
255,189,135282,101,6,0:0:0:0:
373,149,135490,1,0,0:0:0:0:
280,67,135698,5,0,3:0:0:0:
348,271,135907,1,8,0:0:0:0:
490,108,136115,69,0,3:0:0:0:
397,27,136323,1,8,0:0:0:0:
255,189,136532,5,0,3:0:0:0:
348,271,136740,1,0,0:0:0:0:
373,149,136948,2,0,P|314:86|274:71,1,96.250002937317,0|8,3:0|0:0,0:0:0:0:
348,271,137365,2,0,P|432:251|465:224,1,96.250002937317,0|8,3:0|0:0,0:0:0:0:
255,189,137782,54,0,P|229:271|236:313,1,96.250002937317,0|0,3:0|0:0,0:0:0:0:
136,328,138198,1,0,3:0:0:0:
47,270,138407,1,8,0:0:0:0:
47,270,138615,2,0,L|61:171,1,96.250002937317,0|8,0:0|0:0,0:0:0:0:
175,57,139032,5,0,3:0:0:0:
146,217,139240,1,0,0:0:0:0:
73,69,139448,1,0,3:0:0:0:
221,138,139656,1,8,0:0:0:0:
221,138,139865,2,0,P|279:140|322:117,1,96.250002937317,0|8,3:0|0:0,0:0:0:0:
439,36,140282,6,0,P|408:85|406:133,1,96.250002937317,2|0,3:2|0:0,0:0:0:0:
416,275,140698,2,0,P|388:223|347:198,1,96.250002937317,0|8,3:0|0:0,0:0:0:0:
226,279,141115,2,0,L|329:287,1,96.250002937317,0|8,0:0|0:0,0:0:0:0:
180,362,141532,6,0,L|85:370,1,96.250002937317,2|0,3:2|0:0,0:0:0:0:
226,279,141948,1,0,3:0:0:0:
173,198,142157,1,8,0:0:0:0:
222,115,142365,2,0,P|277:84|324:84,1,96.250002937317,0|8,3:0|0:0,0:0:0:0:
173,198,142782,70,0,P|118:165|95:125,1,96.250002937317,4|0,0:0|0:0,0:0:0:0:
269,198,143198,2,0,P|268:261|244:301,1,96.250002937317,0|8,3:0|0:0,0:0:0:0:
157,294,143615,1,2,0:1:0:0:
84,230,143823,1,8,0:0:0:0:
11,166,144032,6,0,L|0:67,1,96.250002937317,2|0,3:2|0:0,0:0:0:0:
95,134,144448,2,0,L|84:229,1,96.250002937317,2|8,3:2|0:0,0:0:0:0:
157,294,144865,1,12,0:0:0:0:
254,290,145073,1,0,0:0:0:0:
351,286,145282,102,0,P|402:262|430:204,1,96.250002937317,6|0,0:0|0:0,0:0:0:0:
254,290,145698,2,0,P|249:346|285:399,1,96.250002937317,0|8,3:0|0:0,0:0:0:0:
299,203,146115,2,0,P|252:170|188:175,1,96.250002937317,0|8,3:0|0:0,0:0:0:0:
122,196,146532,1,0,3:0:0:0:
30,223,146740,1,0,0:0:0:0:
119,381,146948,2,0,P|119:333|100:290,1,96.250002937317,0|8,3:0|0:0,0:0:0:0:
122,196,147365,2,0,P|121:148|141:105,1,96.250002937317,0|8,0:0|0:0,0:0:0:0:
282,21,147782,5,0,3:0:0:0:
214,168,147990,1,0,0:0:0:0:
175,9,148198,1,0,3:0:0:0:
301,114,148407,1,8,0:0:0:0:
301,114,148615,2,0,L|310:217,1,96.250002937317,0|8,0:0|0:0,0:0:0:0:
467,303,149032,102,0,P|420:312|378:291,1,96.250002937317,2|0,3:0|0:0,0:0:0:0:
218,381,149448,2,0,P|233:336|272:309,1,96.250002937317,2|8,3:2|0:0,0:0:0:0:
275,127,149865,2,0,P|306:162|309:209,1,96.250002937317,2|8,3:0|0:0,0:0:0:0:
203,227,150282,6,0,B|155:214|114:250|114:250|72:288|24:271,1,192.500005874634,2|2,3:2|3:2,0:0:0:0:
51,179,150907,1,8,0:0:0:0:
51,179,151115,2,0,P|97:145|144:131,1,96.250002937317,0|8,0:0|0:0,0:0:0:0:
230,126,151532,2,0,B|282:117|282:117|361:131|361:131|425:120,1,192.500005874634,0|0,3:0|3:0,0:0:0:0:
439,215,152157,1,8,0:0:0:0:
348,186,152365,1,0,3:0:0:0:
254,158,152573,1,8,0:0:0:0:
370,280,152782,5,0,3:0:0:0:
278,251,152990,1,0,0:0:0:0:
325,90,153198,1,0,3:0:0:0:
439,215,153407,1,8,0:0:0:0:
392,373,153615,2,0,P|330:360|279:247,1,192.500005874634,0|8,3:0|3:2,0:0:0:0:
279,219,154136,5,8,0:0:0:0:
275,187,154240,1,8,0:0:0:0:
254,158,154344,1,8,0:0:0:0:
224,144,154448,1,8,3:2:0:0:
191,146,154552,1,8,0:0:0:0:
162,161,154657,1,8,0:0:0:0:
140,185,154761,1,8,0:0:0:0:
123,212,154865,1,8,3:2:0:0:
98,232,154969,1,8,0:0:0:0:
66,235,155073,1,8,0:0:0:0:
35,226,155177,1,8,0:0:0:0:
17,200,155282,70,0,P|24:153|69:108,1,87.5,6|0,0:0|0:0,0:0:0:0:
152,126,155698,2,0,L|239:121,1,87.5,8|0,0:0|0:0,0:0:0:0:
345,121,156115,1,0,3:0:0:0:
289,210,156323,1,8,0:0:0:0:
296,29,156532,1,2,3:2:0:0:
401,33,156740,1,2,3:2:0:0:
438,213,156948,6,0,P|417:281|295:315,1,175,8|2,0:0|0:0,0:0:0:0:
202,209,157573,1,8,0:0:0:0:
202,209,157677,1,0,3:0:0:0:
202,209,157782,102,0,L|323:211,1,87.5,2|0,3:2|0:0,0:0:0:0:
109,248,158198,2,0,L|50:142,1,87.5,8|0,0:0|0:0,0:0:0:0:
190,309,158615,2,0,L|127:412,1,87.5,2|8,3:2|0:0,0:0:0:0:
202,209,159032,5,2,3:2:0:0:
109,248,159240,1,2,0:0:0:0:
190,309,159448,1,8,0:0:0:0:
283,269,159657,1,0,0:0:0:0:
215,108,159865,1,2,3:2:0:0:
202,209,160073,101,8,0:0:0:0:
296,170,160282,1,2,3:2:0:0:
215,108,160490,1,0,0:0:0:0:
121,148,160698,2,0,P|177:200|274:186,1,175,8|0,0:0|3:2,0:0:0:0:
409,116,161323,1,8,0:0:0:0:
345,260,161532,5,0,3:0:0:0:
313,105,161740,1,0,0:0:0:0:
426,214,161948,2,0,B|437:271|437:271|399:385,1,175,8|0,0:0|3:0,0:0:0:0:
312,341,162573,1,8,0:0:0:0:
312,341,162677,1,0,0:0:0:0:
312,341,162782,102,0,L|347:258,1,87.5,0|0,3:0|0:0,0:0:0:0:
197,283,163198,2,0,P|298:304|353:240,1,175,8|2,0:0|3:2,0:0:0:0:
252,133,163823,1,8,0:0:0:0:
252,133,164032,2,0,L|263:231,1,87.5,2|0,3:2|0:0,0:0:0:0:
366,174,164448,2,0,L|375:87,1,87.5,2|12,3:2|0:0,0:0:0:0:
274,4,164865,1,12,0:0:0:0:
274,4,165282,6,0,B|226:4|194:36|194:36|163:66|105:66,1,175,6|0,0:0|3:0,0:0:0:0:
41,205,165907,1,8,0:0:0:0:
41,205,166115,2,0,L|32:106,1,87.5,0|8,3:0|0:0,0:0:0:0:
133,171,166532,2,0,L|124:258,1,87.5,2|0,3:2|0:0,0:0:0:0:
233,314,166948,102,0,L|218:218,1,87.5,0|8,3:0|0:0,0:0:0:0:
223,122,167365,2,0,L|303:171,1,87.5,0|8,3:0|0:0,0:0:0:0:
386,223,167782,2,0,L|303:267,1,87.5,4|0,3:2|0:0,0:0:0:0:
220,228,168198,1,0,3:0:0:0:
298,168,168407,1,8,0:0:0:0:
309,265,168615,1,0,3:0:0:0:
141,286,168823,1,8,0:0:0:0:
130,188,169032,5,0,3:0:0:0:
387,207,169240,1,0,0:0:0:0:
209,130,169448,1,0,3:0:0:0:
232,323,169657,1,8,0:0:0:0:
376,111,169865,1,0,3:0:0:0:
367,15,170073,1,8,0:0:0:0:
209,130,170282,102,0,P|306:163|365:131,1,175,6|8,0:0|0:0,0:0:0:0:
199,33,170907,1,0,0:0:0:0:
220,228,171115,1,0,3:0:0:0:
288,73,171323,1,8,0:0:0:0:
119,90,171532,53,0,3:0:0:0:
220,228,171740,1,0,0:0:0:0:
199,33,171948,1,8,0:0:0:0:
119,90,172157,1,0,0:0:0:0:
39,147,172365,1,0,3:0:0:0:
220,228,172573,1,8,0:0:0:0:
209,130,172782,54,0,P|165:149|129:267,1,175,6|8,0:0|0:0,0:0:0:0:
387,207,173407,1,0,3:0:0:0:
220,228,173615,37,8,0:0:0:0:
376,111,173823,1,2,3:2:0:0:
209,130,174032,1,12,0:0:0:0:
392,304,174240,1,0,3:2:0:0:
365,17,174448,1,2,3:2:0:0:
298,168,174657,1,12,0:0:0:0:
464,151,174865,1,2,3:2:0:0:
288,73,175073,1,2,3:2:0:0:
316,361,175282,70,0,B|265:374|227:349|227:349|186:324|135:338,1,183.749994392395,6|8,0:0|3:0,0:0:0:0:
65,280,175907,1,8,3:0:0:0:
65,280,176115,2,0,P|43:243|46:189,1,91.8749971961976,8|8,3:2|3:0,0:0:0:0:
225,177,176532,6,0,B|91:203|91:203|20:191,1,183.749994392395,0|4,0:0|3:0,0:0:0:0:
89,114,177157,1,8,3:0:0:0:
89,114,177365,2,0,L|187:95,1,91.8749971961976,8|0,0:0|0:0,0:0:0:0:
271,100,177782,102,0,P|312:166|262:263,1,183.749994392395,0|4,3:0|3:0,0:0:0:0:
225,177,178407,1,8,3:0:0:0:
225,177,178615,2,0,L|120:199,1,91.8749971961976,8|0,0:0|3:0,0:0:0:0:
363,254,179032,5,4,3:0:0:0:
308,69,179240,1,2,3:1:0:0:
477,121,179448,2,0,P|431:91|390:89,1,91.8749971961976,0|2,3:0|3:1,0:0:0:0:
221,83,179865,2,0,P|266:87|308:70,1,91.8749971961976,8|0,0:0|3:0,0:0:0:0:
179,0,180282,70,0,L|179:200,1,183.749994392395,2|0,0:0|3:0,0:0:0:0:
228,272,180907,1,2,3:1:0:0:
228,272,181115,2,0,P|294:269|335:238,1,91.8749971961976,8|2,0:0|0:1,0:0:0:0:
412,80,181532,5,2,3:2:0:0:
417,254,181740,1,0,0:0:0:0:
262,170,181948,1,2,3:2:0:0:
465,166,182157,101,8,0:0:0:0:
311,82,182365,1,8,0:0:0:0:
315,257,182573,1,4,3:0:0:0:
412,80,182782,6,0,L|505:75,1,91.8749971961976,0|0,3:0|0:0,0:0:0:0:
262,170,183198,2,0,L|211:91,1,91.8749971961976,0|8,3:0|0:0,0:0:0:0:
417,254,183615,2,0,L|374:337,1,91.8749971961976,8|0,0:0|0:0,0:0:0:0:
173,339,184032,86,0,L|215:257,1,91.8749971961976,2|8,3:1|3:0,0:0:0:0:
364,168,184448,1,2,0:0:0:0:
311,82,184657,1,4,3:0:0:0:
262,170,184865,1,8,0:0:0:0:
262,170,185282,5,6,0:0:0:0:
417,254,185490,1,2,3:2:0:0:
413,80,185698,1,2,3:2:0:0:
315,256,185907,1,8,3:0:0:0:
465,166,186115,1,8,0:0:0:0:
465,166,186532,5,2,3:2:0:0:
311,82,186740,1,4,3:0:0:0:
364,168,186948,1,2,3:2:0:0:
413,80,187157,1,8,3:0:0:0:
262,170,187365,1,8,0:0:0:0:
262,170,187782,5,2,3:2:0:0:
417,254,187990,1,4,3:0:0:0:
311,82,188198,1,2,3:2:0:0:
164,172,188407,1,8,3:0:0:0:
315,256,188615,1,8,0:0:0:0:
315,256,189032,5,2,3:2:0:0:
364,168,189240,1,4,3:0:0:0:
211,84,189448,1,2,3:2:0:0:
215,258,189657,1,8,3:0:0:0:
413,80,189865,1,8,0:0:0:0:
111,87,190073,1,0,3:0:0:0:
262,170,190282,5,2,3:2:0:0:
311,82,190490,1,0,3:0:0:0:
164,172,190698,5,4,3:0:0:0:
215,258,190907,1,8,3:0:0:0:
211,84,191115,5,8,0:0:0:0:
111,87,191323,1,2,0:1:0:0:
262,170,191532,6,0,P|321:178|408:89,1,183.749994392395,2|2,0:0|3:2,0:0:0:0:
211,84,192157,1,0,0:0:0:0:
315,256,192365,1,12,0:0:0:0:
311,82,192573,1,0,0:0:0:0:
66,174,192782,5,6,0:0:0:0:
116,260,192990,1,0,0:0:0:0:
164,172,193198,1,10,3:2:0:0:
133,160,193302,1,8,0:0:0:0:
99,161,193407,5,8,0:0:0:0:
66,174,193511,1,8,0:0:0:0:
41,194,193615,1,10,3:2:0:0:
24,221,193719,1,8,0:0:0:0:
19,252,193823,1,8,0:0:0:0:
23,284,193927,1,8,0:0:0:0:
33,314,194032,5,10,3:2:0:0:
54,337,194136,1,8,0:0:0:0:
81,354,194240,1,8,0:0:0:0:
111,362,194344,1,8,0:0:0:0:
142,357,194448,6,0,P|165:355|187:355,1,45.9374985980988,8|8,0:0|0:0,0:0:0:0:
286,253,194657,2,0,P|263:255|240:254,1,45.9374985980988,8|8,0:0|0:0,0:0:0:0:
266,377,194865,2,0,P|264:354|264:331,1,45.9374985980988,8|8,0:0|0:0,0:0:0:0:
162,233,195073,2,0,P|164:256|163:278,1,45.9374985980988,8|8,0:0|0:0,0:0:0:0:
346,313,195282,53,4,0:0:0:0:
301,118,205282,38,0,P|339:186|385:222,1,131.25000500679,2|0,0:0|0:0,0:0:0:0:
435,284,205907,2,0,P|357:282|302:304,1,131.25000500679,2|0,0:0|0:0,0:0:0:0:
224,317,206532,2,0,P|263:250|272:192,1,131.25000500679,2|2,0:0|0:0,0:0:0:0:
224,127,207157,2,0,B|182:109|182:109|84:118,1,131.25000500679,2|0,0:0|0:0,0:0:0:0:
60,193,207782,70,0,B|102:211|102:211|200:202,1,131.25000500679,2|0,0:0|0:0,0:0:0:0:
272,198,208407,2,0,P|333:226|357:295,1,131.25000500679,2|0,0:0|0:0,0:0:0:0:
271,282,209032,2,0,B|234:274|208:290|208:290|181:305|141:296,1,131.25000500679,2|0,0:0|0:0,0:0:0:0:
67,257,209657,1,0,0:0:0:0:
67,257,209865,2,0,P|58:220|60:189,1,65.6250025033952
122,134,210282,38,0,B|166:124|166:124|225:133|225:133|278:121,1,148.750002837181,2|0,0:1|0:0,0:0:0:0:
363,136,210907,2,0,P|417:166|435:247,1,148.750002837181,2|0,0:1|0:0,0:0:0:0:
348,227,211532,2,0,L|189:246,1,148.750002837181,2|0,0:3|0:0,0:0:0:0:
112,203,212157,1,0,0:0:0:0:
112,203,212365,2,0,P|74:198|32:206,1,74.3750014185906
120,300,212782,86,0,P|178:340|259:319,1,148.750002837181
236,101,213407,1,0,0:0:0:0:
236,101,213615,2,0,L|196:264,1,148.750002837181
297,241,214240,1,0,0:0:0:0:
322,147,214448,21,8,0:0:0:0:
350,123,214552,1,8,0:0:0:0:
386,113,214657,1,8,0:0:0:0:
422,117,214761,1,8,0:0:0:0:
457,136,214865,1,8,0:0:0:0:
480,169,214969,1,8,0:0:0:0:
488,212,215073,1,8,0:0:0:0:
474,254,215177,1,8,0:0:0:0:
445,286,215282,102,0,B|356:286|356:286|290:260,1,144.375004405975,4|8,0:0|0:0,0:0:0:0:
215,226,215698,2,0,P|167:228|128:254,1,96.250002937317,0|8,3:0|0:0,0:0:0:0:
305,266,216115,2,0,P|328:224|327:177,1,96.250002937317,0|8,3:0|0:0,0:0:0:0:
215,226,216532,22,0,P|212:297|258:351,1,144.375004405975,2|8,3:1|0:0,0:0:0:0:
397,240,216948,2,0,L|297:268,1,96.250002937317,0|8,3:0|0:0,0:0:0:0:
171,312,217365,1,0,3:0:0:0:
257,350,217573,1,8,0:0:0:0:
216,226,217782,86,0,B|221:133|221:133|195:77,1,144.375004405975,4|8,0:0|0:0,0:0:0:0:
126,151,218198,2,0,P|78:146|36:125,1,96.250002937317,0|8,3:0|0:0,0:0:0:0:
199,87,218615,2,0,P|247:92|290:114,1,96.250002937317,0|8,3:0|0:0,0:0:0:0:
126,151,219032,54,0,B|124:251|124:251|143:309,1,144.375004405975,4|8,0:0|0:0,0:0:0:0:
298,272,219448,2,0,P|235:246|211:220,1,96.250002937317,0|8,3:0|0:0,0:0:0:0:
381,224,219865,1,0,3:0:0:0:
299,369,220073,1,8,0:0:0:0:
298,272,220282,6,0,B|296:230|296:230|308:180|308:180|300:96,1,144.375004405975,4|8,0:0|0:0,0:0:0:0:
250,47,220698,2,0,P|203:39|158:53,1,96.250002937317,0|8,3:0|0:0,0:0:0:0:
25,126,221115,1,0,3:0:0:0:
210,135,221323,1,8,0:0:0:0:
157,53,221532,6,0,P|114:108|118:179,1,144.375004405975,8|8,0:0|0:0,0:0:0:0:
306,135,221948,2,0,L|210:135,1,96.250002937317,0|8,3:0|0:0,0:0:0:0:
204,231,222365,1,0,3:0:0:0:
306,231,222573,1,8,0:0:0:0:
437,118,222782,6,0,P|368:102|297:149,1,144.375004405975,4|8,0:0|0:0,0:0:0:0:
384,289,223198,2,0,L|384:188,1,96.250002937317,0|8,3:0|0:0,0:0:0:0:
210,135,223615,1,0,3:0:0:0:
306,231,223823,1,8,0:0:0:0:
257,53,224032,5,8,0:0:0:0:
116,136,224240,1,0,3:0:0:0:
116,136,224344,1,0,3:0:0:0:
116,136,224448,1,8,0:0:0:0:
306,231,224657,1,8,0:0:0:0:
206,381,224865,1,8,0:0:0:0:
206,351,224969,1,8,0:0:0:0:
207,323,225073,1,8,0:0:0:0:
209,294,225177,1,8,0:0:0:0:
209,259,225282,70,0,P|217:189|268:140,1,144.375004405975,4|8,0:0|0:0,0:0:0:0:
306,231,225698,2,0,L|416:249,1,96.250002937317,0|8,3:0|0:0,0:0:0:0:
458,167,226115,2,0,L|348:149,1,96.250002937317,0|8,3:0|0:0,0:0:0:0:
168,132,226532,6,0,B|120:132|120:132|75:147|75:147|26:147,1,144.375004405975,4|8,0:0|0:0,0:0:0:0:
136,223,226948,2,0,P|147:269|180:303,1,96.250002937317,0|8,3:0|0:0,0:0:0:0:
229,209,227365,2,0,P|257:171|263:123,1,96.250002937317,2|8,3:1|0:0,0:0:0:0:
371,207,227782,6,0,B|279:196|279:196|229:209,1,144.375004405975,4|8,0:0|0:0,0:0:0:0:
285,286,228198,2,0,L|382:296,1,96.250002937317,0|8,3:0|0:0,0:0:0:0:
456,234,228615,2,0,P|461:187|440:145,1,96.250002937317,2|8,3:1|0:0,0:0:0:0:
206,113,229032,6,0,B|299:125|299:125|349:112,1,144.375004405975,4|8,0:0|0:0,0:0:0:0:
292,33,229448,2,0,L|193:22,1,96.250002937317,0|8,3:0|0:0,0:0:0:0:
122,78,229865,2,0,P|116:127|141:179,1,96.250002937317,0|8,0:0|0:0,0:0:0:0:
306,200,230282,54,0,P|273:138|207:113,1,144.375004405975,4|8,0:0|0:0,0:0:0:0:
214,209,230698,2,0,L|211:305,1,96.250002937317,0|8,3:0|0:0,0:0:0:0:
304,296,231115,2,0,L|306:199,1,96.250002937317,2|8,3:1|0:0,0:0:0:0:
434,276,231532,6,0,P|364:261|303:296,1,144.375004405975,4|8,0:0|0:0,0:0:0:0:
211,305,231948,2,0,B|163:313|163:313|99:304,1,96.250002937317,0|8,3:0|0:0,0:0:0:0:
63,225,232365,2,0,B|111:217|111:217|175:226,1,96.250002937317,2|8,3:1|0:0,0:0:0:0:
54,80,232782,6,0,L|63:225,1,144.375004405975,4|8,0:0|0:0,0:0:0:0:
158,223,233198,2,0,L|150:120,1,96.250002937317,0|8,3:0|0:0,0:0:0:0:
238,89,233615,1,2,3:1:0:0:
301,160,233823,1,8,0:0:0:0:
252,241,234032,5,8,0:0:0:0:
158,223,234240,1,0,3:0:0:0:
125,231,234344,1,8,3:0:0:0:
93,227,234448,1,0,3:0:0:0:
64,211,234552,1,0,0:0:0:0:
44,185,234656,1,8,0:0:0:0:
36,153,234760,1,8,0:0:0:0:
38,121,234864,5,8,0:0:0:0:
55,93,234969,1,8,0:0:0:0:
82,76,235073,1,8,0:0:0:0:
113,68,235177,1,8,0:0:0:0:
147,72,235282,54,0,B|258:91,1,96.250002937317,4|2,0:0|0:1,0:0:0:0:
336,108,235594,1,8,0:0:0:0:
336,108,235698,2,0,L|264:194,1,96.250002937317,0|8,3:0|0:0,0:0:0:0:
210,253,236115,2,0,L|170:147,1,96.250002937317,0|8,3:0|0:0,0:0:0:0:
366,198,236532,6,0,P|315:200|259:169,1,96.250002937317,8|2,0:0|0:1,0:0:0:0:
112,239,236844,1,8,0:0:0:0:
112,239,236948,2,0,L|145:329,1,96.250002937317,0|8,3:0|0:0,0:0:0:0:
275,182,237365,1,0,3:0:0:0:
177,163,237573,1,8,0:0:0:0:
310,272,237782,6,0,P|351:237|367:184,1,96.250002937317,8|2,0:0|0:1,0:0:0:0:
239,97,238094,1,8,0:0:0:0:
239,97,238198,2,0,P|248:150|286:190,1,96.250002937317,0|8,3:0|0:0,0:0:0:0:
426,123,238615,2,0,P|375:104|321:117,1,96.250002937317,0|8,3:0|0:0,0:0:0:0:
177,163,239032,6,0,B|159:213|159:213|181:312,1,144.375004405975,8|8,0:0|0:0,0:0:0:0:
310,288,239448,2,0,P|283:236|234:213,1,96.250002937317,0|8,3:0|0:0,0:0:0:0:
229,82,239865,1,0,3:0:0:0:
177,163,240073,1,8,0:0:0:0:
309,134,240282,6,0,B|356:144|356:144|476:119,1,144.375004405975,8|8,0:0|0:0,0:0:0:0:
499,267,240698,2,0,P|446:242|415:206,1,96.250002937317,0|8,3:0|0:0,0:0:0:0:
325,229,241115,1,0,3:0:0:0:
280,314,241323,1,8,0:0:0:0:
77,243,241532,22,0,P|114:303|183:319,1,144.375004405975,8|0,0:0|3:0,0:0:0:0:
169,132,241948,2,0,B|179:165|179:165|166:253,1,96.250002937317,0|8,3:0|0:0,0:0:0:0:
77,337,242365,2,0,B|67:275|67:275|77:242,1,96.250002937317,0|8,3:0|0:0,0:0:0:0:
311,224,242782,86,0,B|277:240|240:226|240:226|205:213|170:226,1,144.375004405975,8|8,0:0|0:0,0:0:0:0:
291,39,243198,2,0,L|275:134,1,96.250002937317,0|8,3:0|0:0,0:0:0:0:
407,237,243615,2,0,L|422:141,1,96.250002937317,0|8,3:0|0:0,0:0:0:0:
311,224,244032,21,8,0:0:0:0:
355,320,244240,1,0,3:0:0:0:
355,320,244344,1,8,0:0:0:0:
355,320,244448,1,8,0:0:0:0:
497,201,244657,1,8,0:0:0:0:
332,128,244865,85,8,0:0:0:0:
308,111,244969,1,8,0:0:0:0:
281,101,245073,1,8,0:0:0:0:
253,97,245177,1,8,0:0:0:0:
224,100,245282,70,0,B|172:116|172:116|66:99,1,144.375004405975,4|8,0:0|0:0,0:0:0:0:
56,267,245698,2,0,P|101:230|117:181,1,96.250002937317,0|8,3:0|0:0,0:0:0:0:
21,179,246115,1,0,3:0:0:0:
165,309,246323,1,8,0:0:0:0:
233,240,246532,6,0,B|277:238|277:238|323:213|323:213|375:212,1,144.375004405975,8|8,0:0|0:0,0:0:0:0:
424,370,246948,2,0,P|368:333|350:289,1,96.250002937317,0|8,3:0|0:0,0:0:0:0:
371,212,247365,1,0,3:0:0:0:
306,140,247573,1,8,0:0:0:0:
118,255,247782,6,0,P|183:227|212:163,1,144.375004405975,8|8,0:0|0:0,0:0:0:0:
118,161,248198,2,0,L|23:169,1,96.250002937317,8|8,3:0|0:0,0:0:0:0:
214,248,248615,2,0,L|118:255,1,96.250002937317,0|8,3:0|0:0,0:0:0:0:
278,323,249032,6,0,P|259:250|314:177,1,144.375004405975,8|8,0:0|0:0,0:0:0:0:
453,250,249448,2,0,L|358:260,1,96.250002937317,0|8,3:0|0:0,0:0:0:0:
335,107,249865,2,0,L|430:97,1,96.250002937317,0|8,3:0|0:0,0:0:0:0:
290,192,250282,54,0,P|202:184|154:135,1,144.375004405975,12|8,0:0|0:0,0:0:0:0:
94,216,250698,2,0,L|99:315,1,96.250002937317,0|8,3:0|0:0,0:0:0:0:
194,326,251115,2,0,L|198:229,1,96.250002937317,0|8,3:0|0:0,0:0:0:0:
423,188,251532,54,0,P|356:167|290:192,1,144.375004405975,0|8,3:0|0:0,0:0:0:0:
367,353,251948,2,0,L|362:256,1,96.250002937317,0|8,3:0|0:0,0:0:0:0:
290,192,252365,1,0,3:0:0:0:
199,230,252573,1,8,0:0:0:0:
121,170,252782,21,8,0:0:0:0:
211,132,252990,1,2,0:1:0:0:
211,132,253094,1,8,0:0:0:0:
211,132,253198,1,0,3:0:0:0:
277,289,253407,1,8,0:0:0:0:
109,268,253615,85,0,3:0:0:0:
302,93,253823,1,8,0:0:0:0:
290,192,254032,1,8,0:0:0:0:
223,33,254240,1,2,0:1:0:0:
223,33,254344,1,8,0:0:0:0:
223,33,254448,1,0,3:0:0:0:
211,132,254657,1,2,0:1:0:0:
204,179,254761,1,2,0:1:0:0:
201,224,254865,101,2,0:1:0:0:
218,266,254969,1,2,0:1:0:0:
257,289,255073,1,2,0:1:0:0:
302,292,255177,1,2,0:1:0:0:
346,278,255282,6,0,P|285:273|194:330,1,137.812495794296,4|8,0:0|0:0,0:0:0:0:
128,329,255698,2,0,L|112:230,1,91.8749971961976,0|8,3:0|0:0,0:0:0:0:
123,146,256115,2,0,P|180:130|229:136,1,91.8749971961976,0|8,3:0|0:0,0:0:0:0:
297,166,256532,22,0,B|352:177|352:177|456:157,1,137.812495794296,8|8,0:0|0:0,0:0:0:0:
507,311,256948,2,0,P|513:266|500:223,1,91.8749971961976,0|8,3:0|0:0,0:0:0:0:
414,258,257365,2,0,L|305:281,1,91.8749971961976,0|8,3:0|0:0,0:0:0:0:
241,235,257782,86,0,B|154:244|154:244|106:225,1,137.812495794296,8|8,0:0|0:0,0:0:0:0:
134,76,258198,2,0,P|164:110|167:156,1,91.8749971961976,0|8,3:0|0:0,0:0:0:0:
107,225,258615,53,0,3:0:0:0:
137,311,258823,1,8,0:0:0:0:
226,328,259032,5,8,0:0:0:0:
226,328,259136,1,8,0:0:0:0:
226,328,259240,1,12,0:0:0:0:
344,190,259448,1,8,0:0:0:0:
344,190,259552,1,8,0:0:0:0:
344,190,259657,1,12,0:0:0:0:
197,243,259865,1,8,0:0:0:0:
197,243,259969,1,8,0:0:0:0:
197,243,260073,1,12,0:0:0:0:
374,276,260282,38,0,P|425:234|426:149,1,137.812495794296,8|8,0:0|0:0,0:0:0:0:
329,99,260698,2,0,L|344:190,1,91.8749971961976,0|8,3:0|0:0,0:0:0:0:
252,178,261115,2,0,L|238:77,1,91.8749971961976,0|8,3:0|0:0,0:0:0:0:
147,86,261532,22,0,P|72:62|14:85,1,137.812495794296,8|8,0:0|0:0,0:0:0:0:
76,241,261948,2,0,L|79:149,1,91.8749971961976,0|8,3:0|0:0,0:0:0:0:
167,176,262365,2,0,L|163:267,1,91.8749971961976,0|8,3:0|0:0,0:0:0:0:
243,331,262782,85,8,0:0:0:0:
250,338,263094,1,8,0:0:0:0:
250,338,263198,1,8,3:0:0:0:
345,179,263407,1,8,0:0:0:0:
161,174,263615,21,0,3:0:0:0:
339,288,263823,1,8,0:0:0:0:
437,239,264032,5,8,0:0:0:0:
437,239,264136,1,8,0:0:0:0:
437,239,264240,1,8,0:0:0:0:
254,119,264448,1,8,0:0:0:0:
431,349,264657,1,8,0:0:0:0:
443,129,264865,1,0,3:0:0:0:
161,174,265073,1,8,0:0:0:0:
264,336,265282,70,0,B|272:304|304:288|336:280|336:280|376:272|392:240|392:240|344:256|304:232|304:232|368:216|400:152|376:88|304:64|256:112|256:112|208:64|136:88|112:152|144:216|208:232|208:232|168:256|120:240|120:240|136:272|176:280|176:280|208:288|240:304|248:336,1,1050,8|0,0:1|0:1,0:0:0:0:
