osu file format v14

[General]
AudioFilename: audio.mp3
AudioLeadIn: 0
PreviewTime: 195282
Countdown: 0
SampleSet: Soft
StackLeniency: 0.7
Mode: 0
LetterboxInBreaks: 0
WidescreenStoryboard: 0

[Editor]
Bookmarks: 70073,195282
DistanceSpacing: 1
BeatDivisor: 4
GridSize: 8
TimelineZoom: 3.099999

[Metadata]
Title:Sore wa Chiisana Hikari no Youna
TitleUnicode:それは小さな光のような
Artist:Sayuri
ArtistUnicode:さユり
Creator:FrostxE
Version:Normal
Source:僕だけがいない街
Tags:Boku dake ga inai Machi Erased Ending Frostmourne
BeatmapID:929251
BeatmapSetID:427725

[Difficulty]
HPDrainRate:2
CircleSize:3
OverallDifficulty:2
ApproachRate:3
SliderMultiplier:0.799999999999999
SliderTickRate:1

[Events]
//Background and Video events
0,0,"bg.png",0,0
//Break Periods
2,90482,95508
2,180482,193842
//Storyboard Layer 0 (Background)
//Storyboard Layer 1 (Fail)
//Storyboard Layer 2 (Pass)
//Storyboard Layer 3 (Foreground)
//Storyboard Sound Samples

[TimingPoints]
282,416.666666666667,3,2,1,30,1,0
47782,-100,3,2,1,80,0,1
87782,-100,3,2,1,60,0,0
135282,-100,3,2,1,80,0,1
175282,-100,3,2,1,80,0,0
195282,-100,3,2,1,30,0,0
205282,-100,3,2,1,60,0,0
215282,-100,3,2,1,80,0,1
235177,-100,3,2,1,80,0,0
235282,-100,3,2,1,80,0,1
245282,-100,3,2,1,80,0,0
255282,-100,3,2,1,80,0,1
265282,-100,3,2,1,60,0,0
266532,-100,3,2,1,50,0,0
267782,-100,3,2,1,40,0,0
269032,-100,3,2,1,25,0,0
270282,-100,3,2,1,10,0,0

[Colours]
Combo1 : 52,83,231
Combo2 : 255,0,128
Combo3 : 189,5,250

[HitObjects]
436,117,282,6,0,L|352:143,1,79.9999999999999
321,150,907,2,0,P|278:155|192:123,1,120
182,56,1948,1,0,0:0:0:0:
144,43,2157,2,0,P|101:38|15:70,1,120
15,139,3198,5,0,0:0:0:0:
22,178,3407,2,0,P|36:238|63:290,1,120
133,327,4448,1,0,0:0:0:0:
173,328,4657,2,0,L|304:328,1,120
412,337,5907,6,0,P|447:290|459:218,1,120
345,200,7157,2,0,L|219:186,1,120
106,178,8407,2,0,P|72:224|56:295,1,120
94,355,9448,5,0,0:0:0:0:
169,326,9865,1,0,0:0:0:0:
248,344,10282,2,0,L|408:344,1,160
479,306,11532,2,0,P|498:232|479:146,1,160
439,84,12782,6,0,P|365:103|279:84,1,160,0|0,0:0|0:0,0:0:0:0:
211,56,14032,2,0,P|137:37|51:56,1,160
24,128,15282,2,0,B|24:192|24:192|32:224|32:224|32:288,1,160
2,361,16532,2,0,P|87:346|112:276,1,160
160,220,17782,6,0,L|160:140,2,79.9999999999999
224,270,19032,1,0,0:0:0:0:
309,135,19865,1,0,0:0:0:0:
355,201,20282,6,0,P|419:217|512:188,1,160
498,112,21532,2,0,P|434:96|341:125,1,160
264,128,22782,2,0,L|264:42,2,79.9999999999999
240,204,24032,2,0,P|229:242|234:287,1,79.9999999999999
394,271,25282,6,0,L|479:271,1,79.9999999999999
477,352,26115,2,0,B|368:352|368:352|298:326|311:248,1,240
308,168,27782,2,0,P|131:183|111:223,1,240
279,45,30282,5,6,0:0:0:0:
276,124,30698,2,0,P|292:156|331:183,1,79.9999999999999,8|8,0:0|0:0,0:0:0:0:
394,137,31532,1,0,0:0:0:0:
425,211,31948,2,0,P|420:255|392:283,1,79.9999999999999,0|8,0:0|0:0,0:0:0:0:
318,293,32782,6,0,L|318:381,2,79.9999999999999,2|0|8,0:0|0:0|0:0,0:0:0:0:
264,236,34032,1,0,0:0:0:0:
204,289,34448,2,0,P|160:308|117:305,1,79.9999999999999,0|8,0:0|0:0,0:0:0:0:
61,265,35282,6,0,L|33:182,1,79.9999999999999,2|8,0:0|0:0,0:0:0:0:
21,111,36115,2,0,P|26:68|52:28,2,79.9999999999999,8|0|0,0:0|0:0|0:0,0:0:0:0:
102,114,37365,2,0,B|152:120|176:158,1,79.9999999999999,8|0,0:0|0:0,0:0:0:0:
227,208,38198,1,0,0:0:0:0:
287,155,38615,6,0,P|348:124|437:112,1,160,8|0,0:0|0:0,0:0:0:0:
476,183,39865,1,8,0:0:0:0:
469,263,40282,2,0,P|450:296|401:323,1,79.9999999999999,2|8,0:0|0:0,0:0:0:0:
344,288,41115,2,0,L|248:288,2,79.9999999999999,8|2|0,0:0|0:0|0:0,0:0:0:0:
382,218,42365,1,8,0:0:0:0:
329,159,42782,6,0,P|270:145|244:150,1,79.9999999999999,2|0,0:0|0:0,0:0:0:0:
179,187,43615,2,0,P|170:144|180:100,1,79.9999999999999,8|2,0:0|0:0,0:0:0:0:
194,73,44240,1,8,0:0:0:0:
227,51,44448,2,0,P|307:38|390:54,1,160,0|8,0:0|0:0,0:0:0:0:
446,101,45698,6,0,L|487:169,2,79.9999999999999,0|0|8,0:0|0:0|0:0,0:0:0:0:
382,149,46948,1,0,0:0:0:0:
306,122,47365,1,0,0:0:0:0:
266,193,47782,6,0,P|226:211|186:215,1,79.9999999999999,6|2,0:0|0:0,0:0:0:0:
153,202,48407,1,0,0:0:0:0:
114,197,48615,2,0,P|85:248|85:281,1,79.9999999999999,8|2,0:0|0:0,0:0:0:0:
133,332,49448,1,2,0:0:0:0:
210,308,49865,1,8,0:0:0:0:
284,340,50282,6,0,P|327:353|379:349,1,79.9999999999999,2|2,0:0|0:0,0:0:0:0:
400,341,50907,1,0,0:0:0:0:
430,314,51115,2,0,L|438:231,1,79.9999999999999,8|2,0:0|0:0,0:0:0:0:
483,169,51948,2,0,P|481:126|468:87,1,79.9999999999999,2|8,0:0|0:0,0:0:0:0:
420,28,52782,5,2,0:0:0:0:
380,32,52990,1,0,0:0:0:0:
343,45,53198,2,0,P|303:57|255:53,1,79.9999999999999,2|8,0:0|0:0,0:0:0:0:
226,46,53823,1,0,0:0:0:0:
185,44,54032,2,0,P|135:65|104:69,1,79.9999999999999,2|2,0:0|0:0,0:0:0:0:
78,143,54865,2,0,P|128:164|159:168,1,79.9999999999999,8|2,0:0|0:0,0:0:0:0:
234,173,55698,5,2,0:0:0:0:
313,160,56115,1,8,0:0:0:0:
376,209,56532,2,0,L|468:209,1,79.9999999999999,2|2,0:0|0:0,0:0:0:0:
478,285,57365,1,8,0:0:0:0:
455,318,57573,1,0,0:0:0:0:
421,340,57782,2,6,P|382:336|344:318,1,79.9999999999999,6|2,0:0|0:0,0:0:0:0:
280,272,58615,5,8,0:0:0:0:
242,258,58823,1,0,0:0:0:0:
201,259,59032,2,0,P|155:262|113:279,1,79.9999999999999,2|2,0:0|0:0,0:0:0:0:
53,312,59865,1,8,0:0:0:0:
20,289,60073,1,0,0:0:0:0:
9,250,60282,2,0,P|9:206|31:165,1,79.9999999999999,2|2,0:0|0:0,0:0:0:0:
94,135,61115,1,8,0:0:0:0:
170,159,61532,6,0,P|206:166|255:153,1,79.9999999999999,2|2,0:0|0:0,0:0:0:0:
313,110,62365,1,8,0:0:0:0:
378,63,62782,2,0,P|419:50|460:59,1,79.9999999999999,2|2,0:0|0:0,0:0:0:0:
481,87,63407,1,0,0:0:0:0:
477,127,63615,2,0,L|431:200,1,79.9999999999999,8|2,0:0|0:0,0:0:0:0:
356,180,64448,6,0,L|266:181,1,79.9999999999999,2|8,0:0|0:0,0:0:0:0:
209,224,65282,2,0,P|194:273|199:304,1,79.9999999999999,2|2,0:0|0:0,0:0:0:0:
220,333,65907,1,0,0:0:0:0:
256,350,66115,1,8,0:0:0:0:
323,307,66532,1,2,0:0:0:0:
395,343,66948,2,0,L|488:349,1,79.9999999999999,8|8,0:0|0:0,0:0:0:0:
500,272,67782,6,0,P|512:230|504:186,1,79.9999999999999,6|2,0:0|0:0,0:0:0:0:
503,154,68407,1,0,0:0:0:0:
484,118,68615,2,0,L|402:97,1,79.9999999999999,8|2,0:0|0:0,0:0:0:0:
339,147,69448,1,2,0:0:0:0:
277,96,69865,1,8,0:0:0:0:
237,98,70073,1,0,0:0:0:0:
200,115,70282,2,0,L|113:114,1,79.9999999999999,2|2,0:0|0:0,0:0:0:0:
46,145,71115,6,0,L|78:225,1,79.9999999999999,8|2,0:0|0:0,0:0:0:0:
113,233,71740,1,0,0:0:0:0:
152,225,71948,1,2,0:0:0:0:
199,160,72365,1,8,0:0:0:0:
255,217,72782,5,2,0:0:0:0:
294,225,72990,1,0,0:0:0:0:
332,214,73198,2,0,P|375:202|416:212,1,79.9999999999999,2|8,0:0|0:0,0:0:0:0:
435,238,73823,1,0,0:0:0:0:
435,278,74032,2,0,L|427:364,1,79.9999999999999,2|2,0:0|0:0,0:0:0:0:
348,367,74865,1,8,0:0:0:0:
310,296,75282,5,2,0:0:0:0:
272,282,75490,1,0,0:0:0:0:
234,296,75698,2,0,P|169:301|150:289,1,79.9999999999999,2|8,0:0|0:0,0:0:0:0:
97,242,76532,1,2,0:0:0:0:
78,164,76948,2,0,P|66:128|65:82,1,79.9999999999999,2|8,0:0|0:0,0:0:0:0:
124,32,77782,5,6,0:0:0:0:
192,75,78198,1,2,0:0:0:0:
229,59,78407,1,0,0:0:0:0:
264,39,78615,2,0,L|343:44,1,79.9999999999999,8|2,0:0|0:0,0:0:0:0:
424,45,79448,1,2,0:0:0:0:
484,99,79865,1,8,0:0:0:0:
444,168,80282,6,0,L|363:192,1,79.9999999999999,2|2,0:0|0:0,0:0:0:0:
291,215,81115,2,0,P|255:219|206:211,1,79.9999999999999,8|2,0:0|0:0,0:0:0:0:
147,167,81948,1,2,0:0:0:0:
218,130,82365,1,8,0:0:0:0:
294,104,82782,6,0,P|400:223|312:327,1,320,2|2,0:0|0:0,0:0:0:0:
237,343,84865,1,8,0:0:0:0:
157,354,85282,2,0,P|76:333|17:266,1,160,2|8,0:0|0:0,0:0:0:0:
21,240,86323,1,0,0:0:0:0:
32,201,86532,2,0,L|77:47,1,160,2|8,0:0|0:0,0:0:0:0:
256,192,87782,12,2,90282,0:0:0:0:
36,200,96948,6,0,P|20:237|28:288,1,79.9999999999999,2|8,0:0|0:0,0:0:0:0:
90,320,97782,2,0,P|178:345|258:338,1,160,6|2,0:0|0:0,0:0:0:0:
324,328,99032,2,0,L|419:328,1,79.9999999999999,2|8,0:0|0:0,0:0:0:0:
474,290,99865,1,2,0:0:0:0:
438,219,100282,1,2,0:0:0:0:
360,237,100698,2,0,P|315:246|270:234,1,79.9999999999999,8|2,0:0|0:0,0:0:0:0:
242,170,101532,6,0,L|255:88,1,79.9999999999999,2|8,0:0|0:0,0:0:0:0:
326,56,102365,1,2,0:0:0:0:
389,106,102782,2,0,P|426:118|480:113,1,79.9999999999999,2|8,0:0|0:0,0:0:0:0:
496,192,103615,2,0,P|484:229|489:283,1,79.9999999999999,2|2,0:0|0:0,0:0:0:0:
503,348,104448,1,8,0:0:0:0:
423,359,104865,6,0,L|338:362,1,79.9999999999999,2|2,0:0|0:0,0:0:0:0:
271,327,105698,2,0,L|186:330,1,79.9999999999999,8|2,0:0|0:0,0:0:0:0:
113,350,106532,2,0,P|66:325|51:222,1,160,2|2,0:0|0:0,0:0:0:0:
25,151,107782,6,0,L|192:132,1,160,6|8,0:0|0:0,0:0:0:0:
262,150,109032,2,0,P|275:238|246:313,1,160,2|8,0:0|0:0,0:0:0:0:
182,343,110282,1,6,0:0:0:0:
113,303,110698,1,0,0:0:0:0:
87,228,111115,1,8,0:0:0:0:
109,152,111532,2,0,P|163:102|258:84,1,160,2|8,0:0|0:0,0:0:0:0:
256,164,112782,6,0,L|256:261,1,79.9999999999999,6|8,0:0|0:0,0:0:0:0:
256,324,113615,2,0,P|322:355|418:343,1,160,2|8,0:0|0:0,0:0:0:0:
468,296,114865,1,2,0:0:0:0:
474,217,115282,6,0,L|468:131,1,79.9999999999999,12|2,0:0|0:0,0:0:0:0:
452,101,115907,2,0,P|426:82|365:87,1,79.9999999999999,12|0,0:0|0:0,0:0:0:0:
342,97,116532,1,12,0:0:0:0:
312,171,116948,2,0,P|291:212|258:244,1,79.9999999999999,0|8,0:0|0:0,0:0:0:0:
192,264,117782,5,6,0:0:0:0:
134,208,118198,2,0,L|112:115,1,79.9999999999999,2|2,0:0|0:0,0:0:0:0:
36,112,119032,2,0,P|20:157|18:191,2,79.9999999999999,2|2|2,0:0|0:0|0:0,0:0:0:0:
75,42,120282,5,2,0:0:0:0:
130,99,120698,2,0,P|171:109|215:90,1,79.9999999999999,2|2,0:0|0:0,0:0:0:0:
235,22,121532,2,0,P|284:48|387:36,1,160,2|2,0:0|0:0,0:0:0:0:
464,52,122782,6,0,P|496:112|488:208,1,160,6|2,0:0|0:0,0:0:0:0:
463,278,124032,1,2,0:0:0:0:
387,305,124448,1,2,0:0:0:0:
316,267,124865,1,2,0:0:0:0:
248,311,125282,6,0,P|207:326|85:308,1,160,6|2,0:0|0:0,0:0:0:0:
32,261,126532,2,0,L|49:88,1,160,2|12,0:0|0:0,0:0:0:0:
125,84,127782,2,0,P|191:143|263:157,1,160,6|2,0:0|0:0,0:0:0:0:
335,132,129032,2,0,L|371:216,2,79.9999999999999,2|2|2,0:0|0:0|0:0,0:0:0:0:
296,64,130282,6,0,L|208:64,1,79.9999999999999,2|2,0:0|0:0,0:0:0:0:
136,64,131115,1,2,0:0:0:0:
56,64,131532,1,6,0:0:0:0:
32,96,131740,1,0,0:0:0:0:
12,132,131948,2,0,P|16:220|36:300,1,160,8|2,0:0|0:0,0:0:0:0:
84,351,133198,6,0,P|135:341|177:348,1,79.9999999999999,8|6,0:0|0:0,0:0:0:0:
242,336,134032,1,8,0:0:0:0:
320,315,134448,1,2,0:0:0:0:
280,246,134865,1,8,0:0:0:0:
332,186,135282,6,0,P|367:175|456:194,2,120,6|8|2,0:0|0:0|0:0,0:0:0:0:
253,187,136948,2,8,L|123:174,1,120,2|8,0:0|0:0,0:0:0:0:
94,168,137782,2,0,P|89:111|123:53,2,120,2|8|2,0:0|0:0|0:0,0:0:0:0:
53,237,139448,5,2,0:0:0:0:
38,315,139865,2,0,P|61:347|108:367,1,79.9999999999999,0|2,0:0|0:0,0:0:0:0:
136,364,140490,1,0,0:0:0:0:
172,340,140698,2,0,P|252:309|332:332,1,160,2|2,0:0|0:0,0:0:0:0:
400,339,141948,5,2,0:0:0:0:
446,274,142365,1,2,0:0:0:0:
408,204,142782,2,0,P|374:225|329:230,1,79.9999999999999,2|2,0:0|0:0,0:0:0:0:
299,249,143407,2,0,L|216:240,1,79.9999999999999,8|8,0:0|0:0,0:0:0:0:
192,272,144032,2,0,P|162:313|134:325,1,79.9999999999999,2|2,0:0|0:0,0:0:0:0:
96,326,144657,2,0,L|29:265,1,79.9999999999999,8|0,0:0|0:0,0:0:0:0:
6,246,145282,1,6,0:0:0:0:
6,166,145698,6,0,P|54:122|145:122,1,160,2|2,0:0|0:0,0:0:0:0:
222,142,146948,2,0,P|300:148|360:98,1,160,2|2,0:0|0:0,0:0:0:0:
413,38,148198,1,2,0:0:0:0:
460,103,148615,1,0,0:0:0:0:
461,184,149032,6,0,P|448:228|428:261,1,79.9999999999999,2|2,0:0|0:0,0:0:0:0:
380,320,149865,1,2,0:0:0:0:
305,350,150282,2,0,P|265:355|225:348,1,79.9999999999999,2|2,0:0|0:0,0:0:0:0:
187,338,150907,1,8,0:0:0:0:
159,310,151115,2,0,L|141:222,1,79.9999999999999,2|2,0:0|0:0,0:0:0:0:
179,161,151948,6,0,P|218:149|266:159,1,79.9999999999999,2|2,0:0|0:0,0:0:0:0:
336,157,152782,2,0,L|332:74,1,79.9999999999999,8|2,0:0|0:0,0:0:0:0:
304,48,153407,1,8,0:0:0:0:
266,60,153615,2,0,P|184:75|98:60,1,160,2|8,0:0|0:0,0:0:0:0:
55,124,154865,1,8,0:0:0:0:
25,198,155282,6,0,P|16:244|27:284,1,79.9999999999999,6|2,0:0|0:0,0:0:0:0:
38,312,155907,2,0,L|125:306,1,79.9999999999999,8|8,0:0|0:0,0:0:0:0:
155,294,156532,2,0,P|199:292|234:308,1,79.9999999999999,2|8,0:0|0:0,0:0:0:0:
303,341,157365,1,2,0:0:0:0:
342,344,157573,1,8,0:0:0:0:
379,330,157782,2,0,P|390:293|382:247,1,79.9999999999999,2|8,0:0|0:0,0:0:0:0:
311,218,158615,6,0,P|280:249|240:266,1,79.9999999999999,2|2,0:0|0:0,0:0:0:0:
208,255,159240,1,0,0:0:0:0:
170,241,159448,2,0,P|96:224|45:235,2,120,8|8|8,0:0|0:0|0:0,0:0:0:0:
219,179,161115,5,2,0:0:0:0:
253,159,161323,1,8,0:0:0:0:
292,148,161532,2,0,P|294:104|284:57,1,79.9999999999999,2|8,0:0|0:0,0:0:0:0:
211,43,162365,1,2,0:0:0:0:
148,94,162782,2,0,P|108:101|70:89,2,79.9999999999999,2|8|2,0:0|0:0|0:0,0:0:0:0:
180,70,163823,1,8,0:0:0:0:
211,43,164032,2,0,L|300:48,1,79.9999999999999,2|2,0:0|0:0,0:0:0:0:
339,112,164865,2,8,P|347:153|336:206,1,79.9999999999999,8|6,0:0|0:0,0:0:0:0:
291,252,165698,5,2,0:0:0:0:
321,279,165907,1,8,0:0:0:0:
360,287,166115,2,0,L|439:282,1,79.9999999999999,2|2,0:0|0:0,0:0:0:0:
480,213,166948,1,2,0:0:0:0:
431,149,167365,1,2,0:0:0:0:
351,159,167782,6,0,L|270:183,1,79.9999999999999,2|2,0:0|0:0,0:0:0:0:
198,206,168615,2,0,P|162:210|113:202,1,79.9999999999999,2|2,0:0|0:0,0:0:0:0:
48,166,169448,1,2,0:0:0:0:
30,245,169865,1,2,0:0:0:0:
60,320,170282,1,6,0:0:0:0:
138,307,170698,6,0,P|192:288|304:313,1,160,8|2,0:0|0:0,0:0:0:0:
362,341,171948,1,8,0:0:0:0:
424,292,172365,1,2,0:0:0:0:
440,212,172782,6,0,L|440:132,1,79.9999999999999,6|8,0:0|0:0,0:0:0:0:
384,75,173615,2,0,P|336:63|296:75,2,79.9999999999999,8|12|2,0:0|0:0|0:0,0:0:0:0:
342,147,174865,1,2,0:0:0:0:
262,141,175282,2,0,P|192:127|121:74,1,160,6|8,0:0|0:0,0:0:0:0:
256,192,176532,12,2,180282,0:0:0:0:
244,316,195282,6,0,L|258:157,1,160,6|0,0:0|0:0,0:0:0:0:
271,78,196532,1,0,0:0:0:0:
344,48,196948,2,0,P|384:44|429:60,1,79.9999999999999,0|0,0:0|0:0,0:0:0:0:
474,116,197782,6,0,L|504:283,1,160
448,332,199032,1,0,0:0:0:0:
374,300,199448,2,0,P|337:320|308:359,2,79.9999999999999,0|0|0,0:0|0:0|0:0,0:0:0:0:
342,227,200698,6,0,P|290:203|189:214,1,160
112,193,201948,2,0,P|88:245|99:346,1,160
175,366,203198,1,0,0:0:0:0:
244,328,203615,2,0,L|330:323,1,79.9999999999999
401,343,204448,2,0,L|457:287,1,79.9999999999999
470,208,205282,6,0,P|475:161|457:92,1,120,0|0,0:0|0:0,0:0:0:0:
350,35,206532,2,0,P|303:30|234:48,1,120
148,134,207782,2,0,P|143:181|161:250,2,120,0|0|0,0:0|0:0|0:0,0:0:0:0:
89,79,209448,5,0,0:0:0:0:
33,138,209865,1,0,0:0:0:0:
23,219,210282,2,0,L|23:347,2,120
102,207,211948,1,0,0:0:0:0:
184,204,212365,1,0,0:0:0:0:
264,204,212782,6,0,P|336:188|383:196,2,120,0|0|0,0:0|0:0|0:0,0:0:0:0:
264,285,214448,1,8,0:0:0:0:
323,339,214865,1,8,0:0:0:0:
401,324,215282,6,0,P|428:292|438:254,1,79.9999999999999,6|2,0:0|0:0,0:0:0:0:
440,215,215907,2,0,L|437:133,1,79.9999999999999,8|8,0:0|0:0,0:0:0:0:
435,94,216532,1,2,0:0:0:0:
360,65,216948,2,0,P|311:53|237:68,1,120,2|8,0:0|0:0,0:0:0:0:
208,86,217782,2,0,P|147:94|93:69,2,120,12|8|8,0:0|0:0|0:0,0:0:0:0:
253,151,219448,5,2,0:0:0:0:
208,218,219865,1,2,0:0:0:0:
127,216,220282,2,0,P|80:209|0:209,2,120,12|8|8,0:0|0:0|0:0,0:0:0:0:
208,218,221948,6,0,P|216:259|209:302,1,79.9999999999999,2|2,0:0|0:0,0:0:0:0:
142,338,222782,2,0,P|76:333|51:316,2,79.9999999999999,12|2|2,0:0|0:0|0:0,0:0:0:0:
210,296,224032,2,0,P|246:275|291:277,1,79.9999999999999,8|2,0:0|0:0,0:0:0:0:
335,335,224865,1,8,2:0:0:0:
416,324,225282,2,0,P|433:293|423:241,1,79.9999999999999,6|2,2:0|0:0,0:0:0:0:
500,215,226115,6,0,L|468:50,1,160,2|2,0:0|0:0,0:0:0:0:
391,41,227365,1,2,0:0:0:0:
333,98,227782,2,0,P|251:118|180:94,1,160,12|2,0:0|0:0,0:0:0:0:
129,35,229032,1,8,0:0:0:0:
52,57,229448,2,0,L|29:144,1,79.9999999999999,2|2,0:0|0:0,0:0:0:0:
56,212,230282,6,0,P|105:240|179:234,2,120,12|8|8,0:0|0:0|0:0,0:0:0:0:
11,279,231948,1,2,0:0:0:0:
53,347,232365,1,2,0:0:0:0:
133,345,232782,6,0,P|160:335|210:337,1,79.9999999999999,12|2,0:0|0:0,0:0:0:0:
287,360,233615,2,0,P|314:370|364:368,1,79.9999999999999,2|6,0:0|0:0,0:0:0:0:
443,354,234448,2,0,L|467:275,1,79.9999999999999,8|8,0:0|0:0,0:0:0:0:
470,196,235282,6,0,P|455:155|346:108,1,160,6|2,0:0|0:0,0:0:0:0:
283,143,236532,2,0,L|253:309,1,160,12|2,0:0|0:0,0:0:0:0:
176,284,237782,2,0,L|204:127,1,160,12|2,0:0|0:0,0:0:0:0:
126,111,239032,2,0,L|97:269,1,160,12|2,0:0|0:0,0:0:0:0:
119,346,240282,5,12,0:0:0:0:
192,315,240698,2,0,P|282:343|362:326,1,160,2|12,0:0|0:0,0:0:0:0:
422,310,241948,1,2,0:0:0:0:
367,252,242365,1,2,0:0:0:0:
290,229,242782,2,0,L|131:238,1,160,12|2,0:0|0:0,0:0:0:0:
121,159,244032,2,0,L|280:150,1,160,12|8,0:0|0:0,0:0:0:0:
350,112,245282,6,0,P|408:116|465:159,2,120,6|8|8,0:0|0:0|0:0,0:0:0:0:
229,112,247157,2,0,P|171:108|114:65,2,120,8|8|8,0:0|0:0|0:0,0:0:0:0:
302,207,249032,2,0,P|298:265|255:322,2,120,8|8|8,0:0|0:0|0:0,0:0:0:0:
229,175,250698,5,2,0:0:0:0:
157,212,251115,1,2,0:0:0:0:
101,155,251532,2,0,P|58:147|16:164,2,79.9999999999999,8|2|2,0:0|0:0|0:0,0:0:0:0:
157,212,252782,2,0,L|161:292,1,79.9999999999999,8|2,0:0|0:0,0:0:0:0:
219,347,253615,2,0,L|299:343,1,79.9999999999999,2|8,0:0|0:0,0:0:0:0:
326,268,254448,5,2,0:0:0:0:
400,298,254865,1,2,0:0:0:0:
458,244,255282,2,0,P|469:192|449:115,2,120,6|8|2,0:0|0:0|0:0,0:0:0:0:
400,298,256948,2,8,P|365:278|324:269,1,79.9999999999999,2|2,0:0|0:0,0:0:0:0:
248,288,257782,6,0,P|196:299|119:279,2,120,2|8|8,0:0|0:0|0:0,0:0:0:0:
326,268,259448,2,0,L|321:170,1,79.9999999999999,8|8,0:0|0:0,0:0:0:0:
362,118,260282,2,0,P|414:107|491:127,2,120,6|8|2,0:0|0:0|0:0,0:0:0:0:
244,133,262157,2,0,P|176:137|119:123,1,120,8|8,0:0|0:0,0:0:0:0:
47,141,263198,6,0,L|23:232,1,79.9999999999999,2|2,0:0|0:0,0:0:0:0:
57,292,264032,2,0,P|126:315|222:292,1,160,8|2,0:0|0:0,0:0:0:0:
256,192,265282,12,0,270282,0:0:0:0:
