osu file format v14

[General]
AudioFilename: audio.mp3
AudioLeadIn: 0
PreviewTime: 195282
Countdown: 0
SampleSet: Soft
StackLeniency: 0.7
Mode: 0
LetterboxInBreaks: 0
WidescreenStoryboard: 0

[Editor]
Bookmarks: 70073,141532,195282
DistanceSpacing: 1.2
BeatDivisor: 4
GridSize: 8
TimelineZoom: 3.099999

[Metadata]
Title:Sore wa Chiisana Hikari no Youna
TitleUnicode:それは小さな光のような
Artist:Sayuri
ArtistUnicode:さユり
Creator:FrostxE
Version:Hard
Source:僕だけがいない街
Tags:Boku dake ga inai Machi Erased Ending Frostmourne
BeatmapID:929820
BeatmapSetID:427725

[Difficulty]
HPDrainRate:4
CircleSize:4
OverallDifficulty:5
ApproachRate:6
SliderMultiplier:1.3
SliderTickRate:1

[Events]
//Background and Video events
0,0,"bg.png",0,0
//Break Periods
2,90482,94157
2,195482,204157
//Storyboard Layer 0 (Background)
//Storyboard Layer 1 (Fail)
//Storyboard Layer 2 (Pass)
//Storyboard Layer 3 (Foreground)
//Storyboard Sound Samples

[TimingPoints]
282,416.666666666667,3,2,1,30,1,0
47782,-100,3,2,1,80,0,1
87782,-100,3,2,1,60,0,0
135282,-100,3,2,1,80,0,1
175282,-100,3,2,1,80,0,0
205282,-100,3,2,1,60,0,0
215282,-100,3,2,1,80,0,1
235177,-100,3,2,1,80,0,0
235282,-100,3,2,1,80,0,1
245282,-100,3,2,1,80,0,0
255282,-100,3,2,1,80,0,1
265282,-100,3,2,1,60,0,0
266532,-100,3,2,1,50,0,0
267782,-100,3,2,1,40,0,0
269032,-100,3,2,1,25,0,0
270282,-100,3,2,1,10,0,0

[Colours]
Combo1 : 52,83,231
Combo2 : 255,0,128
Combo3 : 189,5,250

[HitObjects]
420,292,282,6,0,P|374:329|304:327,1,130
246,276,907,2,0,L|268:139,1,130
231,77,1532,2,0,P|185:40|115:42,1,130
49,81,2157,1,0,0:0:0:0:
20,234,2573,5,0,0:0:0:0:
20,234,2782,2,0,L|162:234,1,130
164,312,3407,2,0,L|32:312,1,130
20,234,4032,2,0,P|36:168|80:120,1,130
147,154,4657,1,0,0:0:0:0:
258,45,5073,5,0,0:0:0:0:
258,45,5282,2,0,L|230:173,1,130
181,233,5907,2,0,P|181:296|219:363,1,130
272,306,6532,2,0,P|331:327|407:314,1,130
410,241,7157,2,0,L|410:109,1,130
488,96,7782,6,0,L|488:226,1,130
484,304,8407,2,0,P|441:336|360:336,1,130
292,312,9032,1,0,0:0:0:0:
188,196,9448,2,0,L|116:212,1,65
111,132,9865,2,0,L|174:117,1,65
252,116,10282,2,0,L|397:116,1,130
448,256,11115,6,0,P|415:268|379:264,1,65
327,213,11532,2,0,P|267:198|194:220,1,130
68,294,12365,2,0,P|42:318|29:354,1,65
68,294,12782,2,0,L|206:294,1,130
352,264,13615,2,0,P|382:250|426:250,1,65
483,275,14032,2,0,P|496:212|480:144,1,130
360,48,14865,6,0,L|278:34,1,65
229,80,15282,2,0,P|160:80|77:105,1,130
37,237,16115,2,0,L|49:318,1,65
66,376,16532,2,0,P|135:376|218:351,1,130
292,240,17365,2,0,L|430:240,2,130
259,168,18407,1,0,0:0:0:0:
304,104,18615,2,0,P|366:84|448:105,2,130
259,168,19657,5,0,0:0:0:0:
259,168,19865,2,0,L|173:163,1,65
127,204,20282,2,0,P|99:146|35:82,1,130
188,16,21115,2,0,L|201:96,1,65
214,156,21532,2,0,P|213:243|184:300,1,130
149,344,22157,1,0,0:0:0:0:
80,308,22365,6,0,L|17:358,1,65
80,308,22782,2,0,P|64:236|12:188,1,130
142,92,23615,2,0,P|158:164|210:212,2,130
81,41,24657,2,0,P|107:23|155:15,1,65
342,34,25282,6,0,L|358:111,1,65
383,173,25698,2,0,P|351:177|303:159,1,65
242,154,26115,2,0,P|218:204|230:291,1,130
253,349,26740,1,0,0:0:0:0:
302,288,26948,1,0,0:0:0:0:
223,276,27157,2,0,P|169:273|92:298,1,130
84,192,27782,6,0,P|138:195|215:170,1,130
287,160,28407,2,0,P|348:180|413:178,1,130
475,129,29032,1,0,0:0:0:0:
487,301,29448,6,0,L|456:364,1,65
392,296,29865,1,0,0:0:0:0:
392,296,30073,1,0,0:0:0:0:
280,364,30282,6,0,L|344:364,1,65,6|8,0:0|0:0,0:0:0:0:
307,280,30698,2,0,L|242:280,1,65,8|2,0:0|0:0,0:0:0:0:
164,265,31115,2,0,P|145:226|146:183,1,65,8|0,0:0|0:0,0:0:0:0:
100,314,31532,2,0,P|64:236|63:183,1,130
67,114,32157,1,2,0:0:0:0:
114,52,32365,1,8,0:0:0:0:
171,104,32573,1,0,0:0:0:0:
241,69,32782,6,0,P|313:58|375:86,1,130,2|0,0:0|0:0,0:0:0:0:
425,127,33407,1,8,0:0:0:0:
425,127,33615,2,0,L|462:264,2,130,8|0|0,0:0|0:0|0:0,0:0:0:0:
364,78,34657,1,2,0:0:0:0:
326,146,34865,1,8,0:0:0:0:
286,78,35073,1,0,0:0:0:0:
223,125,35282,6,0,P|162:138|92:108,1,130,2|8,0:0|0:0,0:0:0:0:
48,56,35907,1,2,0:0:0:0:
100,114,36115,2,0,L|85:196,1,65,8|0,0:0|0:0,0:0:0:0:
19,215,36532,2,0,P|23:252|43:289,1,65,0|8,0:0|0:0,0:0:0:0:
66,347,36948,1,0,0:0:0:0:
125,296,37157,1,2,0:0:0:0:
194,330,37365,2,0,P|210:297|212:256,1,65,8|0,0:0|0:0,0:0:0:0:
192,193,37782,6,0,P|136:179|58:189,1,130
280,344,38615,2,0,P|336:358|414:348,1,130,8|2,0:0|0:0,0:0:0:0:
483,367,39240,1,8,0:0:0:0:
461,292,39448,1,2,0:0:0:0:
407,350,39657,1,2,0:0:0:0:
385,275,39865,2,0,P|381:220|410:149,1,130,8|2,0:0|0:0,0:0:0:0:
474,110,40490,5,8,0:0:0:0:
405,72,40698,1,8,0:0:0:0:
335,108,40907,1,2,0:0:0:0:
335,108,41115,2,0,L|257:103,1,65,8|0,0:0|0:0,0:0:0:0:
238,175,41532,2,0,P|236:204|225:241,1,65,2|8,0:0|0:0,0:0:0:0:
171,294,41948,2,0,L|191:355,2,65,0|2|8,0:0|0:0|0:0,0:0:0:0:
92,292,42573,1,0,0:0:0:0:
58,221,42782,6,0,P|97:177|167:151,1,130,2|0,0:0|0:0,0:0:0:0:
233,183,43407,1,8,0:0:0:0:
302,146,43615,2,0,P|321:91|315:13,1,130,8|2,0:0|0:0,0:0:0:0:
409,36,44240,1,8,0:0:0:0:
409,36,44448,2,0,P|427:51|455:101,1,65,0|2,0:0|0:0,0:0:0:0:
464,176,44865,2,0,L|378:186,1,65,8|0,0:0|0:0,0:0:0:0:
252,208,45282,5,8,0:0:0:0:
312,144,45490,1,2,0:0:0:0:
283,63,45698,2,0,P|250:50|213:55,1,65,0|2,0:0|0:0,0:0:0:0:
152,89,46115,2,0,L|130:163,1,65,0|2,0:0|0:0,0:0:0:0:
60,124,46532,2,0,P|54:167|71:206,1,65,8|2,0:0|0:0,0:0:0:0:
35,261,46948,2,0,P|100:282|169:257,1,130
464,240,47782,5,6,0:0:0:0:
464,240,47990,2,0,L|378:232,1,65,0|2,0:0|0:0,0:0:0:0:
321,214,48407,2,0,P|307:246|300:279,1,65,0|8,0:0|0:0,0:0:0:0:
226,301,48823,1,0,0:0:0:0:
205,225,49032,1,2,0:0:0:0:
205,225,49240,1,0,0:0:0:0:
236,153,49448,2,0,P|296:123|374:121,1,130,2|8,0:0|0:0,0:0:0:0:
438,130,50073,5,0,0:0:0:0:
438,130,50282,2,0,L|513:129,2,65,2|0|2,0:0|0:0|0:0,0:0:0:0:
396,198,50907,2,0,L|381:276,1,65,0|8,0:0|0:0,0:0:0:0:
361,336,51323,1,0,0:0:0:0:
361,336,51532,2,0,P|323:328|289:296,1,65,2|0,0:0|0:0,0:0:0:0:
228,287,51948,2,0,P|196:291|169:309,1,65,2|0,0:0|0:0,0:0:0:0:
96,338,52365,2,0,P|44:303|0:230,1,130,8|2,0:0|0:0,0:0:0:0:
30,173,52990,5,0,0:0:0:0:
99,209,53198,2,0,P|153:190|241:194,1,130,2|8,0:0|0:0,0:0:0:0:
297,230,53823,1,0,0:0:0:0:
297,230,54032,2,0,L|320:96,2,130,2|2|8,0:0|0:0|0:0,0:0:0:0:
431,300,55282,6,0,P|462:294|493:263,1,65,2|0,0:0|0:0,0:0:0:0:
496,195,55698,2,0,P|490:164|459:133,1,65,2|0,0:0|0:0,0:0:0:0:
405,93,56115,2,0,P|346:89|275:122,1,130,8|2,0:0|0:0,0:0:0:0:
236,180,56740,1,0,0:0:0:0:
236,180,56948,2,0,L|252:323,1,130,2|8,0:0|0:0,0:0:0:0:
189,358,57573,5,0,0:0:0:0:
189,358,57782,2,0,P|150:360|110:343,1,65,6|0,0:0|0:0,0:0:0:0:
50,372,58198,2,0,L|27:311,1,65,2|0,0:0|0:0,0:0:0:0:
58,239,58615,1,8,0:0:0:0:
47,161,58823,5,0,0:0:0:0:
47,161,59032,2,0,P|93:141|190:148,1,130,2|2,0:0|0:0,0:0:0:0:
231,191,59657,1,0,0:0:0:0:
299,153,59865,1,8,0:0:0:0:
347,223,60073,1,0,0:0:0:0:
347,223,60282,2,0,L|385:163,2,65,2|0|2,0:0|0:0|0:0,0:0:0:0:
488,264,61115,6,0,P|504:204|488:124,1,130,8|2,0:0|0:0,0:0:0:0:
461,66,61740,1,0,0:0:0:0:
461,66,61948,2,0,L|378:54,1,65,2|0,0:0|0:0,0:0:0:0:
348,132,62365,2,0,L|431:144,1,65,8|0,0:0|0:0,0:0:0:0:
360,220,62782,2,0,L|231:200,1,130,2|2,0:0|0:0,0:0:0:0:
154,187,63407,5,0,0:0:0:0:
154,187,63615,2,0,P|151:122|185:47,1,130,8|2,0:0|0:0,0:0:0:0:
247,35,64240,1,0,0:0:0:0:
306,84,64448,2,0,L|381:77,1,65,2|0,0:0|0:0,0:0:0:0:
434,123,64865,2,0,P|435:160|427:187,1,65,8|0,0:0|0:0,0:0:0:0:
378,247,65282,2,0,L|314:241,1,65,2|0,0:0|0:0,0:0:0:0:
235,232,65698,5,2,0:0:0:0:
198,301,65907,1,0,0:0:0:0:
133,257,66115,2,0,P|112:195|137:122,1,130,8|2,0:0|0:0,0:0:0:0:
203,160,66740,1,0,0:0:0:0:
235,232,66948,1,8,0:0:0:0:
235,232,67157,1,8,0:0:0:0:
314,231,67365,1,8,0:0:0:0:
314,231,67573,1,8,0:0:0:0:
387,261,67782,6,0,P|424:268|465:253,1,65,6|0,0:0|0:0,0:0:0:0:
499,200,68198,2,0,L|483:112,1,65,2|0,0:0|0:0,0:0:0:0:
464,61,68615,2,0,P|427:54|386:69,1,65,8|0,0:0|0:0,0:0:0:0:
407,136,69032,2,0,P|375:143|344:136,1,65,2|0,0:0|0:0,0:0:0:0:
264,104,69448,2,0,P|257:141|272:182,1,65,2|0,0:0|0:0,0:0:0:0:
328,216,69865,2,0,P|335:247|328:279,1,65,8|0,0:0|0:0,0:0:0:0:
248,248,70282,2,0,L|104:248,1,130,2|2,0:0|0:0,0:0:0:0:
308,176,71115,6,0,P|348:181|377:214,1,65,8|0,0:0|0:0,0:0:0:0:
430,242,71532,2,0,P|470:237|499:204,1,65,2|0,0:0|0:0,0:0:0:0:
500,144,71948,2,0,L|500:12,2,130,2|8|2,0:0|0:0|0:0,0:0:0:0:
474,218,72990,5,0,0:0:0:0:
422,159,73198,2,0,L|273:145,1,130,2|8,0:0|0:0,0:0:0:0:
212,200,73823,1,0,0:0:0:0:
212,200,74032,2,0,L|204:125,1,65,2|0,0:0|0:0,0:0:0:0:
150,263,74448,2,0,L|156:327,1,65,2|0,0:0|0:0,0:0:0:0:
273,284,74865,2,0,P|200:288|139:253,1,130,8|2,0:0|0:0,0:0:0:0:
60,248,75490,5,0,0:0:0:0:
60,248,75698,2,0,L|12:375,2,130,2|8|2,0:0|0:0|0:0,0:0:0:0:
86,174,76740,1,0,0:0:0:0:
86,174,76948,2,0,P|142:147|211:149,1,130,2|8,0:0|0:0,0:0:0:0:
303,280,77782,6,0,P|359:307|428:305,1,130,6|2,0:0|0:0,0:0:0:0:
482,251,78407,1,0,0:0:0:0:
458,176,78615,2,0,P|402:149|333:151,1,130,8|2,0:0|0:0,0:0:0:0:
280,205,79240,1,0,0:0:0:0:
280,205,79448,2,0,L|192:205,1,65,2|0,0:0|0:0,0:0:0:0:
136,204,79865,2,0,L|116:133,1,65,8|0,0:0|0:0,0:0:0:0:
46,173,80282,6,0,L|63:235,1,65,2|0,0:0|0:0,0:0:0:0:
112,296,80698,2,0,L|238:345,2,130,2|8|2,0:0|0:0|0:0,0:0:0:0:
240,196,81948,2,0,L|253:263,1,65,2|0,0:0|0:0,0:0:0:0:
240,196,82365,2,0,P|264:174|299:166,1,65,8|0,0:0|0:0,0:0:0:0:
371,175,82782,6,0,P|431:174|490:222,1,130,2|2,0:0|0:0,0:0:0:0:
407,254,83407,1,0,0:0:0:0:
445,334,83615,2,0,P|384:334|325:286,1,130,8|2,0:0|0:0,0:0:0:0:
287,229,84240,1,0,0:0:0:0:
287,229,84448,2,0,L|223:285,1,65,2|0,0:0|0:0,0:0:0:0:
189,211,84865,2,0,L|236:167,1,65,8|0,0:0|0:0,0:0:0:0:
247,90,85282,6,0,P|195:53|124:43,1,130,2|2,0:0|0:0,0:0:0:0:
52,53,85907,1,0,0:0:0:0:
52,53,86115,1,8,0:0:0:0:
11,127,86323,1,0,0:0:0:0:
11,127,86532,2,0,L|19:214,1,65,2|0,0:0|0:0,0:0:0:0:
13,269,86948,6,0,P|78:301|149:286,1,130,2|8,0:0|0:0,0:0:0:0:
201,256,87573,1,0,0:0:0:0:
246,192,87782,1,6,0:0:0:0:
256,192,87886,12,2,90282,0:0:0:0:
256,192,95282,12,8,96532,0:0:0:0:
256,192,96948,6,0,L|244:262,2,65,2|2|2,0:0|0:0|0:0,0:0:0:0:
235,116,97573,1,0,0:0:0:0:
235,116,97782,2,0,P|168:104|88:128,1,130,6|8,0:0|0:0,0:0:0:0:
48,340,98615,6,0,L|132:352,1,65,2|0,0:0|0:0,0:0:0:0:
192,360,99032,2,0,L|276:360,1,65,2|0,0:0|0:0,0:0:0:0:
321,316,99448,2,0,P|355:312|390:325,1,65,8|0,0:0|0:0,0:0:0:0:
452,358,99865,1,2,0:0:0:0:
452,358,100073,1,0,0:0:0:0:
478,284,100282,6,0,L|446:201,1,65,2|0,0:0|0:0,0:0:0:0:
378,209,100698,2,0,P|321:221|247:199,1,130,8|2,0:0|0:0,0:0:0:0:
188,157,101323,1,0,0:0:0:0:
116,187,101532,2,0,P|91:134|96:57,1,130,2|8,0:0|0:0,0:0:0:0:
360,88,102365,5,2,0:0:0:0:
360,88,102573,1,0,0:0:0:0:
360,88,102782,2,0,L|490:77,2,130,2|8|2,0:0|0:0|0:0,0:0:0:0:
283,101,103823,1,0,0:0:0:0:
204,96,104032,2,0,P|173:61|170:26,1,65,2|0,0:0|0:0,0:0:0:0:
88,92,104448,2,0,P|112:113|122:143,1,65,8|0,0:0|0:0,0:0:0:0:
192,178,104865,2,0,P|166:212|141:221,1,65,2|0,0:0|0:0,0:0:0:0:
68,209,105282,6,0,P|48:274|68:338,2,130,2|8|2,0:0|0:0|0:0,0:0:0:0:
68,209,106323,1,0,0:0:0:0:
144,226,106532,2,0,L|280:226,1,130,2|8,0:0|0:0,0:0:0:0:
331,278,107157,1,8,0:0:0:0:
402,249,107365,2,0,L|421:161,2,65,8|8|6,0:0|0:0|0:0,0:0:0:0:
308,48,108615,6,0,P|240:40|176:60,2,130,8|8|0,0:0|0:0|0:0,0:0:0:0:
456,96,109865,2,0,L|471:177,1,65,8|0,0:0|0:0,0:0:0:0:
384,144,110282,2,0,L|346:219,1,65,6|0,0:0|0:0,0:0:0:0:
296,140,110698,2,0,L|228:156,1,65
158,179,111115,2,0,P|94:182|27:149,2,130,8|2|2,0:0|0:0|0:0,0:0:0:0:
168,101,112157,1,8,0:0:0:0:
168,101,112365,2,0,P|224:80|301:95,1,130,8|6,0:0|0:0,0:0:0:0:
432,262,113198,6,0,L|364:270,1,65,8|0,0:0|0:0,0:0:0:0:
301,318,113615,2,0,P|286:280|289:244,1,65,2|0,0:0|0:0,0:0:0:0:
207,239,114032,2,0,P|210:303|181:360,1,130,2|8,0:0|0:0,0:0:0:0:
103,353,114657,1,0,0:0:0:0:
28,329,114865,2,0,L|-3:251,1,65,2|0,0:0|0:0,0:0:0:0:
39,197,115282,6,0,P|102:167|173:176,1,130,12|2,0:0|0:0,0:0:0:0:
237,155,115907,2,0,L|260:11,1,130,8|2,0:0|0:0,0:0:0:0:
257,26,116532,1,8,0:0:0:0:
416,119,116948,5,0,0:0:0:0:
331,125,117157,1,0,0:0:0:0:
331,125,117365,2,0,P|338:160|363:191,1,65,8|8,0:0|0:0,0:0:0:0:
449,194,117782,6,0,L|431:337,1,130,6|2,0:0|0:0,0:0:0:0:
358,347,118407,2,0,P|283:357|238:325,1,130,8|8,0:0|0:0,0:0:0:0:
196,264,119032,2,0,L|173:194,1,65,2|0,0:0|0:0,0:0:0:0:
102,229,119448,2,0,L|122:290,2,65,2|8|2,0:0|0:0|0:0,0:0:0:0:
102,229,120073,1,8,0:0:0:0:
80,154,120282,6,0,P|112:110|182:85,1,130,2|2,0:0|0:0,0:0:0:0:
260,87,120907,1,8,0:0:0:0:
260,87,121115,1,2,0:0:0:0:
324,43,121323,1,8,0:0:0:0:
324,43,121532,2,0,P|387:54|459:20,2,130,2|8|2,0:0|0:0|0:0,0:0:0:0:
324,43,122573,1,8,0:0:0:0:
260,87,122782,6,0,L|276:230,1,130,6|2,0:0|0:0,0:0:0:0:
276,294,123407,1,8,0:0:0:0:
276,294,123615,2,0,P|241:320|214:319,1,65,2|8,0:0|0:0,0:0:0:0:
160,372,124032,2,0,P|143:337|141:311,1,65,2|0,0:0|0:0,0:0:0:0:
64,299,124448,2,0,P|74:256|95:239,1,65,2|8,0:0|0:0,0:0:0:0:
150,195,124865,2,0,L|158:124,1,65,2|8,0:0|0:0,0:0:0:0:
233,115,125282,6,0,P|223:85|195:53,1,65,6|0,0:0|0:0,0:0:0:0:
311,141,125698,2,0,P|338:125|362:90,2,65,2|8|2,0:0|0:0|0:0,0:0:0:0:
256,196,126323,1,8,0:0:0:0:
179,173,126532,2,0,P|132:150|28:147,2,130,2|2|12,0:0|0:0|0:0,0:0:0:0:
37,220,127782,6,0,P|28:256|44:298,1,65,6|0,0:0|0:0,0:0:0:0:
107,312,128198,1,2,0:0:0:0:
177,276,128407,1,8,0:0:0:0:
177,276,128615,2,0,P|217:279|252:271,1,65,2|8,0:0|0:0,0:0:0:0:
304,229,129032,2,0,P|337:224|373:236,1,65,2|0,0:0|0:0,0:0:0:0:
429,186,129448,2,0,P|444:214|438:261,2,65,2|8|2,0:0|0:0|0:0,0:0:0:0:
363,142,130073,1,8,0:0:0:0:
285,149,130282,6,0,P|258:100|272:16,1,130,2|2,0:0|0:0,0:0:0:0:
342,36,130907,1,8,0:0:0:0:
342,36,131115,2,0,L|414:49,1,65,2|8,0:0|0:0,0:0:0:0:
478,75,131532,2,0,P|494:128|471:199,1,130,6|8,0:0|0:0,0:0:0:0:
240,300,132365,6,0,L|97:284,1,130,2|2,0:0|0:0,0:0:0:0:
63,223,132990,1,0,0:0:0:0:
63,223,133198,2,0,L|40:140,1,65,8|0,0:0|0:0,0:0:0:0:
96,88,133615,2,12,P|58:81|23:56,1,65,12|8,0:0|0:0,0:0:0:0:
133,159,134032,2,0,P|168:147|212:152,1,65,8|0,0:0|0:0,0:0:0:0:
183,59,134448,2,0,P|245:73|283:146,1,130,0|8,0:0|0:0,0:0:0:0:
367,115,135073,5,8,0:0:0:0:
367,115,135282,2,0,L|356:199,1,65,6|0,0:0|0:0,0:0:0:0:
289,229,135698,1,2,0:0:0:0:
289,229,135907,2,0,P|255:235|213:221,1,65,8|0,0:0|0:0,0:0:0:0:
256,320,136323,1,8,0:0:0:0:
331,373,136532,1,2,0:0:0:0:
331,373,136740,1,0,0:0:0:0:
384,299,136948,2,0,P|425:279|472:285,2,65,2|8|0,0:0|0:0|0:0,0:0:0:0:
392,205,137573,5,8,0:0:0:0:
392,205,137782,2,0,L|412:129,1,65,2|0,0:0|0:0,0:0:0:0:
486,162,138198,1,2,0:0:0:0:
486,162,138407,2,0,L|471:240,1,65,8|0,0:0|0:0,0:0:0:0:
491,301,138823,1,8,0:0:0:0:
491,301,139032,2,0,P|458:313|412:300,1,65,2|0,0:0|0:0,0:0:0:0:
370,257,139448,2,0,P|354:285|351:317,1,65,2|8,0:0|0:0,0:0:0:0:
284,357,139865,2,0,L|212:357,1,65,0|8,0:0|0:0,0:0:0:0:
156,310,140282,5,2,0:0:0:0:
88,272,140490,1,0,0:0:0:0:
150,225,140698,2,0,P|185:218|220:221,2,65,2|8|0,0:0|0:0|0:0,0:0:0:0:
100,162,141323,1,8,0:0:0:0:
100,162,141532,2,0,P|88:134|90:90,1,65,2|0,0:0|0:0,0:0:0:0:
136,39,141948,2,0,L|224:34,1,65,2|8,0:0|0:0,0:0:0:0:
279,44,142365,2,0,P|289:77|283:112,1,65,0|8,0:0|0:0,0:0:0:0:
330,171,142782,6,0,P|361:165|400:144,1,65,2|0,0:0|0:0,0:0:0:0:
468,140,143198,1,2,0:0:0:0:
487,229,143407,2,0,P|428:225|357:258,1,130,8|8,0:0|0:0,0:0:0:0:
362,330,144032,1,2,0:0:0:0:
362,330,144240,2,0,L|427:326,1,65,0|2,0:0|0:0,0:0:0:0:
288,288,144657,1,8,0:0:0:0:
288,288,144865,1,8,0:0:0:0:
235,352,145073,5,0,0:0:0:0:
235,352,145282,2,0,P|196:354|156:337,1,65,6|0,0:0|0:0,0:0:0:0:
115,293,145698,1,2,0:0:0:0:
115,293,145907,2,0,L|83:368,1,65,8|2,0:0|0:0,0:0:0:0:
24,288,146323,1,8,0:0:0:0:
24,288,146532,2,0,L|56:213,1,65,2|0,0:0|0:0,0:0:0:0:
102,170,146948,1,2,0:0:0:0:
102,170,147157,2,0,P|184:144|248:160,1,130,8|8,0:0|0:0,0:0:0:0:
287,200,147782,6,0,L|304:268,1,65,2|0,0:0|0:0,0:0:0:0:
369,304,148198,2,0,P|404:316|460:311,1,65,2|8,0:0|0:0,0:0:0:0:
497,272,148615,2,0,P|506:235|503:200,1,65,0|8,0:0|0:0,0:0:0:0:
471,78,149032,6,0,L|388:66,1,65,2|0,0:0|0:0,0:0:0:0:
358,144,149448,2,0,L|441:156,1,65,2|8,0:0|0:0,0:0:0:0:
370,232,149865,2,0,L|241:212,2,130,0|2|2,0:0|0:0|0:0,0:0:0:0:
392,320,150907,5,8,0:0:0:0:
392,320,151115,2,0,P|360:319|317:337,1,65,0|8,0:0|0:0,0:0:0:0:
252,337,151532,2,0,P|238:311|235:275,1,65,2|0,0:0|0:0,0:0:0:0:
229,198,151948,6,0,L|154:191,1,65,2|8,0:0|0:0,0:0:0:0:
99,149,152365,2,0,L|106:85,1,65,0|8,0:0|0:0,0:0:0:0:
169,37,152782,2,0,P|201:35|233:49,1,65,8|0,0:0|0:0,0:0:0:0:
304,96,153198,1,2,0:0:0:0:
304,96,153407,1,8,0:0:0:0:
304,96,153615,2,0,P|366:102|431:58,2,130,2|2|8,0:0|0:0|0:0,0:0:0:0:
304,96,154657,1,8,0:0:0:0:
275,168,154865,1,8,0:0:0:0:
275,168,155073,1,8,0:0:0:0:
306,241,155282,6,0,P|343:239|380:215,1,65,6|0,0:0|0:0,0:0:0:0:
446,222,155698,2,0,L|456:290,1,65,8|0,0:0|0:0,0:0:0:0:
399,344,156115,2,0,P|362:337|321:352,1,65,2|8,0:0|0:0,0:0:0:0:
258,351,156532,2,0,P|221:358|180:343,1,65,2|0,0:0|0:0,0:0:0:0:
134,302,156948,2,0,P|151:275|179:257,1,65,8|0,0:0|0:0,0:0:0:0:
258,260,157365,2,0,P|265:229|258:197,1,65,2|8,0:0|0:0,0:0:0:0:
189,160,157782,2,0,L|45:160,1,130,2|8,0:0|0:0,0:0:0:0:
312,48,158615,6,0,P|352:53|381:86,1,65,2|8,0:0|0:0,0:0:0:0:
377,145,159032,2,0,P|417:140|446:107,1,65,2|0,0:0|0:0,0:0:0:0:
486,184,159448,2,0,L|458:314,1,130,8|2,0:0|0:0,0:0:0:0:
394,354,160073,2,0,P|361:354|320:321,1,65,8|2,0:0|0:0,0:0:0:0:
298,269,160490,1,0,0:0:0:0:
298,269,160698,2,0,L|151:298,1,130,8|2,0:0|0:0,0:0:0:0:
220,200,161323,5,8,0:0:0:0:
220,200,161532,2,0,L|208:128,1,65,2|0,0:0|0:0,0:0:0:0:
217,58,161948,2,0,P|247:51|283:61,1,65,8|0,0:0|0:0,0:0:0:0:
210,135,162365,2,0,P|137:139|76:104,1,130,2|2,0:0|0:0,0:0:0:0:
20,153,162990,5,0,0:0:0:0:
20,153,163198,2,0,L|0:286,1,130,8|2,0:0|0:0,0:0:0:0:
63,329,163823,1,8,0:0:0:0:
129,285,164032,2,0,L|193:296,1,65,2|0,0:0|0:0,0:0:0:0:
249,241,164448,2,0,P|305:214|374:216,1,130,2|8,0:0|0:0,0:0:0:0:
480,48,165282,6,0,L|347:56,1,130,6|2,0:0|0:0,0:0:0:0:
276,72,165907,1,8,0:0:0:0:
276,72,166115,2,0,L|270:137,2,65,2|8|2,0:0|0:0|0:0,0:0:0:0:
203,44,166740,1,0,0:0:0:0:
203,44,166948,2,0,L|115:44,1,65,2|8,0:0|0:0,0:0:0:0:
64,66,167365,2,0,L|82:128,1,65,2|8,0:0|0:0,0:0:0:0:
155,157,167782,6,0,P|162:189|152:224,1,65,2|0,0:0|0:0,0:0:0:0:
91,265,168198,2,0,L|28:249,1,65,2|8,0:0|0:0,0:0:0:0:
164,304,168615,2,0,P|169:346|161:371,1,65,2|8,0:0|0:0,0:0:0:0:
256,364,169032,2,0,P|251:322|259:297,1,65,2|0,0:0|0:0,0:0:0:0:
328,334,169448,2,0,L|404:331,1,65,2|8,0:0|0:0,0:0:0:0:
464,366,169865,2,0,P|486:342|494:307,1,65,2|8,0:0|0:0,0:0:0:0:
495,226,170282,6,0,P|444:187|381:187,1,130,6|8,0:0|0:0,0:0:0:0:
417,266,170907,1,0,0:0:0:0:
417,266,171115,2,0,L|330:266,1,65,2|8,0:0|0:0,0:0:0:0:
274,266,171532,1,2,0:0:0:0:
274,266,171740,2,0,L|256:332,1,65,0|8,0:0|0:0,0:0:0:0:
198,229,172157,2,0,P|215:204|245:185,1,65,0|2,0:0|0:0,0:0:0:0:
318,158,172573,1,8,0:0:0:0:
262,103,172782,6,0,P|210:66|139:56,1,130,6|8,0:0|0:0,0:0:0:0:
67,74,173407,1,2,0:0:0:0:
67,74,173615,1,8,0:0:0:0:
21,139,173823,1,2,0:0:0:0:
21,139,174032,2,0,L|29:226,1,65,12|2,0:0|0:0,0:0:0:0:
102,225,174448,5,2,0:0:0:0:
102,225,174657,2,0,P|164:208|244:220,1,130,12|2,0:0|0:0,0:0:0:0:
285,269,175282,2,0,P|357:283|425:263,1,130,6|2,0:0|0:0,0:0:0:0:
458,207,175907,1,0,0:0:0:0:
416,140,176115,1,8,0:0:0:0:
256,192,176532,12,2,180282,0:0:0:0:
416,184,180698,6,0,P|426:141|397:44,2,130,2|8|2,0:0|0:0|0:0,0:0:0:0:
320,288,181740,1,0,0:0:0:0:
336,211,181948,1,2,0:0:0:0:
395,262,182157,1,8,0:0:0:0:
320,288,182365,2,0,L|239:283,1,65,8|0,0:0|0:0,0:0:0:0:
177,273,182782,6,0,P|110:269|47:307,1,130,2|2,0:0|0:0,0:0:0:0:
108,359,183407,1,0,0:0:0:0:
108,359,183615,2,0,L|255:359,1,130,8|2,0:0|0:0,0:0:0:0:
394,360,184448,2,0,L|414:282,1,65,2|0,0:0|0:0,0:0:0:0:
440,224,184865,2,0,L|405:147,1,65,8|0,0:0|0:0,0:0:0:0:
352,216,185282,6,0,P|318:216|283:230,1,65,6|0,0:0|0:0,0:0:0:0:
251,296,185698,1,2,0:0:0:0:
196,240,185907,1,8,0:0:0:0:
251,296,186115,2,0,P|245:336|222:366,1,65,8|0,0:0|0:0,0:0:0:0:
154,363,186532,5,2,0:0:0:0:
79,339,186740,1,0,0:0:0:0:
79,339,186948,1,2,0:0:0:0:
79,339,187157,2,0,L|60:249,1,65,0|8,0:0|0:0,0:0:0:0:
33,204,187573,1,0,0:0:0:0:
56,129,187782,6,0,P|87:115|124:114,1,65,2|0,0:0|0:0,0:0:0:0:
194,128,188198,1,2,0:0:0:0:
225,56,188407,1,8,0:0:0:0:
299,85,188615,2,0,P|303:53|295:22,1,65,8|0,0:0|0:0,0:0:0:0:
380,52,189032,5,2,0:0:0:0:
443,115,189240,1,0,0:0:0:0:
443,115,189448,1,2,0:0:0:0:
443,115,189657,2,0,L|414:183,1,65,0|8,0:0|0:0,0:0:0:0:
199,313,190282,6,0,P|136:329|74:313,1,130,2|2,0:0|0:0,0:0:0:0:
49,239,190907,1,0,0:0:0:0:
49,239,191115,2,0,L|66:106,2,130,8|2|2,0:0|0:0|0:0,0:0:0:0:
251,354,192365,2,0,P|269:327|279:296,1,65,12|0,0:0|0:0,0:0:0:0:
285,218,192782,6,0,L|421:196,1,130,6|8,0:0|0:0,0:0:0:0:
448,127,193407,1,8,0:0:0:0:
448,127,193615,1,8,0:0:0:0:
397,67,193823,1,8,0:0:0:0:
397,67,194032,2,0,P|330:44|265:66,1,130,8|8,0:0|0:0,0:0:0:0:
217,112,194657,2,0,L|191:187,1,65,8|8,0:0|0:0,0:0:0:0:
256,224,195073,1,8,0:0:0:0:
256,224,195282,1,6,0:0:0:0:
64,120,205282,6,0,P|127:107|191:115,1,130
258,156,205907,2,0,P|321:168|385:160,1,130
424,256,206532,2,0,P|360:243|296:251,1,130
230,292,207157,2,0,P|166:304|102:296,1,130
69,225,207782,6,0,L|53:92,1,130
108,39,208407,2,0,P|159:24|247:40,1,130
303,69,209032,1,0,0:0:0:0:
240,272,209448,6,0,L|154:278,1,65
272,192,209865,2,0,L|358:198,1,65
320,312,210282,2,0,P|279:351|195:346,1,130
154,296,210907,1,0,0:0:0:0:
154,296,211115,2,0,P|88:280|22:290,1,130
81,127,211948,6,0,P|58:105|27:97,1,65
130,188,212365,2,0,L|202:185,1,65
271,170,212782,2,0,L|288:32,1,130
364,49,213407,1,0,0:0:0:0:
364,49,213615,2,0,L|348:178,1,130
218,345,214448,6,0,P|248:353|280:345,1,65,8|8,0:0|0:0,0:0:0:0:
308,272,214865,2,0,P|276:264|236:280,1,65,8|8,0:0|0:0,0:0:0:0:
167,278,215282,6,0,L|51:270,1,97.5,6|8,0:0|0:0,0:0:0:0:
69,271,215698,2,0,P|56:240|61:202,1,65,2|8,0:0|0:0,0:0:0:0:
133,179,216115,2,0,P|165:182|196:206,1,65,2|8,0:0|0:0,0:0:0:0:
245,263,216532,2,0,P|302:258|335:230,1,97.5,12|8,0:0|0:0,0:0:0:0:
333,233,216948,2,0,L|345:304,1,65,2|8,0:0|0:0,0:0:0:0:
419,247,217365,2,0,L|430:183,1,65,2|8,0:0|0:0,0:0:0:0:
482,115,217782,6,0,P|433:100|382:112,1,97.5,12|8,0:0|0:0,0:0:0:0:
389,108,218198,2,0,L|313:107,1,65,2|8,0:0|0:0,0:0:0:0:
246,113,218615,2,0,P|211:117|184:129,1,65,2|8,0:0|0:0,0:0:0:0:
216,200,219032,2,0,P|267:206|324:180,1,97.5,12|8,0:0|0:0,0:0:0:0:
309,190,219448,2,0,P|353:186|384:205,1,65,2|8,0:0|0:0,0:0:0:0:
434,239,219865,2,0,P|438:283|419:314,1,65,2|8,0:0|0:0,0:0:0:0:
378,360,220282,6,0,L|274:352,1,97.5,12|8,0:0|0:0,0:0:0:0:
280,352,220698,2,0,L|265:272,1,65,2|8,0:0|0:0,0:0:0:0:
202,360,221115,2,0,L|190:297,1,65,2|8,0:0|0:0,0:0:0:0:
104,320,221532,2,0,L|132:206,1,97.5,12|8,0:0|0:0,0:0:0:0:
127,225,221948,2,0,P|159:205|203:202,1,65,2|8,0:0|0:0,0:0:0:0:
244,148,222365,2,0,P|212:127|168:124,1,65,2|8,0:0|0:0,0:0:0:0:
110,144,222782,6,0,P|74:119|71:58,1,97.5,12|8,0:0|0:0,0:0:0:0:
66,68,223198,2,0,L|34:132,1,65,2|8,0:0|0:0,0:0:0:0:
15,200,223615,2,0,P|18:232|31:263,1,65,2|8,0:0|0:0,0:0:0:0:
28,341,224032,2,0,L|130:332,1,97.5,12|8,0:0|0:0,0:0:0:0:
125,332,224448,2,0,P|154:346|200:342,1,65,2|8,0:0|0:0,0:0:0:0:
260,319,224865,2,0,L|279:176,1,130,8|6,0:0|0:0,0:0:0:0:
410,360,225698,6,0,P|441:367|489:352,1,65,2|8,0:0|0:0,0:0:0:0:
508,290,226115,2,0,P|514:251|503:207,1,65,2|8,0:0|0:0,0:0:0:0:
478,153,226532,2,0,P|431:136|378:149,1,97.5,12|8,0:0|0:0,0:0:0:0:
385,144,226948,2,0,L|369:66,1,65,2|8,0:0|0:0,0:0:0:0:
293,102,227365,2,0,P|291:70|299:39,1,65,2|8,0:0|0:0,0:0:0:0:
212,80,227782,6,0,P|165:97|112:84,1,97.5,12|8,0:0|0:0,0:0:0:0:
119,89,228198,2,0,L|105:159,1,65,2|8,0:0|0:0,0:0:0:0:
25,117,228615,2,0,P|19:149|26:181,1,65,2|8,0:0|0:0,0:0:0:0:
42,257,229032,2,0,P|89:278|143:273,1,97.5,12|8,0:0|0:0,0:0:0:0:
133,276,229448,2,0,L|145:354,1,65,2|8,0:0|0:0,0:0:0:0:
220,288,229865,2,0,L|238:225,1,65,2|8,0:0|0:0,0:0:0:0:
315,220,230282,6,0,P|301:166|266:117,1,97.5,6|8,0:0|0:0,0:0:0:0:
278,130,230698,2,0,L|348:94,1,65,2|8,0:0|0:0,0:0:0:0:
298,32,231115,2,0,L|239:61,1,65,2|8,0:0|0:0,0:0:0:0:
168,29,231532,2,0,L|60:90,1,97.5,12|8,0:0|0:0,0:0:0:0:
83,77,231948,2,0,P|74:110|82:156,1,65,2|8,0:0|0:0,0:0:0:0:
152,159,232365,2,0,L|146:229,1,65,2|8,0:0|0:0,0:0:0:0:
178,295,232782,6,0,P|226:297|268:274,1,97.5,12|8,0:0|0:0,0:0:0:0:
268,274,233198,2,0,L|278:190,1,65,2|8,0:0|0:0,0:0:0:0:
340,164,233615,2,0,P|353:191|352:229,1,65,2|8,0:0|0:0,0:0:0:0:
352,225,234032,2,0,P|376:242|475:223,1,130,6|8,0:0|0:0,0:0:0:0:
495,148,234657,1,8,0:0:0:0:
495,148,234865,1,8,0:0:0:0:
444,81,235073,5,8,0:0:0:0:
444,81,235282,2,0,L|341:68,1,97.5,6|8,0:0|0:0,0:0:0:0:
347,69,235698,2,0,P|330:97|328:142,1,65,2|8,0:0|0:0,0:0:0:0:
249,139,236115,1,2,0:0:0:0:
249,139,236323,1,8,0:0:0:0:
170,79,236532,2,0,L|135:185,1,97.5,12|8,0:0|0:0,0:0:0:0:
139,172,236948,2,0,P|161:198|208:209,1,65,2|8,0:0|0:0,0:0:0:0:
267,204,237365,1,2,0:0:0:0:
337,170,237573,1,8,0:0:0:0:
406,134,237782,6,0,L|445:239,1,97.5,12|8,0:0|0:0,0:0:0:0:
441,226,238198,2,0,P|417:256|380:274,1,65,2|8,0:0|0:0,0:0:0:0:
480,320,238615,1,2,0:0:0:0:
480,320,238823,1,8,0:0:0:0:
400,360,239032,2,0,L|295:323,1,97.5,12|8,0:0|0:0,0:0:0:0:
309,328,239448,2,0,P|301:291|310:251,1,65,2|8,0:0|0:0,0:0:0:0:
222,298,239865,1,2,0:0:0:0:
222,298,240073,1,8,0:0:0:0:
147,339,240282,6,0,P|123:307|112:244,1,97.5,12|8,0:0|0:0,0:0:0:0:
112,251,240698,2,0,L|158:205,1,65,2|8,0:0|0:0,0:0:0:0:
213,150,241115,1,2,0:0:0:0:
213,150,241323,1,8,0:0:0:0:
297,147,241532,2,0,P|335:138|397:154,1,97.5,12|8,0:0|0:0,0:0:0:0:
392,151,241948,2,0,L|386:222,1,65,2|8,0:0|0:0,0:0:0:0:
383,301,242365,1,2,0:0:0:0:
383,301,242573,1,8,0:0:0:0:
464,254,242782,6,0,P|474:300|459:353,1,97.5,12|8,0:0|0:0,0:0:0:0:
461,348,243198,2,0,L|401:387,1,65,2|8,0:0|0:0,0:0:0:0:
383,301,243615,1,2,0:0:0:0:
383,301,243823,1,8,0:0:0:0:
320,360,244032,6,0,L|248:284,1,97.5,12|8,0:0|0:0,0:0:0:0:
252,289,244448,2,0,P|256:254|279:215,1,65,2|8,0:0|0:0,0:0:0:0:
326,174,244865,2,0,L|399:174,1,65,8|8,0:0|0:0,0:0:0:0:
360,96,245282,6,0,P|322:81|249:101,1,97.5,6|8,0:0|0:0,0:0:0:0:
267,89,245698,2,0,L|184:84,1,65,2|8,0:0|0:0,0:0:0:0:
167,155,246115,2,0,P|162:191|175:235,1,65,2|8,0:0|0:0,0:0:0:0:
240,253,246532,2,0,L|231:330,2,65,8|0|2,0:0|0:0|0:0,0:0:0:0:
306,212,247157,2,0,L|383:221,2,65,8|2|0,0:0|0:0|0:0,0:0:0:0:
254,152,247782,6,0,P|265:114|302:64,1,97.5,8|8,0:0|0:0,0:0:0:0:
298,67,248198,1,2,0:0:0:0:
369,98,248407,2,0,L|447:91,1,65,8|2,0:0|0:0,0:0:0:0:
480,168,248823,1,8,0:0:0:0:
403,183,249032,2,0,L|298:192,1,97.5,8|8,0:0|0:0,0:0:0:0:
305,191,249448,1,2,0:0:0:0:
281,271,249657,2,0,L|217:277,1,65,8|2,0:0|0:0,0:0:0:0:
163,210,250073,5,8,0:0:0:0:
163,210,250282,2,0,P|137:249|142:313,1,97.5,8|8,0:0|0:0,0:0:0:0:
136,298,250698,1,2,0:0:0:0:
64,360,250907,2,0,L|40:272,1,65,8|2,0:0|0:0,0:0:0:0:
42,219,251323,1,8,0:0:0:0:
42,219,251532,2,0,P|57:172|86:124,1,97.5,8|8,0:0|0:0,0:0:0:0:
81,130,251948,1,2,0:0:0:0:
160,120,252157,2,0,L|160:50,2,65,8|2|8,0:0|0:0|0:0,0:0:0:0:
237,144,252782,6,0,L|272:32,1,97.5,8|8,0:0|0:0,0:0:0:0:
266,50,253198,2,0,P|298:37|340:43,1,65,2|8,0:0|0:0,0:0:0:0:
382,106,253615,2,0,P|350:119|308:113,1,65,2|8,0:0|0:0,0:0:0:0:
370,227,254032,2,0,P|320:222|262:177,1,97.5,8|8,0:0|0:0,0:0:0:0:
280,198,254448,2,0,L|241:255,1,65,2|8,0:0|0:0,0:0:0:0:
176,296,254865,1,2,0:0:0:0:
92,248,255073,5,8,0:0:0:0:
92,248,255282,2,0,L|49:344,1,97.5,6|8,0:0|0:0,0:0:0:0:
53,337,255698,2,0,P|84:348|129:342,1,65,2|8,0:0|0:0,0:0:0:0:
176,296,256115,1,2,0:0:0:0:
176,296,256323,1,8,0:0:0:0:
246,355,256532,2,0,L|281:249,1,97.5,8|8,0:0|0:0,0:0:0:0:
276,262,256948,2,0,P|252:233|215:215,1,65,2|8,0:0|0:0,0:0:0:0:
336,192,257365,1,2,0:0:0:0:
336,192,257573,1,8,0:0:0:0:
410,251,257782,6,0,L|445:145,1,97.5,8|8,0:0|0:0,0:0:0:0:
441,158,258198,2,0,P|416:128|379:110,1,65,2|8,0:0|0:0,0:0:0:0:
314,90,258615,1,2,0:0:0:0:
314,90,258823,1,8,0:0:0:0:
234,106,259032,6,0,L|219:71,2,32.5,8|8|12,0:0|0:0|0:0,0:0:0:0:
211,180,259448,2,0,L|188:210,2,32.5,8|8|12,0:0|0:0|0:0,0:0:0:0:
288,168,259865,2,0,L|325:172,2,32.5,8|8|12,0:0|0:0|0:0,0:0:0:0:
234,106,260282,6,0,P|205:80|143:62,1,97.5,12|8,0:0|0:0,0:0:0:0:
150,62,260698,2,0,L|119:127,1,65,2|8,0:0|0:0,0:0:0:0:
55,161,261115,1,2,0:0:0:0:
55,161,261323,1,8,0:0:0:0:
121,205,261532,2,0,P|158:196|221:212,1,97.5,8|8,0:0|0:0,0:0:0:0:
216,209,261948,2,0,L|209:280,1,65,2|8,0:0|0:0,0:0:0:0:
129,301,262365,1,2,0:0:0:0:
129,301,262573,1,8,0:0:0:0:
48,254,262782,6,0,P|38:300|53:353,1,97.5,8|8,0:0|0:0,0:0:0:0:
50,348,263198,2,0,L|111:387,1,65,2|8,0:0|0:0,0:0:0:0:
129,301,263615,1,2,0:0:0:0:
129,301,263823,1,8,0:0:0:0:
192,360,264032,2,0,L|264:284,1,97.5,8|8,0:0|0:0,0:0:0:0:
259,289,264448,2,0,P|256:254|233:215,1,65,2|8,0:0|0:0,0:0:0:0:
186,174,264865,2,0,L|203:92,2,65,8|8|6,0:0|0:0|0:0,0:0:0:0:
256,192,265386,12,0,270282,0:0:0:0:
