osu file format v14

[General]
AudioFilename: audio.mp3
AudioLeadIn: 0
PreviewTime: 40535
Countdown: 0
SampleSet: Soft
StackLeniency: 0.4
Mode: 0
LetterboxInBreaks: 0
WidescreenStoryboard: 0

[Editor]
DistanceSpacing: 1.5
BeatDivisor: 4
GridSize: 4
TimelineZoom: 1.5

[Metadata]
Title:Sore wa Chiisana Hikari no Youna
TitleUnicode:それは小さな光のような
Artist:Sayuri
ArtistUnicode:Sayuri
Creator:Bakuenjin
Version:The Town Without Me
Source:僕だけがいない街
Tags:Boku dake ga Inai Machi Erased anime ending ed tv size tv-size
BeatmapID:900834
BeatmapSetID:415755

[Difficulty]
HPDrainRate:5.5
CircleSize:4.1
OverallDifficulty:7.5
ApproachRate:8.2
SliderMultiplier:1.4
SliderTickRate:1

[Events]
//Background and Video events
Video,0,"video_map.mp4"
0,0,"wallpaper.jpg",0,0
//Break Periods
//Storyboard Layer 0 (Background)
//Storyboard Layer 1 (Fail)
//Storyboard Layer 2 (Pass)
//Storyboard Layer 3 (Foreground)
//Storyboard Sound Samples

[TimingPoints]
124,416.666666666667,3,2,0,25,1,0
2728,416.666666666667,3,2,0,35,1,0
24285,-83.3333333333333,3,2,0,40,0,0
40540,-74.0740740740741,3,2,0,50,0,0
41374,-66.6666666666667,3,2,0,50,0,0
42728,-66.6666666666667,3,1,0,50,0,1
71790,-83.3333333333333,3,2,0,50,0,0
83144,-83.3333333333333,3,2,0,45,0,0
83561,-83.3333333333333,3,2,0,40,0,0
83978,-83.3333333333333,3,2,0,35,0,0
84394,-83.3333333333333,3,2,0,30,0,0
84811,-83.3333333333333,3,2,0,25,0,0
85228,-83.3333333333333,3,2,0,20,0,0

[HitObjects]
256,192,280,12,0,3978,0:0:0:0:
428,224,4394,6,0,P|388:184|372:148,1,70
360,56,4811,2,0,P|320:96|284:112,1,70
204,112,5228,2,0,P|284:144|320:216,1,140,2|0,0:0|0:0,0:0:0:0:
284,288,5853,1,0,0:0:0:0:
212,212,6061,6,0,P|201:153|221:54,2,140
116,168,7103,1,0,0:0:0:0:
280,92,7311,2,0,P|216:76|196:64,1,70
212,212,7728,2,0,P|308:247|338:273,1,140,2|0,0:0|0:0,0:0:0:0:
248,328,8353,1,0,0:0:0:0:
279,229,8561,6,0,P|295:109|287:77,2,140
196,292,9603,1,0,0:0:0:0:
156,172,9811,1,0,0:0:0:0:
72,236,10019,1,0,0:0:0:0:
100,112,10228,2,0,P|189:101|240:154,1,140,2|0,0:0|0:0,0:0:0:0:
316,72,10853,1,0,0:0:0:0:
277,174,11061,6,0,P|245:152|213:104,1,70
352,168,11478,2,0,P|290:220|277:280,1,140
360,336,12103,1,0,0:0:0:0:
416,220,12311,2,0,P|432:164|416:124,1,70
332,76,12728,2,0,P|316:132|332:172,1,70,2|0,0:0|0:0,0:0:0:0:
324,268,13144,1,0,0:0:0:0:
416,220,13353,1,0,0:0:0:0:
317,142,13561,2,0,B|256:132|240:196|168:172,1,140
28,140,14394,6,0,P|44:172|52:232,1,70
40,308,14811,1,0,0:0:0:0:
132,360,15019,1,0,0:0:0:0:
120,236,15228,2,0,P|132:168|184:104,1,140,2|0,0:0|0:0,0:0:0:0:
68,128,15853,1,0,0:0:0:0:
200,208,16061,2,0,P|260:196|280:180,1,70
364,112,16478,2,0,P|320:204|332:256,1,140
396,316,17103,1,0,0:0:0:0:
468,212,17311,6,0,P|424:192|380:192,1,70
302,77,17728,2,0,P|341:104|385:111,1,70,2|0,0:0|0:0,0:0:0:0:
488,108,18144,1,0,0:0:0:0:
440,12,18353,1,0,0:0:0:0:
363,111,18561,2,0,P|357:145|340:176,1,70
228,236,18978,2,0,P|233:201|250:170,1,70
296,288,19394,2,0,P|173:279|143:295,1,140
84,356,20019,1,0,0:0:0:0:
56,232,20228,6,0,P|57:182|65:155,1,70
116,48,20644,1,0,0:0:0:0:
20,88,20853,1,0,0:0:0:0:
156,136,21061,2,0,B|224:160|224:108|296:136,1,140
376,188,21686,1,0,0:0:0:0:
256,204,21894,1,0,0:0:0:0:
384,264,22103,2,0,P|425:228|464:228,1,70
408,124,22519,1,0,0:0:0:0:
452,300,22728,2,0,P|383:339|319:302,1,140
280,228,23353,5,0,0:0:0:0:
156,248,23561,2,0,P|185:221|203:171,1,70
188,68,23978,2,0,P|158:94|140:144,1,70
156,248,24394,5,0,0:0:0:0:
264,312,24603,1,0,0:0:0:0:
172,164,24811,5,0,0:0:0:0:
334,260,25019,1,0,0:0:0:0:
324,92,25228,6,0,P|292:139|264:164,1,83.9999974365235
400,136,25644,1,0,0:0:0:0:
228,92,25853,1,0,0:0:0:0:
344,216,26061,1,0,0:0:0:0:
324,92,26269,5,0,0:0:0:0:
323,92,26478,2,0,P|302:127|272:157,1,83.9999974365235
132,180,26894,2,0,P|247:213|248:264,1,167.999994873047
120,348,27519,5,0,0:0:0:0:
176,244,27728,2,0,P|204:172|208:76,1,167.999994873047
296,180,28353,1,0,0:0:0:0:
126,81,28561,2,0,P|167:88|208:81,1,83.9999974365235
378,180,28978,2,0,P|336:172|295:179,1,83.9999974365235
200,296,29394,2,0,P|207:255|200:214,1,83.9999974365235
112,92,29811,1,0,0:0:0:0:
116,252,30019,5,0,0:0:0:0:
224,76,30228,2,0,P|217:117|224:158,1,83.9999974365235
312,304,30644,1,0,0:0:0:0:
156,244,30853,1,0,0:0:0:0:
312,304,31061,2,0,P|319:263|312:222,1,83.9999974365235
224,76,31478,2,0,L|332:124,2,83.9999974365235
147,41,32103,5,0,0:0:0:0:
300,109,32311,2,0,L|377:144,1,83.9999974365235
213,124,32728,2,0,P|226:163|260:188,1,83.9999974365235
466,128,33144,2,0,P|452:89|420:64,1,83.9999974365235
292,60,33561,5,0,0:0:0:0:
388,180,33769,1,0,0:0:0:0:
238,230,33978,1,0,0:0:0:0:
236,121,34186,1,0,0:0:0:0:
343,268,34394,1,0,0:0:0:0:
236,121,34603,1,0,0:0:0:0:
419,178,34811,2,0,B|456:212|456:212|464:248,1,83.9999974365235
432,368,35228,5,0,0:0:0:0:
348,224,35436,1,0,0:0:0:0:
252,364,35644,1,0,0:0:0:0:
368,312,35853,1,0,0:0:0:0:
172,232,36061,2,0,P|111:187|96:160,1,83.9999974365235
52,24,36478,2,0,P|112:68|127:95,1,83.9999974365235
172,232,36894,2,0,P|149:160|203:68,1,167.999994873047
372,140,37519,5,0,0:0:0:0:
372,140,37728,2,0,P|304:180|280:176,1,83.9999974365235
184,144,38144,1,0,0:0:0:0:
304,272,38353,1,0,0:0:0:0:
304,100,38561,2,0,P|288:48|256:16,1,83.9999974365235
184,144,38978,2,0,P|200:196|232:228,2,83.9999974365235
269,26,39603,5,0,0:0:0:0:
300,192,39811,1,0,0:0:0:0:
376,92,40019,5,0,0:0:0:0:
236,212,40228,1,0,0:0:0:0:
360,216,40436,5,0,0:0:0:0:
140,160,40644,2,0,P|88:132|56:76,1,94.5000003604889
276,135,41061,2,0,P|328:163|360:219,1,94.5000003604889
152,260,41478,2,0,B|132:210|132:210|144:126,1,105.000004005432
386,92,41894,2,0,L|338:216,1,105.000004005432
96,308,42311,2,0,L|144:184,1,105.000004005432
224,52,42728,6,0,P|244:112|292:140,1,105.000004005432
440,160,43144,1,0,0:0:0:0:
270,238,43353,1,0,0:0:0:0:
270,238,43457,1,0,0:0:0:0:
270,238,43561,2,0,P|281:178|273:126,1,105.000004005432
104,52,43978,2,0,P|93:112|101:164,1,105.000004005432
270,238,44394,2,0,P|153:195|80:243,1,210.000008010865
20,356,45019,1,0,0:0:0:0:
200,300,45228,6,0,P|194:247|205:196,1,105.000004005432
280,60,45644,1,0,0:0:0:0:
340,204,45853,1,0,0:0:0:0:
168,84,46061,1,0,0:0:0:0:
344,120,46269,1,0,0:0:0:0:
132,160,46478,1,0,0:0:0:0:
280,60,46686,1,0,0:0:0:0:
205,196,46894,2,0,P|194:247|200:300,1,105.000004005432
340,204,47311,2,0,P|350:152|345:100,1,105.000004005432
132,160,47728,6,0,P|168:123|219:117,1,105.000004005432
413,240,48144,2,0,P|376:276|325:282,1,105.000004005432
260,240,48457,1,0,0:0:0:0:
260,240,48561,1,0,0:0:0:0:
400,364,48769,1,0,0:0:0:0:
340,204,48978,2,0,P|348:105|356:90,1,105.000004005432
240,20,49394,2,0,P|232:119|224:134,1,105.000004005432
112,224,49811,2,0,P|211:232|226:240,1,105.000004005432
364,348,50228,5,0,0:0:0:0:
420,200,50436,1,0,0:0:0:0:
420,200,50540,1,0,0:0:0:0:
420,200,50644,1,0,0:0:0:0:
460,300,50853,1,0,0:0:0:0:
280,192,51061,2,0,P|208:123|201:107,1,105.000004005432
148,8,51478,2,0,P|160:124|100:168,1,157.500006008148
72,188,51894,1,0,0:0:0:0:
280,192,52103,1,0,0:0:0:0:
148,8,52311,2,0,P|212:8|268:52,1,105.000004005432
340,192,52728,5,0,0:0:0:0:
181,94,52936,1,0,0:0:0:0:
148,248,53144,2,0,P|188:316|264:320,1,157.500006008148
332,268,53561,2,0,L|296:220,1,52.5000020027161
237,142,53769,1,0,0:0:0:0:
188,316,53978,6,0,B|144:336|144:336|72:316|64:248,1,157.500006008148
76,188,54394,1,0,0:0:0:0:
236,280,54603,1,0,0:0:0:0:
284,160,54811,1,0,0:0:0:0:
144,248,55019,1,0,0:0:0:0:
410,325,55228,6,0,L|402:221,1,105.000004005432
288,136,55644,2,0,P|236:139|192:167,1,105.000004005432
124,308,56061,2,0,P|175:304|219:276,1,105.000004005432
312,160,56478,1,0,0:0:0:0:
352,312,56686,1,0,0:0:0:0:
232,196,56894,1,0,0:0:0:0:
420,232,57103,1,0,0:0:0:0:
219,275,57311,6,0,P|134:309|61:270,1,157.500006008148
28,204,57728,1,0,0:0:0:0:
28,204,58144,1,0,0:0:0:0:
219,275,58353,1,0,0:0:0:0:
128,144,58561,2,0,B|152:104|184:100|220:100|248:124|248:124|260:96|288:80|332:88,1,210.000008010865
329,257,59186,1,0,0:0:0:0:
196,176,59394,6,0,P|194:228|218:274,1,105.000004005432
352,356,59811,2,0,P|353:304|329:257,1,105.000004005432
224,100,60228,2,0,L|352:156,1,105.000004005432
425,299,60644,2,0,L|297:243,1,105.000004005432
196,176,61061,2,0,P|220:280|112:308,1,210.000008010865
40,288,61686,1,0,0:0:0:0:
152,240,61894,6,0,P|80:192|76:112,1,157.500006008148
163,146,62311,2,0,P|238:188|247:267,1,157.500006008148
188,300,62728,5,0,0:0:0:0:
163,146,62936,1,0,0:0:0:0:
336,224,63144,1,0,0:0:0:0:
148,228,63353,1,0,0:0:0:0:
332,124,63561,1,0,0:0:0:0:
280,272,63769,1,0,0:0:0:0:
168,120,63978,1,0,0:0:0:0:
304,196,64186,1,0,0:0:0:0:
96,228,64394,6,0,P|20:172|24:108,1,157.500006008148
44,40,64811,1,0,0:0:0:0:
176,64,65019,1,0,0:0:0:0:
180,196,65228,2,0,P|182:262|155:298,1,105.000004005432
96,228,65644,2,0,P|93:161|120:125,1,105.000004005432
272,81,66061,2,0,P|205:83|169:56,1,105.000004005432
180,196,66478,5,0,0:0:0:0:
88,112,66686,1,0,0:0:0:0:
272,81,66894,2,0,P|338:78|374:105,2,105.000004005432
180,196,67519,1,0,0:0:0:0:
308,156,67728,6,0,P|328:212|312:268,1,105.000004005432
190,344,68144,2,0,P|162:266|184:188,1,157.500006008148
220,112,68561,1,0,0:0:0:0:
92,64,68769,1,0,0:0:0:0:
179,195,68978,2,0,P|230:203|278:183,1,105.000004005432
371,68,69394,2,0,P|320:60|272:80,1,105.000004005432
176,192,69811,2,0,P|208:128|160:48,1,157.500006008148
100,24,70228,5,0,0:0:0:0:
271,80,70436,1,0,0:0:0:0:
124,124,70644,2,0,P|91:192|184:272,1,210.000008010865
324,212,71269,1,0,0:0:0:0:
167,191,71478,2,0,P|95:259|99:299,1,105.000004005432,0|0,1:0|1:0,1:0:0:0:
224,344,71894,6,0,L|156:244,1,83.9999974365235
224,148,72311,2,0,L|291:247,1,83.9999974365235
341,321,72728,2,0,P|343:253|399:220,1,125.999996154785
463,221,73144,1,0,0:0:0:0:
355,112,73353,1,0,0:0:0:0:
480,129,73561,2,0,L|449:301,1,167.999994873047
376,120,74394,6,0,P|392:76|420:48,1,83.9999974365235
460,168,74811,2,0,P|444:212|416:240,1,83.9999974365235
268,260,75228,1,0,0:0:0:0:
352,168,75436,1,0,0:0:0:0:
268,260,75644,2,0,P|207:246|171:196,1,125.999996154785
157,113,76061,2,0,P|217:126|254:177,1,125.999996154785
268,260,76478,1,0,0:0:0:0:
176,348,76686,1,0,0:0:0:0:
171,196,76894,6,0,P|128:192|88:160,1,83.9999974365235
44,72,77311,2,0,P|108:77|167:125,1,125.999996154785
171,196,77728,1,0,0:0:0:0:
244,92,77936,1,0,0:0:0:0:
244,92,78040,1,0,0:0:0:0:
244,92,78144,1,0,0:0:0:0:
117,82,78353,1,0,0:0:0:0:
255,176,78561,6,0,P|326:186|353:170,1,83.9999974365235
420,88,78978,1,0,0:0:0:0:
300,108,79186,1,0,0:0:0:0:
300,108,79290,1,0,0:0:0:0:
300,108,79394,1,0,0:0:0:0:
408,176,79603,1,0,0:0:0:0:
336,24,79811,1,0,0:0:0:0:
224,80,80019,6,0,L|172:100,1,41.9999987182618
120,120,80228,2,0,P|208:152|224:224,1,167.999994873047
180,336,80853,1,0,0:0:0:0:
140,204,81061,1,0,0:0:0:0:
236,288,81269,6,0,L|288:268,1,41.9999987182618
340,248,81478,2,0,P|252:216|236:144,1,167.999994873047
292,40,82103,1,0,0:0:0:0:
292,40,82207,1,0,0:0:0:0:
292,40,82311,1,0,0:0:0:0:
320,164,82519,2,0,L|288:196,1,41.9999987182618
256,192,82728,12,0,85644,0:0:0:0:
