osu file format v14

[General]
AudioFilename: audio.mp3
AudioLeadIn: 0
PreviewTime: 40435
Countdown: 0
SampleSet: Soft
StackLeniency: 0.4
Mode: 0
LetterboxInBreaks: 0
WidescreenStoryboard: 1

[Editor]
DistanceSpacing: 1.2
BeatDivisor: 2
GridSize: 4
TimelineZoom: 3.399998

[Metadata]
Title:Sore wa Chiisana Hikari no Youna
TitleUnicode:それは小さな光のような
Artist:Sayuri
ArtistUnicode:Sayuri
Creator:Bakuenjin
Version:Easy
Source:僕だけがいない街
Tags:Boku dake ga Inai Machi Erased anime ending ed tv size tv-size
BeatmapID:902179
BeatmapSetID:415755

[Difficulty]
HPDrainRate:2
CircleSize:3
OverallDifficulty:4
ApproachRate:5
SliderMultiplier:0.8
SliderTickRate:1

[Events]
//Background and Video events
Video,0,"video_map.mp4"
0,0,"wallpaper.jpg",0,0
//Break Periods
//Storyboard Layer 0 (Background)
//Storyboard Layer 1 (Fail)
//Storyboard Layer 2 (Pass)
//Storyboard Layer 3 (Foreground)
//Storyboard Sound Samples

[TimingPoints]
124,416.666666666667,3,2,0,5,1,0
2728,416.666666666667,3,2,0,25,1,0
42728,-100,3,2,0,25,0,1
71894,-100,3,2,0,25,0,0

[HitObjects]
256,192,332,12,0,3561,0:0:0:0:
348,116,4394,6,0,P|392:104|428:108,2,80
300,200,5644,1,0,0:0:0:0:
248,120,6061,2,0,B|220:132|196:160|200:208|200:208|152:240,1,160
76,292,7311,5,0,0:0:0:0:
36,204,7728,2,0,P|24:160|28:124,1,80
112,84,8561,2,0,P|148:210|143:251,1,160
120,328,9811,5,0,0:0:0:0:
52,260,10228,2,0,P|56:188|64:172,1,80
84,88,11061,1,0,0:0:0:0:
152,156,11478,2,0,P|224:152|240:144,1,80
316,108,12311,5,0,0:0:0:0:
376,184,12728,1,0,0:0:0:0:
300,240,13144,1,0,0:0:0:0:
372,304,13561,1,0,0:0:0:0:
288,352,13978,2,0,P|240:352|192:332,1,80
152,268,14811,5,0,0:0:0:0:
192,180,15228,2,0,P|232:144|272:136,1,80
352,140,16061,1,0,0:0:0:0:
352,236,16478,2,0,P|298:237|262:218,1,80
220,148,17312,5,0,0:0:0:0:
190,56,17728,1,0,0:0:0:0:
94,56,18145,1,0,0:0:0:0:
64,148,18562,1,0,0:0:0:0:
142,204,18978,1,0,0:0:0:0:
113,294,19394,2,0,P|78:276|56:244,1,80
64,148,20228,6,0,P|68:104|52:56,1,80
152,40,21061,2,0,B|192:116|232:52|276:128|276:128|296:92|332:68|380:68|400:84|428:96|456:128|452:188,1,400
392,240,23561,2,0,P|367:206|359:158,1,80
356,72,24394,6,0,B|336:41|302:26|302:26|253:56|272:136,1,160
296,196,25644,1,0,0:0:0:0:
204,176,26060,1,0,0:0:0:0:
232,268,26477,2,0,P|288:292|329:285,1,80
396,264,27310,1,0,0:0:0:0:
324,200,27727,6,0,P|324:136|348:96,1,80
420,88,28561,2,0,P|420:152|396:192,1,80
396,264,29394,1,0,0:0:0:0:
324,200,29810,1,0,0:0:0:0:
240,248,30227,6,0,P|192:255|131:225,2,80
324,200,31478,2,0,P|331:161|322:122,1,80
248,64,32310,5,0,0:0:0:0:
176,128,32728,2,0,L|96:134,1,80
144,220,33561,2,0,B|148:272|112:312|112:312|152:324|176:360,1,160
232,276,34810,6,0,P|270:268|309:276,2,80,0|0|0,2:0|2:0|2:0,2:0:0:0:
272,364,36060,1,0,0:0:0:0:
368,360,36478,2,0,P|394:330|407:292,1,80,0|0,2:0|2:0,2:0:0:0:
368,204,37310,5,0,0:0:0:0:
300,136,37727,2,0,P|368:108|396:112,1,80
448,172,38561,2,0,B|472:217|442:257|442:257|389:255|369:204|369:204|338:235|287:234,1,240
240,272,40227,1,0,0:0:0:0:
152,232,40644,6,0,P|128:196|124:137,2,80
216,164,41894,1,0,0:0:0:0:
288,224,42310,1,0,0:0:0:0:
382,223,42728,6,0,P|374:184|352:152,1,80
268,104,43561,1,0,0:0:0:0:
184,152,43978,1,0,0:0:0:0:
88,152,44394,2,0,P|102:101|140:66,1,80
214,61,45228,5,0,0:0:0:0:
184,152,45644,1,0,0:0:0:0:
274,181,46061,1,0,0:0:0:0:
303,89,46478,1,0,0:0:0:0:
384,144,46894,2,0,P|392:183|375:235,2,80
371,47,48144,6,0,L|279:101,1,80
220,140,48978,2,0,L|288:181,1,80
212,240,49811,1,0,0:0:0:0:
136,184,50228,6,0,P|106:148|101:84,1,80
193,113,51061,2,0,P|231:104|270:113,1,80
225,197,51894,2,0,P|212:234|185:263,1,80
88,264,52728,5,0,0:0:0:0:
52,176,53144,1,0,0:0:0:0:
88,88,53561,1,0,0:0:0:0:
174,49,53978,2,0,P|212:40|251:49,1,80
340,88,54811,1,0,0:0:0:0:
288,168,55228,6,0,L|212:140,1,80
216,236,56061,1,0,0:0:0:0:
120,236,56478,2,0,L|147:311,1,80
47,299,57311,1,0,0:0:0:0:
28,204,57728,2,0,L|55:128,1,80
92,40,58561,1,0,0:0:0:0:
152,116,58978,1,0,0:0:0:0:
212,192,59394,6,0,P|233:225|267:246,1,80
344,308,60228,2,0,P|361:272|363:232,1,80
378,135,61061,2,0,P|338:137|303:156,1,80
267,246,61894,2,0,L|188:217,1,80
192,124,62728,5,0,0:0:0:0:
277,79,63144,1,0,0:0:0:0:
346,146,63561,1,0,0:0:0:0:
302,232,63978,1,0,0:0:0:0:
207,217,64394,2,0,P|168:207|129:216,1,80
60,284,65228,5,0,0:0:0:0:
32,192,65644,2,0,L|59:116,1,80
100,28,66478,1,0,0:0:0:0:
188,64,66894,2,0,P|196:102|187:141,1,80
280,172,67728,5,0,0:0:0:0:
310,264,68144,2,0,P|349:255|388:264,1,80
456,197,68978,1,0,0:0:0:0:
413,111,69395,1,0,0:0:0:0:
318,124,69812,1,0,0:0:0:0:
302,218,70228,1,0,0:0:0:0:
207,231,70644,2,0,P|121:195|113:121,1,160
176,68,71894,6,0,P|194:103|196:143,1,80
132,216,72728,1,0,0:0:0:0:
40,196,73144,1,0,0:0:0:0:
64,288,73561,2,0,P|97:309|136:315,1,80
216,260,74394,5,0,0:0:0:0:
228,356,74811,1,0,0:0:0:0:
308,300,75228,2,0,L|398:332,1,80
376,232,76061,2,0,L|285:199,1,80
212,172,76894,1,0,0:0:0:0:
284,112,77311,5,0,0:0:0:0:
376,140,77728,2,0,B|368:184|384:220|384:220|348:212|308:216|308:216|344:304|272:364,1,320
228,276,79811,1,0,0:0:0:0:
160,344,80228,6,0,L|128:257,1,80
184,164,81061,1,0,0:0:0:0:
288,112,81478,2,0,L|363:139,1,80
410,246,82311,1,0,0:0:0:0:
256,192,82728,12,0,85644,0:0:0:0:
