osu file format v14

[General]
AudioFilename: audio.mp3
AudioLeadIn: 0
PreviewTime: 43123
Countdown: 0
SampleSet: Soft
StackLeniency: 0.4
Mode: 0
LetterboxInBreaks: 0
WidescreenStoryboard: 0

[Editor]
DistanceSpacing: 2
BeatDivisor: 2
GridSize: 16
TimelineZoom: 1

[Metadata]
Title:Sore wa Chiisana Hikari no Youna
TitleUnicode:それは小さな光のような
Artist:Sayuri
ArtistUnicode:さユり
Creator:-Genesis
Version:Insane
Source:
Tags:Boku dake ga inai Machi Erased Ending TV size
BeatmapID:1017757
BeatmapSetID:476499

[Difficulty]
HPDrainRate:6.5
CircleSize:4
OverallDifficulty:7.5
ApproachRate:8.2
SliderMultiplier:1.6
SliderTickRate:1

[Events]
//Background and Video events
0,0,"bg.jpg",0,0
//Break Periods
//Storyboard Layer 0 (Background)
//Storyboard Layer 1 (Fail)
//Storyboard Layer 2 (Pass)
//Storyboard Layer 3 (Foreground)
//Storyboard Sound Samples

[TimingPoints]
677,416.666666666667,4,2,0,60,1,0
677,-125,4,2,0,60,0,0
2290,416.666666666667,3,2,0,60,1,0
2290,-125,4,2,0,60,0,0
3123,416.666666666667,3,2,0,60,1,0
3123,-125,4,2,0,60,0,0
5623,416.666666666667,3,2,0,60,1,0
43123,-100,3,2,0,70,0,1
83227,-100,3,2,0,60,0,0

[Colours]
Combo1 : 99,97,101
Combo2 : 196,6,6
Combo3 : 253,153,2
Combo4 : 227,226,235
Combo5 : 255,128,64

[HitObjects]
303,145,677,6,0,P|354:178|382:262,1,128
369,333,1302,2,0,P|318:300|290:216,1,128
217,177,1927,6,0,L|105:186,1,112
50,264,2498,2,0,L|176:274,1,128
290,240,3123,6,0,P|329:193|389:203,1,128
455,133,3748,2,0,P|415:86|355:96,1,128
295,20,4373,5,0,0:0:0:0:
295,20,4789,1,2,0:0:0:0:
213,36,4998,1,0,0:0:0:0:
139,115,5206,1,2,0:0:0:0:
221,131,5415,1,0,0:0:0:0:
366,180,5623,6,0,P|404:248|391:326,1,160,2|0,0:0|0:0,0:0:0:0:
391,326,6248,1,0,0:0:0:0:
271,329,6456,2,0,L|177:317,1,80,2|0,0:0|0:0,0:0:0:0:
84,234,6873,6,0,P|158:208|232:234,1,160,2|0,0:0|0:0,0:0:0:0:
232,234,7498,1,0,0:0:0:0:
348,261,7706,2,0,L|437:253,1,80,2|0,0:0|0:0,0:0:0:0:
472,125,8123,6,0,P|411:75|332:74,1,160,2|0,0:0|0:0,0:0:0:0:
332,74,8748,1,0,0:0:0:0:
246,155,8956,2,0,L|229:250,1,80,2|0,0:0|0:0,0:0:0:0:
159,362,9373,6,0,P|99:310|84:233,1,160,2|0,0:0|0:0,0:0:0:0:
84,233,9998,1,0,0:0:0:0:
128,122,10206,2,0,L|137:38,1,80,2|0,0:0|0:0,0:0:0:0:
246,155,10623,6,0,L|266:344,1,160,2|0,0:0|0:0,0:0:0:0:
263,314,11248,1,0,0:0:0:0:
366,323,11456,1,2,0:0:0:0:
459,280,11664,1,0,0:0:0:0:
382,160,11873,6,0,L|283:-3,1,160,2|0,0:0|0:0,0:0:0:0:
299,23,12498,1,0,0:0:0:0:
201,49,12706,1,2,0:0:0:0:
128,122,12914,1,0,0:0:0:0:
128,281,13123,6,0,P|187:330|262:313,2,160,2|2|2,0:0|0:0|0:0,0:0:0:0:
128,281,14164,1,0,0:0:0:0:
248,217,14373,6,0,P|324:227|363:293,1,160,2|0,0:0|0:0,0:0:0:0:
363,293,14998,1,0,0:0:0:0:
478,261,15206,1,2,0:0:0:0:
478,261,15414,1,0,0:0:0:0:
393,179,15623,6,0,P|403:102|469:63,1,160,2|0,0:0|0:0,0:0:0:0:
469,63,16248,1,0,0:0:0:0:
353,92,16456,2,0,L|250:104,1,80,2|0,0:0|0:0,0:0:0:0:
150,41,16873,6,0,L|309:22,1,160,2|0,0:0|0:0,0:0:0:0:
308,22,17498,1,0,0:0:0:0:
251,172,17706,2,0,L|234:259,1,80,2|0,0:0|0:0,0:0:0:0:
312,343,18123,6,0,L|395:314,1,80,2|0,0:0|0:0,0:0:0:0:
429,204,18539,2,0,L|362:145,1,80,2|0,0:0|0:0,0:0:0:0:
235,93,18956,2,0,L|252:180,1,80,2|0,0:0|0:0,0:0:0:0:
174,264,19373,6,0,L|90:235,1,80,2|0,0:0|0:0,0:0:0:0:
57,125,19789,2,0,L|123:66,1,80,2|0,0:0|0:0,0:0:0:0:
236,5,20206,1,0,0:0:0:0:
236,5,20414,1,0,0:0:0:0:
331,102,20623,6,0,P|349:178|321:252,1,160,2|2,0:0|0:0,0:0:0:0:
321,252,21248,1,0,0:0:0:0:
442,191,21456,1,2,0:0:0:0:
460,293,21664,1,0,0:0:0:0:
339,354,21873,5,2,0:0:0:0:
321,252,22081,1,0,0:0:0:0:
223,216,22289,1,2,0:0:0:0:
87,233,22498,1,2,0:0:0:0:
105,131,22706,1,0,0:0:0:0:
203,95,22914,1,2,0:0:0:0:
352,151,23123,6,0,L|437:161,1,80,2|0,0:0|0:0,0:0:0:0:
282,85,23539,2,0,L|197:95,1,80,2|0,0:0|0:0,0:0:0:0:
370,116,23956,2,0,L|455:126,1,80,2|0,0:0|0:0,0:0:0:0:
325,12,24373,5,2,0:0:0:0:
325,12,24789,1,2,0:0:0:0:
443,32,24998,1,0,0:0:0:0:
352,152,25206,1,2,0:0:0:0:
234,172,25414,1,0,0:0:0:0:
325,292,25623,6,0,L|411:307,1,80,10|0,0:0|0:0,0:0:0:0:
247,338,26039,1,8,0:0:0:0:
247,338,26248,1,2,0:0:0:0:
124,280,26456,2,0,L|38:265,1,80,8|0,0:0|0:0,0:0:0:0:
205,253,26873,5,0,0:0:0:0:
205,253,27289,1,2,0:0:0:0:
325,245,27498,1,2,0:0:0:0:
259,146,27706,2,0,L|163:149,1,80
322,77,28123,6,0,L|418:80,1,80,10|0,0:0|0:0,0:0:0:0:
423,213,28539,2,0,L|519:216,1,80,10|0,0:0|0:0,0:0:0:0:
381,320,28956,2,0,L|285:317,1,80,8|0,0:0|0:0,0:0:0:0:
280,184,29372,6,0,L|184:181,1,80,0|0,0:0|0:0,0:0:0:0:
99,317,29789,1,10,0:0:0:0:
99,317,29998,1,2,0:0:0:0:
249,262,30206,1,8,0:0:0:0:
131,236,30414,1,0,0:0:0:0:
280,184,30623,6,0,L|376:187,1,80,10|0,0:0|0:0,0:0:0:0:
217,113,31039,2,0,L|301:67,1,80,8|2,0:0|0:0,0:0:0:0:
126,83,31456,2,0,L|176:1,1,80,8|0,0:0|0:0,0:0:0:0:
26,120,31873,5,2,0:0:0:0:
171,186,32081,1,0,0:0:0:0:
55,216,32289,1,2,0:0:0:0:
55,216,32498,1,2,0:0:0:0:
200,282,32706,2,0,L|291:298,1,80,8|0,0:0|0:0,0:0:0:0:
396,270,33123,6,0,L|338:111,1,160,10|0,0:0|0:0,0:0:0:0:
341,119,33748,1,2,0:0:0:0:
220,55,33956,1,8,0:0:0:0:
265,182,34164,1,0,0:0:0:0:
100,89,34373,5,10,0:0:0:0:
55,216,34581,1,0,0:0:0:0:
188,192,34789,1,2,0:0:0:0:
143,319,34998,1,2,0:0:0:0:
318,288,35206,2,0,L|411:266,1,80,8|0,0:0|0:0,0:0:0:0:
380,77,35623,5,2,0:0:0:0:
300,66,35831,1,8,0:0:0:0:
220,55,36039,1,8,0:0:0:0:
286,174,36248,1,2,0:0:0:0:
380,77,36456,1,8,0:0:0:0:
132,77,36873,5,10,0:0:0:0:
181,168,37081,1,0,0:0:0:0:
143,319,37289,1,10,0:0:0:0:
143,319,37498,1,2,0:0:0:0:
92,156,37706,2,0,L|9:137,1,80,8|0,0:0|0:0,0:0:0:0:
244,237,38123,6,0,L|416:276,1,160,2|2,0:0|0:0,0:0:0:0:
399,272,38748,1,0,0:0:0:0:
306,143,38956,2,0,L|223:124,1,80,8|0,0:0|0:0,0:0:0:0:
119,242,39373,2,0,L|144:323,1,80,10|0,0:0|0:0,0:0:0:0:
297,354,39789,2,0,L|354:291,1,80,10|2,0:0|0:0,0:0:0:0:
194,199,40206,1,8,0:0:0:0:
194,199,40623,5,8,0:0:0:0:
194,199,40831,1,2,0:0:0:0:
381,186,41039,2,0,L|468:158,1,80,0|2,0:0|0:0,0:0:0:0:
268,113,41456,2,0,L|181:85,1,80,0|2,0:0|0:0,0:0:0:0:
432,85,41873,6,0,L|460:172,1,80,8|0,0:0|0:0,0:0:0:0:
218,275,42289,2,0,L|190:188,1,80,10|0,0:0|0:0,0:0:0:0:
467,259,42706,2,0,L|442:335,1,80,10|0,0:0|0:0,0:0:0:0:
295,212,43123,5,6,0:0:0:0:
456,161,43331,1,0,0:0:0:0:
218,275,43539,1,2,0:0:0:0:
268,113,43747,1,0,0:0:0:0:
300,331,43956,1,8,0:0:0:0:
193,198,44164,1,0,0:0:0:0:
385,265,44373,5,2,0:0:0:0:
139,259,44581,1,0,0:0:0:0:
378,150,44789,2,0,P|417:147|455:160,1,80,2|0,0:0|0:0,0:0:0:0:
268,113,45206,2,0,P|265:73|278:35,1,80,8|0,0:0|0:0,0:0:0:0:
385,265,45623,5,2,0:0:0:0:
218,275,45831,1,0,0:0:0:0:
416,365,46039,1,2,0:0:0:0:
304,196,46247,1,0,0:0:0:0:
506,332,46456,1,8,0:0:0:0:
272,345,46664,1,0,0:0:0:0:
378,136,46873,5,2,0:0:0:0:
218,275,47081,1,0,0:0:0:0:
440,202,47290,1,2,0:0:0:0:
228,187,47498,1,0,0:0:0:0:
437,292,47707,1,8,0:0:0:0:
287,116,48122,5,2,0:0:0:0:
287,116,48331,1,0,0:0:0:0:
114,149,48539,2,0,L|25:153,1,80,2|0,0:0|0:0,0:0:0:0:
138,271,48956,2,0,L|227:275,1,80,8|0,0:0|0:0,0:0:0:0:
366,185,49373,5,2,0:0:0:0:
366,185,49582,1,0,0:0:0:0:
193,152,49790,2,0,L|104:148,1,80,2|0,0:0|0:0,0:0:0:0:
217,30,50206,2,0,L|306:26,1,80,8|0,0:0|0:0,0:0:0:0:
445,188,50623,6,0,L|356:184,1,80,2|0,0:0|0:0,0:0:0:0:
465,308,51039,2,0,L|376:304,1,80,2|0,0:0|0:0,0:0:0:0:
231,368,51456,2,0,L|320:372,1,80,8|0,0:0|0:0,0:0:0:0:
125,294,51873,5,2,0:0:0:0:
323,253,52081,1,0,0:0:0:0:
57,249,52289,1,2,0:0:0:0:
253,295,52497,1,0,0:0:0:0:
14,179,52706,1,8,0:0:0:0:
93,89,52914,1,0,0:0:0:0:
14,179,53123,5,6,0:0:0:0:
190,109,53331,1,0,0:0:0:0:
253,295,53539,2,0,L|276:385,1,80,2|0,0:0|0:0,0:0:0:0:
281,173,53956,1,8,0:0:0:0:
400,180,54164,1,0,0:0:0:0:
281,173,54373,6,0,L|177:192,1,80,2|0,0:0|0:0,0:0:0:0:
352,78,54789,2,0,L|456:97,1,80,2|0,0:0|0:0,0:0:0:0:
241,34,55206,1,8,0:0:0:0:
128,75,55414,1,0,0:0:0:0:
241,34,55623,5,2,0:0:0:0:
39,22,55831,1,0,0:0:0:0:
129,202,56039,2,0,L|233:221,1,80,2|0,0:0|0:0,0:0:0:0:
411,268,56456,2,0,L|307:287,1,80,8|0,0:0|0:0,0:0:0:0:
210,344,56873,5,2,0:0:0:0:
210,344,57081,1,0,0:0:0:0:
46,343,57289,1,2,0:0:0:0:
46,343,57498,1,0,0:0:0:0:
129,202,57706,2,0,L|210:134,1,80,8|0,0:0|0:0,0:0:0:0:
332,282,58123,6,0,L|322:176,1,80,2|0,0:0|0:0,0:0:0:0:
241,50,58539,1,2,0:0:0:0:
190,150,58748,1,0,0:0:0:0:
332,282,58956,2,0,L|342:388,1,80,8|0,0:0|0:0,0:0:0:0:
495,243,59373,6,0,L|485:137,1,80,2|0,0:0|0:0,0:0:0:0:
445,350,59789,1,2,0:0:0:0:
445,350,59998,1,0,0:0:0:0:
252,256,60206,2,0,L|139:246,1,80,8|0,0:0|0:0,0:0:0:0:
315,127,60623,6,0,L|428:137,1,80,2|0,0:0|0:0,0:0:0:0:
201,148,61039,1,2,0:0:0:0:
201,148,61248,1,0,0:0:0:0:
409,234,61456,2,0,P|414:273|404:311,1,80,8|0,0:0|0:0,0:0:0:0:
168,326,61873,6,0,P|162:286|172:248,1,80,2|0,0:0|0:0,0:0:0:0:
315,127,62289,2,0,P|320:166|310:204,1,80,8|8,0:0|0:0,0:0:0:0:
406,30,62706,2,0,P|437:53|458:87,1,80,8|8,0:0|0:0,0:0:0:0:
256,32,63123,5,6,0:0:0:0:
406,164,63331,1,0,0:0:0:0:
197,88,63539,1,2,0:0:0:0:
261,277,63747,1,0,0:0:0:0:
117,106,63956,1,8,0:0:0:0:
78,301,64164,1,0,0:0:0:0:
40,63,64373,5,2,0:0:0:0:
265,149,64581,1,0,0:0:0:0:
78,301,64789,2,0,L|170:333,1,80,2|0,0:0|0:0,0:0:0:0:
336,250,65206,2,0,L|244:282,1,80,8|0,0:0|0:0,0:0:0:0:
455,300,65623,5,2,0:0:0:0:
455,300,65831,1,0,0:0:0:0:
431,102,66039,2,0,L|419:9,1,80,2|0,0:0|0:0,0:0:0:0:
265,149,66456,2,0,L|277:242,1,80,8|0,0:0|0:0,0:0:0:0:
331,69,66873,5,2,0:0:0:0:
173,192,67081,1,0,0:0:0:0:
372,204,67289,1,2,0:0:0:0:
214,81,67497,1,0,0:0:0:0:
214,303,67706,2,0,L|226:396,1,80,8|0,0:0|0:0,0:0:0:0:
382,283,68123,6,0,L|372:204,2,80,2|0|2,0:0|0:0|0:0,0:0:0:0:
265,149,68748,2,0,L|275:228,2,80,0|8|0,0:0|0:0|0:0,0:0:0:0:
116,254,69373,5,2,0:0:0:0:
116,254,69581,1,0,0:0:0:0:
96,57,69789,2,0,L|179:37,1,80,2|0,0:0|0:0,0:0:0:0:
342,167,70206,2,0,L|259:147,1,80,8|0,0:0|0:0,0:0:0:0:
96,57,70623,5,2,0:0:0:0:
264,55,70831,1,0,0:0:0:0:
76,183,71039,2,0,B|124:167|156:183|156:183|188:199|234:183,1,160,2|8,0:0|0:0,0:0:0:0:
116,254,71664,1,0,0:0:0:0:
191,113,71873,5,2,0:0:0:0:
191,113,72081,1,0,0:0:0:0:
266,254,72289,1,2,0:0:0:0:
266,254,72498,1,0,0:0:0:0:
415,206,72706,2,0,P|427:243|424:283,1,80,8|0,0:0|0:0,0:0:0:0:
211,340,73123,6,0,P|186:264|192:184,1,160,6|2,0:0|0:0,0:0:0:0:
192,184,73748,1,0,0:0:0:0:
386,133,73956,2,0,P|407:166|414:205,1,80,8|0,0:0|0:0,0:0:0:0:
302,352,74373,6,0,L|303:257,1,80,2|0,0:0|0:0,0:0:0:0:
221,112,74789,2,0,P|199:145|192:184,1,80,2|0,0:0|0:0,0:0:0:0:
331,72,75206,2,0,P|312:36|282:10,1,80,8|0,0:0|0:0,0:0:0:0:
192,184,75623,6,0,P|188:223|201:261,2,80,6|0|2,0:0|0:0|0:0,0:0:0:0:
330,71,76248,2,0,P|343:109|340:149,2,80,0|8|0,0:0|0:0|0:0,0:0:0:0:
167,86,76873,6,0,P|131:103|104:132,1,80,2|0,0:0|0:0,0:0:0:0:
201,261,77289,2,0,P|191:299|196:338,1,80,2|0,0:0|0:0,0:0:0:0:
393,308,77706,2,0,P|402:269|397:230,1,80,8|0,0:0|0:0,0:0:0:0:
325,133,78123,5,6,0:0:0:0:
443,149,78331,1,0,0:0:0:0:
398,39,78539,1,2,0:0:0:0:
325,133,78748,1,0,0:0:0:0:
207,117,78956,1,8,0:0:0:0:
89,101,79164,1,0,0:0:0:0:
219,209,79373,6,0,L|322:224,1,80,2|0,0:0|0:0,0:0:0:0:
139,242,79789,1,2,0:0:0:0:
303,327,79998,2,0,L|406:342,1,80,0|8,0:0|0:0,0:0:0:0:
499,282,80414,1,0,0:0:0:0:
403,154,80623,6,0,P|367:136|327:136,1,80,6|0,0:0|0:0,0:0:0:0:
212,193,81039,1,2,0:0:0:0:
212,193,81248,1,0,0:0:0:0:
384,229,81456,2,0,P|423:228|459:211,1,80,8|0,0:0|0:0,0:0:0:0:
452,65,81873,5,2,0:0:0:0:
452,65,82081,1,0,0:0:0:0:
328,137,82289,1,2,0:0:0:0:
328,137,82498,1,0,0:0:0:0:
460,211,82706,1,8,0:0:0:0:
460,211,82914,1,0,0:0:0:0:
321,291,83123,5,4,0:0:0:0:
256,192,83227,12,0,85623,0:0:0:0:
