osu file format v14

[General]
AudioFilename: audio.mp3
AudioLeadIn: 0
PreviewTime: 42740
Countdown: 0
SampleSet: Soft
StackLeniency: 0.7
Mode: 0
LetterboxInBreaks: 0
WidescreenStoryboard: 1

[Editor]
DistanceSpacing: 1.4
BeatDivisor: 2
GridSize: 4
TimelineZoom: 1.9

[Metadata]
Title:Sore wa Chiisana Hikari no Youna
TitleUnicode:Sore wa Chiisana Hikari no Youna
Artist:Sayuri
ArtistUnicode:Sayuri
Creator:[ Marley ]
Version:Normal
Source:僕だけがいない街
Tags:
BeatmapID:1453381
BeatmapSetID:686704

[Difficulty]
HPDrainRate:2
CircleSize:2.8
OverallDifficulty:2
ApproachRate:2
SliderMultiplier:1
SliderTickRate:1

[Events]
//Background and Video events
0,0,"thumb-1920-684100.png",0,0
//Break Periods
//Storyboard Layer 0 (Background)
//Storyboard Layer 1 (Fail)
//Storyboard Layer 2 (Pass)
//Storyboard Layer 3 (Foreground)
//Storyboard Layer 4 (Overlay)
//Storyboard Sound Samples

[TimingPoints]
2740,416.666666666667,4,2,0,70,1,0

[HitObjects]
104,108,4406,6,0,P|96:152|120:208,1,100
224,200,5240,1,8,0:0:0:0:
176,300,5656,2,0,P|144:316|80:304,2,100
284,308,6906,1,8,0:0:0:0:
368,236,7323,2,0,P|388:176|372:132,2,100
272,184,8573,1,8,0:0:0:0:
184,120,8990,2,0,P|136:124|100:172,2,100
192,228,10240,5,8,0:0:0:0:
284,284,10656,2,0,L|360:208,1,100
296,120,11490,1,8,0:0:0:0:
192,88,11906,2,0,L|264:8,1,100
360,60,12740,5,8,0:0:0:0:
424,148,13156,1,0,0:0:0:0:
424,260,13573,1,8,0:0:0:0:
328,312,13990,2,0,P|280:316|232:280,1,100
284,188,14823,5,8,0:0:0:0:
272,80,15240,2,0,P|232:46|176:48,1,100
100,96,16073,1,8,0:0:0:0:
112,204,16490,2,0,P|151:227|204:224,1,100
284,160,17323,1,8,0:0:0:0:
352,248,17740,6,0,P|328:296|280:316,2,100
420,164,18990,2,8,P|416:112|384:68,2,100
308,164,20240,5,0,0:0:0:0:
208,120,20656,1,8,0:0:0:0:
120,184,21073,2,0,P|88:228|96:292,1,100
196,272,21906,2,8,P|240:232|360:284,1,200
440,204,23156,5,0,0:0:0:0:
372,116,23573,1,8,0:0:0:0:
456,44,23990,1,0,0:0:0:0:
180,251,25240,6,0,P|136:281|88:271,2,100,0|0|0,3:0|3:0|3:0,3:0:0:0:
116,164,26490,1,0,0:0:0:0:
188,84,26906,1,8,0:0:0:0:
292,120,27323,1,0,0:0:0:0:
280,228,27740,6,8,P|284:272|332:316,2,100,8|8|8,3:0|3:0|3:0,3:0:0:0:
388,204,28990,1,0,0:0:0:0:
380,96,29406,2,8,P|341:57|296:52,1,100,8|8,3:0|3:0,3:0:0:0:
248,144,30240,5,0,0:0:0:0:
180,232,30656,1,8,3:0:0:0:
248,320,31073,1,0,0:0:0:0:
340,256,31490,2,8,P|360:224|356:156,1,100,8|8,3:0|3:0,3:0:0:0:
255,193,32323,5,0,0:0:0:0:
216,96,32740,1,8,0:0:0:0:
108,112,33156,1,8,0:0:0:0:
92,220,33573,2,8,P|88:260|116:316,2,100,8|8|8,3:0|3:0|3:0,3:0:0:0:
204,220,34823,5,0,0:0:0:0:
212,112,35240,2,8,P|252:76|308:72,1,100,8|8,3:0|3:0,3:0:0:0:
364,156,36073,1,0,0:0:0:0:
356,264,36490,2,8,P|324:248|256:280,1,100,8|8,3:0|3:0,3:0:0:0:
200,356,37323,1,0,0:0:0:0:
112,292,37740,5,8,0:0:0:0:
188,212,38156,1,0,0:0:0:0:
100,144,38573,1,8,3:0:0:0:
176,64,38990,2,0,P|212:44|272:72,2,100,0|0|0,3:0|3:0|3:0,3:0:0:0:
224,164,40240,1,8,3:0:0:0:
304,244,40656,6,0,L|216:320,1,100,0|0,3:0|3:0,3:0:0:0:
332,348,41490,2,0,L|396:264,1,100,0|0,3:0|3:0,3:0:0:0:
368,160,42323,1,8,0:0:0:0:
288,84,42740,6,0,P|248:60|192:84,2,100
244,184,43990,1,8,0:0:0:0:
168,264,44406,2,0,P|128:224|124:172,1,100
164,80,45240,2,8,P|128:56|72:80,1,100
40,176,46073,1,0,0:0:0:0:
84,276,46490,1,8,0:0:0:0:
192,256,46906,2,0,P|216:212|272:204,1,100
368,228,47740,6,8,P|380:168|352:116,2,100
276,288,48990,1,0,0:0:0:0:
380,324,49406,1,8,0:0:0:0:
460,248,49823,1,0,0:0:0:0:
420,144,50240,2,8,P|400:100|408:44,2,100
324,200,51490,2,0,P|280:196|240:240,1,100
164,156,52323,1,8,0:0:0:0:
116,256,52740,6,0,L|220:300,1,100
272,204,53573,1,8,0:0:0:0:
312,100,53990,2,0,L|204:140,1,100
152,28,54823,1,8,0:0:0:0:
80,112,55240,6,0,P|60:144|68:212,2,100
172,172,56490,1,8,0:0:0:0:
268,120,56906,1,0,0:0:0:0:
340,204,57323,1,8,0:0:0:0:
288,300,57740,2,0,P|236:312|196:288,2,100
232,204,58990,5,8,0:0:0:0:
152,128,59406,1,0,0:0:0:0:
52,176,59823,1,8,0:0:0:0:
136,248,60240,2,0,P|124:308|148:360,2,100
244,268,61490,1,8,0:0:0:0:
344,220,61906,6,0,L|368:104,1,100
260,80,62740,1,8,0:0:0:0:
160,120,63156,1,0,0:0:0:0:
136,228,63573,1,8,0:0:0:0:
240,268,63990,2,0,P|292:252|312:208,1,100
352,112,64823,1,8,0:0:0:0:
420,200,65240,6,0,P|424:264|400:296,2,100
316,240,66490,2,8,P|288:204|288:152,2,100
228,308,67740,2,0,P|180:308|152:256,1,100
204,172,68573,2,8,P|208:104|184:64,1,100
88,104,69406,5,0,0:0:0:0:
48,208,69823,1,8,0:0:0:0:
100,304,70240,1,0,0:0:0:0:
208,284,70656,2,8,P|256:244|272:192,2,100
156,188,71906,5,0,0:0:0:0:
216,96,72323,1,8,0:0:0:0:
316,144,72740,2,0,L|404:196,2,100
288,252,73990,1,8,0:0:0:0:
200,320,74406,1,0,0:0:0:0:
132,232,74823,1,8,0:0:0:0:
92,128,75240,6,0,L|184:76,2,100
192,176,76490,1,8,0:0:0:0:
276,104,76906,1,0,0:0:0:0:
332,196,77323,1,8,0:0:0:0:
260,280,77740,6,0,P|224:300|136:124,1,300
212,80,79406,1,8,0:0:0:0:
308,132,79823,1,0,0:0:0:0:
208,176,80240,6,8,P|168:204|152:256,1,100
260,264,81073,1,0,0:0:0:0:
360,308,81490,2,8,P|376:268|348:208,1,100
284,140,82323,1,0,0:0:0:0:
256,192,82740,12,8,88573,0:0:0:0:
