osu file format v14

[General]
AudioFilename: audio.mp3
AudioLeadIn: 0
PreviewTime: 42740
Countdown: 0
SampleSet: Soft
StackLeniency: 0.7
Mode: 0
LetterboxInBreaks: 0
WidescreenStoryboard: 1

[Editor]
DistanceSpacing: 1.2
BeatDivisor: 4
GridSize: 4
TimelineZoom: 1.9

[Metadata]
Title:Sore wa Chiisana Hikari no Youna
TitleUnicode:Sore wa Chiisana Hikari no Youna
Artist:Sayuri
ArtistUnicode:Sayuri
Creator:[ Marley ]
Version:Hard
Source:僕だけがいない街
Tags:
BeatmapID:1453404
BeatmapSetID:686704

[Difficulty]
HPDrainRate:4
CircleSize:3.4
OverallDifficulty:6
ApproachRate:8
SliderMultiplier:1.2
SliderTickRate:1

[Events]
//Background and Video events
0,0,"thumb-1920-684100.png",0,0
//Break Periods
//Storyboard Layer 0 (Background)
//Storyboard Layer 1 (Fail)
//Storyboard Layer 2 (Pass)
//Storyboard Layer 3 (Foreground)
//Storyboard Layer 4 (Overlay)
//Storyboard Sound Samples

[TimingPoints]
2740,416.666666666667,4,2,0,70,1,0

[HitObjects]
80,144,4406,5,8,0:0:0:0:
136,92,4615,1,0,0:0:0:0:
208,108,4823,1,8,0:0:0:0:
240,172,5031,1,0,0:0:0:0:
208,236,5240,1,8,0:0:0:0:
24,128,5656,1,8,0:0:0:0:
84,224,6073,6,0,P|107:284|156:304,1,120,8|8,0:0|0:0,0:0:0:0:
320,328,6906,1,8,0:0:0:0:
372,184,7323,2,0,P|317:222|268:212,1,120,8|8,0:0|0:0,0:0:0:0:
100,216,8156,1,8,0:0:0:0:
136,108,8573,2,0,P|176:155|232:156,1,120,8|8,0:0|0:0,0:0:0:0:
324,144,9406,1,8,0:0:0:0:
388,88,9823,2,0,P|352:56|272:88,1,120,8|8,0:0|0:0,0:0:0:0:
164,240,10656,1,8,0:0:0:0:
108,184,11073,2,0,P|152:156|220:188,1,120,8|8,0:0|0:0,0:0:0:0:
304,216,11906,1,8,0:0:0:0:
368,272,12323,6,0,P|392:232|368:156,2,120,8|8|8,0:0|0:0|0:0,0:0:0:0:
232,232,13573,2,0,P|216:272|240:344,1,120,8|8,0:0|0:0,0:0:0:0:
312,284,14406,1,8,0:0:0:0:
312,160,14823,6,0,P|264:136|248:68,1,120,8|8,0:0|0:0,0:0:0:0:
328,72,15656,1,8,0:0:0:0:
204,208,16073,2,0,P|168:228|96:188,2,120,8|8|8,0:0|0:0|0:0,0:0:0:0:
160,124,17323,1,8,0:0:0:0:
324,72,17740,2,0,P|368:56|432:96,1,120,8|8,0:0|0:0,0:0:0:0:
344,168,18573,2,0,P|380:204|376:284,1,120,8|8,0:0|0:0,0:0:0:0:
296,244,19406,1,8,0:0:0:0:
168,188,19823,1,8,0:0:0:0:
312,152,20240,6,0,L|352:32,2,120,8|8|8,0:0|0:0|0:0,0:0:0:0:
156,104,21490,2,0,L|64:332,1,240,8|8,0:0|0:0,0:0:0:0:
240,292,22740,1,8,0:0:0:0:
328,144,23156,1,8,0:0:0:0:
356,300,23573,1,8,0:0:0:0:
208,192,23990,1,10,0:0:0:0:
92,72,25240,5,8,0:0:0:0:
92,72,25448,2,0,P|140:60|172:76,1,60,0|8,3:0|3:0,3:0:0:0:
128,176,25865,1,0,0:0:0:0:
56,240,26073,2,0,P|76:268|120:292,1,60,8|0,3:0|3:0,3:0:0:0:
272,228,26490,1,8,0:0:0:0:
424,144,26906,6,0,P|392:100|404:32,2,120,8|8|8,0:0|3:0|0:0,0:0:0:0:
324,292,28156,1,8,0:0:0:0:
176,288,28365,1,0,3:0:0:0:
140,156,28573,2,0,P|156:112|228:84,1,120,8|8,3:0|0:0,0:0:0:0:
224,176,29198,1,0,0:0:0:0:
460,84,29615,5,0,3:0:0:0:
460,84,29823,1,8,3:0:0:0:
408,208,30031,2,0,P|364:200|344:180,1,60,0|8,0:0|0:0,0:0:0:0:
284,72,30448,1,0,3:0:0:0:
216,144,30656,1,8,3:0:0:0:
144,76,30865,1,0,0:0:0:0:
96,172,31073,2,0,P|88:212|100:256,1,60,8|0,3:0|0:0,0:0:0:0:
184,268,31490,5,8,0:0:0:0:
276,172,31698,1,0,3:0:0:0:
300,296,31906,2,0,P|332:292|364:260,2,60,8|0|8,3:0|0:0|3:0,0:0:0:0:
196,168,32740,6,0,P|172:112|184:48,2,120,8|8|10,0:0|0:0|3:0,0:0:0:0:
276,96,33781,1,2,3:0:0:0:
68,124,33990,2,0,P|48:156|64:240,1,120,8|8,0:0|0:0,0:0:0:0:
148,184,34615,1,0,0:0:0:0:
216,296,34823,6,0,P|272:304|324:240,1,120,8|8,3:0|0:0,0:0:0:0:
256,156,35448,1,0,3:0:0:0:
256,156,35656,2,0,L|284:76,1,60,8|0,3:0|0:0,0:0:0:0:
160,56,36073,1,8,3:0:0:0:
136,280,36490,5,8,3:0:0:0:
136,280,36698,1,0,0:0:0:0:
136,280,36906,2,0,L|200:248,1,60,8|0,0:0|0:0,0:0:0:0:
256,332,37323,1,8,3:0:0:0:
372,208,37740,6,0,L|340:144,1,60,8|0,0:0|0:0,0:0:0:0:
252,204,38156,2,0,L|220:144,1,60,8|0,0:0|3:0,0:0:0:0:
132,216,38573,2,0,P|116:172|128:96,1,120,8|8,3:0|0:0,0:0:0:0:
232,48,39198,1,2,3:0:0:0:
32,132,39406,2,0,P|20:176|56:264,1,120,10|8,3:0|3:0,0:0:0:0:
168,296,40031,1,0,0:0:0:0:
300,205,40240,1,8,3:0:0:0:
383,319,40448,1,0,3:0:0:0:
416,184,40656,6,0,P|416:128|372:80,2,120,8|8|8,0:0|0:0|0:0,0:0:0:0:
304,168,41698,1,0,0:0:0:0:
144,192,41906,2,0,P|108:144|104:120,1,60,8|0,0:0|0:0,0:0:0:0:
208,300,42323,2,0,P|148:308|128:296,1,60,8|0,0:0|0:0,0:0:0:0:
360,120,42740,5,8,0:0:0:0:
388,288,42948,1,0,0:0:0:0:
280,216,43156,1,8,0:0:0:0:
440,192,43365,2,0,P|464:152|464:120,1,60,0|8,0:0|0:0,0:0:0:0:
320,52,43781,5,0,0:0:0:0:
221,139,43990,1,8,0:0:0:0:
124,52,44198,1,0,0:0:0:0:
56,152,44406,2,0,P|40:188|56:264,1,120,8|8,0:0|0:0,0:0:0:0:
200,244,45031,1,0,0:0:0:0:
352,176,45240,5,8,0:0:0:0:
308,328,45448,1,0,0:0:0:0:
404,268,45656,1,8,0:0:0:0:
232,216,45865,2,0,P|216:184|216:144,1,60,0|8,0:0|0:0,0:0:0:0:
312,80,46281,1,0,0:0:0:0:
92,140,46490,6,0,P|80:184|88:224,2,60,8|0|8,0:0|0:0|0:0,0:0:0:0:
216,172,47115,1,0,0:0:0:0:
156,296,47323,2,0,P|192:316|224:312,1,60,8|0,0:0|0:0,0:0:0:0:
320,88,47740,6,0,P|348:120|352:152,2,60,8|0|8,0:0|0:0|0:0,0:0:0:0:
264,240,48365,1,0,0:0:0:0:
340,328,48573,2,0,P|380:300|388:280,1,60,8|0,0:0|0:0,0:0:0:0:
464,176,48990,5,8,0:0:0:0:
352,120,49198,1,0,0:0:0:0:
456,48,49406,2,0,P|420:24|388:24,1,60,8|0,0:0|0:0,0:0:0:0:
288,56,49823,2,0,P|252:68|232:96,1,60,8|0,0:0|0:0,0:0:0:0:
152,264,50240,6,0,L|64:160,1,120,8|8,0:0|0:0,0:0:0:0:
152,104,50865,1,0,0:0:0:0:
232,172,51073,2,0,P|280:184|308:168,1,60,8|0,0:0|0:0,0:0:0:0:
420,72,51490,1,8,0:0:0:0:
472,220,51698,1,0,0:0:0:0:
356,288,51906,2,0,P|308:272|284:280,2,60,8|0|8,0:0|0:0|0:0,0:0:0:0:
116,256,52531,5,0,0:0:0:0:
76,172,52740,1,8,0:0:0:0:
156,124,52948,1,0,0:0:0:0:
72,60,53156,2,0,P|108:36|140:32,2,60,8|0|8,0:0|0:0|0:0,0:0:0:0:
244,72,53781,5,0,0:0:0:0:
304,152,53990,1,8,0:0:0:0:
224,212,54198,1,0,0:0:0:0:
304,280,54406,2,0,P|326:315|328:336,2,60,8|0|8,0:0|0:0|0:0,0:0:0:0:
432,280,55031,5,0,0:0:0:0:
480,184,55240,1,8,0:0:0:0:
384,144,55448,1,0,0:0:0:0:
456,68,55656,2,0,P|424:40|344:48,1,120,8|8,0:0|0:0,0:0:0:0:
236,36,56281,1,0,0:0:0:0:
160,200,56490,6,0,P|144:248|156:280,1,60,8|0,0:0|0:0,0:0:0:0:
252,256,56906,2,0,P|264:288|296:312,1,60,8|0,0:0|0:0,0:0:0:0:
356,216,57323,2,0,P|388:220|416:208,1,60,8|0,0:0|0:0,0:0:0:0:
256,64,57740,6,0,L|140:148,1,120,8|8,0:0|0:0,0:0:0:0:
252,216,58365,1,0,0:0:0:0:
96,280,58573,2,0,L|216:344,1,120,8|8,0:0|0:0,0:0:0:0:
300,272,59198,1,0,0:0:0:0:
416,208,59406,6,0,P|420:168|352:104,2,120,8|8|8,0:0|0:0|0:0,0:0:0:0:
288,172,60448,1,0,0:0:0:0:
80,168,60656,2,0,P|80:128|104:92,1,60,8|0,0:0|0:0,0:0:0:0:
184,148,61073,2,0,P|212:108|228:100,1,60,8|0,0:0|0:0,0:0:0:0:
368,264,61490,6,0,P|372:216|360:188,2,60,8|0|8,0:0|0:0|0:0,0:0:0:0:
176,292,62115,1,0,0:0:0:0:
176,292,62323,2,0,L|200:220,1,60,8|0,0:0|0:0,0:0:0:0:
380,68,62740,5,8,0:0:0:0:
332,232,62948,1,0,0:0:0:0:
440,172,63156,1,8,0:0:0:0:
268,120,63365,1,0,0:0:0:0:
380,68,63573,2,0,P|420:44|452:44,2,60,8|0|8,0:0|0:0|0:0,0:0:0:0:
264,204,64198,1,0,0:0:0:0:
264,56,64406,2,0,P|216:48|152:96,1,120,8|8,0:0|0:0,0:0:0:0:
136,240,65031,5,0,0:0:0:0:
260,324,65240,1,8,0:0:0:0:
240,196,65448,1,0,0:0:0:0:
156,340,65656,2,0,P|120:348|88:336,2,60,8|0|8,0:0|0:0|0:0,0:0:0:0:
56,172,66281,1,0,0:0:0:0:
252,56,66490,6,0,P|292:52|328:68,2,60,8|0|8,0:0|0:0|0:0,0:0:0:0:
328,180,67115,1,0,0:0:0:0:
244,264,67323,2,0,P|212:248|200:220,1,60,8|0,0:0|0:0,0:0:0:0:
440,256,67740,6,0,P|452:204|440:172,1,60,8|0,0:0|0:0,0:0:0:0:
384,88,68156,2,0,P|352:64|308:60,1,60,8|0,0:0|0:0,0:0:0:0:
200,168,68573,1,8,0:0:0:0:
300,304,68781,1,0,0:0:0:0:
144,300,68990,2,0,P|112:312|72:308,1,60,8|0,0:0|0:0,0:0:0:0:
96,152,69406,2,0,P|128:128|156:128,1,60,8|0,0:0|0:0,0:0:0:0:
248,252,69823,2,0,P|284:236|300:208,1,60,8|0,0:0|0:0,0:0:0:0:
280,44,70240,5,8,0:0:0:0:
436,128,70448,1,0,0:0:0:0:
328,228,70656,1,8,0:0:0:0:
376,40,70865,2,0,P|356:88|284:120,1,120
140,64,71490,5,8,0:0:0:0:
208,228,71698,1,0,0:0:0:0:
72,204,71906,1,8,0:0:0:0:
244,112,72115,2,0,P|296:96|320:108,2,60,0|8|0,0:0|0:0|0:0,0:0:0:0:
392,280,72740,6,0,L|256:312,1,120,8|8,0:0|0:0,0:0:0:0:
240,200,73365,1,0,0:0:0:0:
88,184,73573,2,0,L|208:120,1,120,8|8,0:0|0:0,0:0:0:0:
328,76,74198,1,0,0:0:0:0:
328,76,74406,1,8,0:0:0:0:
328,76,74615,6,0,P|352:120|352:144,1,60,0|8,0:0|0:0,0:0:0:0:
220,216,75031,1,0,0:0:0:0:
376,320,75240,1,8,0:0:0:0:
192,344,75448,2,0,L|260:296,1,60,0|8,0:0|0:0,0:0:0:0:
376,216,75865,1,0,0:0:0:0:
268,148,76073,2,0,P|232:144|208:128,2,60,8|0|8,0:0|0:0|0:0,0:0:0:0:
352,64,76698,1,0,0:0:0:0:
236,244,76906,1,8,0:0:0:0:
128,84,77115,1,0,0:0:0:0:
68,232,77323,6,0,P|80:272|116:288,1,60,8|0,0:0|0:0,0:0:0:0:
204,144,77740,1,8,0:0:0:0:
244,328,77948,1,0,0:0:0:0:
316,200,78156,5,8,0:0:0:0:
144,296,78365,1,0,0:0:0:0:
112,192,78573,5,8,0:0:0:0:
320,296,78781,1,0,0:0:0:0:
312,136,78990,6,0,P|336:96|336:68,2,60,8|0|8,0:0|0:0|0:0,0:0:0:0:
152,224,79615,2,0,P|120:200|112:160,2,60,0|8|0,0:0|0:0|0:0,0:0:0:0:
364,272,80240,6,0,P|404:248|408:180,1,120,8|8,0:0|0:0,0:0:0:0:
292,196,80865,1,0,0:0:0:0:
192,80,81073,1,8,0:0:0:0:
144,212,81281,1,0,0:0:0:0:
232,304,81490,6,0,P|280:324|348:284,1,120,8|8,0:0|0:0,0:0:0:0:
328,144,82115,5,0,0:0:0:0:
216,68,82323,1,8,0:0:0:0:
160,212,82531,1,0,0:0:0:0:
256,192,82740,12,8,88990,0:0:0:0:
