osu file format v14

[General]
AudioFilename: audio.mp3
AudioLeadIn: 0
PreviewTime: -1
Countdown: 1
SampleSet: None
StackLeniency: 0.7
Mode: 3
LetterboxInBreaks: 0
SpecialStyle: 0
WidescreenStoryboard: 0

[Editor]
DistanceSpacing: 0.6
BeatDivisor: 16
GridSize: 32
TimelineZoom: 1.5

[Metadata]
Title:Rura
TitleUnicode:Rura
Artist:Sayuri
ArtistUnicode:Sayuri
Creator:Arekkuso
Version:
Source:
Tags:
BeatmapID:1554780
BeatmapSetID:736730

[Difficulty]
HPDrainRate:0
CircleSize:4
OverallDifficulty:0
ApproachRate:5
SliderMultiplier:1.4
SliderTickRate:1

[Events]
//Background and Video events
//Break Periods
//Storyboard Layer 0 (Background)
//Storyboard Layer 1 (Fail)
//Storyboard Layer 2 (Pass)
//Storyboard Layer 3 (Foreground)
//Storyboard Sound Samples

[TimingPoints]
2900,600,4,1,0,100,1,0

[HitObjects]
51,192,500,128,0,1700:0:0:0:0:
460,192,500,128,0,1700:0:0:0:0:
153,192,2300,1,0,0:0:0:0:
358,192,2300,1,0,0:0:0:0:
64,192,2900,1,0,0:0:0:0:
448,192,2900,1,0,0:0:0:0:
448,192,3500,1,0,0:0:0:0:
192,192,4100,1,0,0:0:0:0:
192,192,4700,1,0,0:0:0:0:
192,192,5300,1,0,0:0:0:0:
320,192,5300,1,0,0:0:0:0:
448,192,5900,1,0,0:0:0:0:
448,192,6500,1,0,0:0:0:0:
64,192,7100,128,0,7700:0:0:0:0:
320,192,8300,1,0,0:0:0:0:
64,192,8900,128,0,9500:0:0:0:0:
320,192,9500,128,0,10100:0:0:0:0:
192,192,10100,128,0,10700:0:0:0:0:
448,192,10700,128,0,11300:0:0:0:0:
64,192,11300,128,0,11900:0:0:0:0:
320,192,11900,128,0,12500:0:0:0:0:
192,192,13100,1,0,0:0:0:0:
448,192,13700,128,0,14300:0:0:0:0:
64,192,14300,128,0,14900:0:0:0:0:
448,192,14900,128,0,15500:0:0:0:0:
64,192,15500,128,0,16100:0:0:0:0:
448,192,16100,128,0,16700:0:0:0:0:
64,192,16700,128,0,17300:0:0:0:0:
192,192,17300,128,0,17900:0:0:0:0:
320,192,17900,128,0,18500:0:0:0:0:
192,192,19100,1,0,0:0:0:0:
320,192,19100,128,0,19700:0:0:0:0:
192,192,19700,128,0,20300:0:0:0:0:
448,192,20300,128,0,20900:0:0:0:0:
192,192,20900,128,0,21500:0:0:0:0:
448,192,21500,128,0,22100:0:0:0:0:
64,192,22100,128,0,22700:0:0:0:0:
448,192,22700,128,0,23300:0:0:0:0:
192,192,23300,128,0,23900:0:0:0:0:
448,192,23900,128,0,24500:0:0:0:0:
64,192,25100,1,0,0:0:0:0:
320,192,25700,1,0,0:0:0:0:
192,192,26300,1,0,0:0:0:0:
448,192,26300,128,0,26900:0:0:0:0:
192,192,27500,1,0,0:0:0:0:
448,192,28700,128,0,29300:0:0:0:0:
64,192,29900,128,0,30500:0:0:0:0:
448,192,31100,128,0,31700:0:0:0:0:
64,192,32300,128,0,32900:0:0:0:0:
448,192,34100,128,0,34700:0:0:0:0:
64,192,35900,1,0,0:0:0:0:
448,192,36500,128,0,37100:0:0:0:0:
64,192,37700,128,0,38300:0:0:0:0:
448,192,38900,128,0,39500:0:0:0:0:
192,192,38900,1,0,0:0:0:0:
64,192,40100,128,0,40700:0:0:0:0:
192,192,40100,1,0,0:0:0:0:
448,192,41300,128,0,41900:0:0:0:0:
320,192,41300,1,0,0:0:0:0:
64,192,41900,128,0,42500:0:0:0:0:
192,192,41900,1,0,0:0:0:0:
448,192,43100,128,0,43700:0:0:0:0:
320,192,43100,1,0,0:0:0:0:
64,192,43700,128,0,44300:0:0:0:0:
192,192,43700,1,0,0:0:0:0:
320,192,44300,1,0,0:0:0:0:
448,192,44900,1,0,0:0:0:0:
64,192,44900,128,0,45500:0:0:0:0:
320,192,44900,1,0,0:0:0:0:
448,192,45500,128,0,46100:0:0:0:0:
320,192,45500,1,0,0:0:0:0:
64,192,46100,128,0,46700:0:0:0:0:
320,192,46100,1,0,0:0:0:0:
448,192,46700,128,0,47300:0:0:0:0:
192,192,46700,1,0,0:0:0:0:
64,192,47300,128,0,47900:0:0:0:0:
320,192,47300,1,0,0:0:0:0:
192,192,47900,1,0,0:0:0:0:
64,192,48500,128,0,49100:0:0:0:0:
320,192,48500,1,0,0:0:0:0:
192,192,49100,128,0,49700:0:0:0:0:
320,192,49100,1,0,0:0:0:0:
320,192,50300,128,0,50900:0:0:0:0:
192,192,50300,1,0,0:0:0:0:
320,192,52700,1,0,0:0:0:0:
192,192,53900,1,0,0:0:0:0:
320,192,54500,1,0,0:0:0:0:
192,192,55100,1,0,0:0:0:0:
448,192,55700,128,0,56300:0:0:0:0:
320,192,55700,1,0,0:0:0:0:
192,192,57500,128,0,58100:0:0:0:0:
320,192,57500,1,0,0:0:0:0:
192,192,59900,1,0,0:0:0:0:
320,192,59900,1,0,0:0:0:0:
64,192,60500,1,0,0:0:0:0:
320,192,60500,1,0,0:0:0:0:
320,192,61100,1,0,0:0:0:0:
192,192,61700,1,0,0:0:0:0:
320,192,61700,1,0,0:0:0:0:
320,192,62300,1,0,0:0:0:0:
192,192,62300,1,0,0:0:0:0:
448,192,62900,1,0,0:0:0:0:
192,192,62900,1,0,0:0:0:0:
64,192,63500,1,0,0:0:0:0:
320,192,63500,1,0,0:0:0:0:
192,192,63500,1,0,0:0:0:0:
448,192,63500,1,0,0:0:0:0:
192,192,64100,1,0,0:0:0:0:
448,192,64100,1,0,0:0:0:0:
320,192,64100,1,0,0:0:0:0:
64,192,64100,1,0,0:0:0:0:
64,192,64700,1,0,0:0:0:0:
448,192,64700,1,0,0:0:0:0:
192,192,64700,1,0,0:0:0:0:
192,192,65300,1,0,0:0:0:0:
320,192,65300,1,0,0:0:0:0:
448,192,65900,1,0,0:0:0:0:
192,192,65900,1,0,0:0:0:0:
448,192,66500,1,0,0:0:0:0:
192,192,66500,1,0,0:0:0:0:
320,192,66500,128,0,67100:0:0:0:0:
64,192,67100,1,0,0:0:0:0:
320,192,67100,1,0,0:0:0:0:
448,192,67100,128,0,67700:0:0:0:0:
320,192,67700,1,0,0:0:0:0:
64,192,67700,128,0,68300:0:0:0:0:
448,192,68300,1,0,0:0:0:0:
192,192,68300,1,0,0:0:0:0:
320,192,68300,128,0,68900:0:0:0:0:
64,192,68900,1,0,0:0:0:0:
192,192,68900,1,0,0:0:0:0:
448,192,68900,128,0,69500:0:0:0:0:
192,192,69500,1,0,0:0:0:0:
64,192,69500,128,0,70700:0:0:0:0:
192,192,70100,1,0,0:0:0:0:
320,192,70100,1,0,0:0:0:0:
448,192,70700,1,0,0:0:0:0:
320,192,70700,128,0,71300:0:0:0:0:
448,192,71300,1,0,0:0:0:0:
192,192,71300,128,0,71900:0:0:0:0:
64,192,71900,1,0,0:0:0:0:
192,192,71900,1,0,0:0:0:0:
320,192,71900,128,0,72500:0:0:0:0:
448,192,72500,1,0,0:0:0:0:
64,192,72500,128,0,73100:0:0:0:0:
64,192,73100,1,0,0:0:0:0:
320,192,73100,1,0,0:0:0:0:
448,192,73100,128,0,73700:0:0:0:0:
320,192,73700,1,0,0:0:0:0:
64,192,73700,1,0,0:0:0:0:
192,192,73700,128,0,74300:0:0:0:0:
320,192,74300,1,0,0:0:0:0:
64,192,74300,1,0,0:0:0:0:
448,192,74300,128,0,74900:0:0:0:0:
320,192,74900,1,0,0:0:0:0:
448,192,74900,1,0,0:0:0:0:
192,192,74900,1,0,0:0:0:0:
64,192,74900,128,0,75500:0:0:0:0:
192,192,75500,1,0,0:0:0:0:
448,192,75500,128,0,76100:0:0:0:0:
320,192,76100,1,0,0:0:0:0:
192,192,76100,1,0,0:0:0:0:
64,192,76100,128,0,76700:0:0:0:0:
448,192,76700,1,0,0:0:0:0:
64,192,76700,1,0,0:0:0:0:
320,192,76700,128,0,77300:0:0:0:0:
320,192,77300,1,0,0:0:0:0:
448,192,77300,1,0,0:0:0:0:
64,192,77300,1,0,0:0:0:0:
192,192,77300,128,0,77900:0:0:0:0:
64,192,77900,1,0,0:0:0:0:
192,192,77900,1,0,0:0:0:0:
320,192,77900,1,0,0:0:0:0:
448,192,77900,128,0,78500:0:0:0:0:
320,192,78500,1,0,0:0:0:0:
64,192,78500,1,0,0:0:0:0:
192,192,78500,128,0,79100:0:0:0:0:
192,192,79100,1,0,0:0:0:0:
320,192,79100,1,0,0:0:0:0:
448,192,79100,1,0,0:0:0:0:
64,192,79100,128,0,79700:0:0:0:0:
192,192,79700,1,0,0:0:0:0:
64,192,79700,1,0,0:0:0:0:
448,192,79700,1,0,0:0:0:0:
320,192,79700,128,0,80300:0:0:0:0:
320,192,80300,1,0,0:0:0:0:
192,192,80300,1,0,0:0:0:0:
64,192,80300,1,0,0:0:0:0:
320,192,80900,1,0,0:0:0:0:
448,192,80900,1,0,0:0:0:0:
192,192,80900,1,0,0:0:0:0:
64,192,80900,1,0,0:0:0:0:
192,192,81500,1,0,0:0:0:0:
448,192,81500,1,0,0:0:0:0:
320,192,82100,1,0,0:0:0:0:
192,192,82100,1,0,0:0:0:0:
192,192,82700,1,0,0:0:0:0:
320,192,82700,1,0,0:0:0:0:
448,192,82700,1,0,0:0:0:0:
192,192,83900,128,0,84500:0:0:0:0:
448,192,84500,128,0,85100:0:0:0:0:
64,192,85100,128,0,85700:0:0:0:0:
448,192,85700,128,0,86300:0:0:0:0:
64,192,86300,128,0,86900:0:0:0:0:
448,192,86900,128,0,87500:0:0:0:0:
320,192,87425,128,0,87537:0:0:0:0:
64,192,87500,128,0,88100:0:0:0:0:
320,192,87725,128,0,87800:0:0:0:0:
320,192,88100,128,0,88700:0:0:0:0:
192,192,88137,128,0,88250:0:0:0:0:
64,192,88700,128,0,89300:0:0:0:0:
448,192,89300,128,0,89900:0:0:0:0:
192,192,89600,128,0,89675:0:0:0:0:
64,192,89900,128,0,90500:0:0:0:0:
320,192,90050,128,0,90125:0:0:0:0:
448,192,90500,128,0,91100:0:0:0:0:
64,192,91100,128,0,91700:0:0:0:0:
448,192,91700,128,0,92300:0:0:0:0:
192,192,92300,1,0,0:0:0:0:
192,192,92900,1,0,0:0:0:0:
192,192,93500,1,0,0:0:0:0:
448,192,93500,1,0,0:0:0:0:
448,192,94100,1,0,0:0:0:0:
448,192,94700,1,0,0:0:0:0:
64,192,95300,1,0,0:0:0:0:
64,192,95900,1,0,0:0:0:0:
64,192,96500,1,0,0:0:0:0:
320,192,97100,128,0,97700:0:0:0:0:
192,192,98300,1,0,0:0:0:0:
64,192,98900,1,0,0:0:0:0:
64,192,99500,128,0,100100:0:0:0:0:
448,192,100700,128,0,101300:0:0:0:0:
320,192,101300,1,0,0:0:0:0:
192,192,101300,128,0,101900:0:0:0:0:
64,192,101900,1,0,0:0:0:0:
192,192,102500,1,0,0:0:0:0:
448,192,102500,1,0,0:0:0:0:
448,192,103100,1,0,0:0:0:0:
192,192,103100,1,0,0:0:0:0:
64,192,103700,1,0,0:0:0:0:
320,192,104300,128,0,104900:0:0:0:0:
64,192,104900,128,0,105500:0:0:0:0:
320,192,105500,128,0,106100:0:0:0:0:
192,192,106100,128,0,106700:0:0:0:0:
448,192,106700,128,0,107300:0:0:0:0:
192,192,107300,128,0,107900:0:0:0:0:
320,192,107900,128,0,108500:0:0:0:0:
64,192,108500,128,0,109100:0:0:0:0:
448,192,109100,1,0,0:0:0:0:
192,192,109700,128,0,110300:0:0:0:0:
448,192,110300,128,0,110900:0:0:0:0:
192,192,110900,128,0,111500:0:0:0:0:
320,192,113000,128,0,113400:0:0:0:0:
192,192,113500,128,0,113600:0:0:0:0:
64,192,113700,128,0,113900:0:0:0:0:
448,192,114000,128,0,114100:0:0:0:0:
192,192,114200,128,0,114400:0:0:0:0:
320,192,114500,128,0,114600:0:0:0:0:
320,192,114700,128,0,114800:0:0:0:0:
192,192,115000,128,0,115100:0:0:0:0:
448,192,115300,128,0,115400:0:0:0:0:
192,192,115500,128,0,115700:0:0:0:0:
320,192,115900,128,0,116100:0:0:0:0:
64,192,116200,128,0,116300:0:0:0:0:
320,192,116500,128,0,116600:0:0:0:0:
64,192,116800,128,0,116900:0:0:0:0:
320,192,117100,128,0,117200:0:0:0:0:
64,192,117400,128,0,117500:0:0:0:0:
448,192,117700,128,0,117800:0:0:0:0:
192,192,118000,128,0,118100:0:0:0:0:
320,192,119000,1,0,0:0:0:0:
64,192,119300,1,0,0:0:0:0:
320,192,119600,1,0,0:0:0:0:
320,192,119862,128,0,119937:0:0:0:0:
64,192,119900,1,0,0:0:0:0:
448,192,120200,1,0,0:0:0:0:
192,192,120200,128,0,120275:0:0:0:0:
64,192,120500,1,0,0:0:0:0:
320,192,120500,128,0,120612:0:0:0:0:
448,192,120800,1,0,0:0:0:0:
192,192,120837,128,0,120950:0:0:0:0:
320,192,121137,128,0,121250:0:0:0:0:
448,192,121300,1,0,0:0:0:0:
192,192,121475,128,0,121587:0:0:0:0:
320,192,121737,128,0,121850:0:0:0:0:
448,192,121800,1,0,0:0:0:0:
192,192,122075,128,0,122187:0:0:0:0:
64,192,122100,1,0,0:0:0:0:
320,192,122400,1,0,0:0:0:0:
64,192,122450,128,0,122487:0:0:0:0:
448,192,122637,128,0,122750:0:0:0:0:
192,192,122700,1,0,0:0:0:0:
448,192,123000,1,0,0:0:0:0:
192,192,123050,128,0,123125:0:0:0:0:
64,192,123300,1,0,0:0:0:0:
320,192,123350,128,0,123425:0:0:0:0:
320,192,123500,1,0,0:0:0:0:
64,192,123650,128,0,123762:0:0:0:0:
320,192,123987,128,0,124062:0:0:0:0:
320,192,124000,1,0,0:0:0:0:
64,192,124200,1,0,0:0:0:0:
320,192,124300,1,0,0:0:0:0:
192,192,124437,128,0,124512:0:0:0:0:
192,192,124625,128,0,124700:0:0:0:0:
448,192,124700,1,0,0:0:0:0:
192,192,124850,128,0,124887:0:0:0:0:
192,192,125000,1,0,0:0:0:0:
448,192,125000,128,0,125075:0:0:0:0:
320,192,125150,128,0,125225:0:0:0:0:
320,192,125300,128,0,125412:0:0:0:0:
64,192,125400,1,0,0:0:0:0:
320,192,125487,128,0,125562:0:0:0:0:
320,192,125600,1,0,0:0:0:0:
448,192,125637,128,0,125712:0:0:0:0:
448,192,125787,128,0,125900:0:0:0:0:
192,192,125900,1,0,0:0:0:0:
320,192,126012,128,0,126087:0:0:0:0:
320,192,126162,128,0,126275:0:0:0:0:
448,192,126200,1,0,0:0:0:0:
320,192,126350,128,0,126425:0:0:0:0:
192,192,126500,1,0,0:0:0:0:
320,192,126500,128,0,126612:0:0:0:0:
320,192,126687,128,0,126762:0:0:0:0:
320,192,126800,1,0,0:0:0:0:
64,192,127000,1,0,0:0:0:0:
448,192,127300,1,0,0:0:0:0:
192,192,127600,1,0,0:0:0:0:
448,192,127900,1,0,0:0:0:0:
64,192,128100,1,0,0:0:0:0:
192,192,128262,128,0,128337:0:0:0:0:
448,192,128500,1,0,0:0:0:0:
192,192,128600,128,0,128675:0:0:0:0:
64,192,128800,1,0,0:0:0:0:
192,192,128862,128,0,128975:0:0:0:0:
448,192,129100,1,0,0:0:0:0:
320,192,129200,128,0,129275:0:0:0:0:
192,192,129400,1,0,0:0:0:0:
320,192,129425,128,0,129537:0:0:0:0:
192,192,129700,1,0,0:0:0:0:
320,192,129725,128,0,129837:0:0:0:0:
192,192,130000,1,0,0:0:0:0:
320,192,130025,128,0,130137:0:0:0:0:
320,192,130287,128,0,130400:0:0:0:0:
192,192,130300,1,0,0:0:0:0:
192,192,130700,1,0,0:0:0:0:
64,192,130700,128,0,130775:0:0:0:0:
192,192,130962,128,0,131075:0:0:0:0:
448,192,131000,1,0,0:0:0:0:
192,192,131262,128,0,131375:0:0:0:0:
320,192,131400,1,0,0:0:0:0:
320,192,131600,128,0,131712:0:0:0:0:
192,192,131700,1,0,0:0:0:0:
320,192,131937,128,0,132012:0:0:0:0:
192,192,132100,1,0,0:0:0:0:
64,192,132800,128,0,132900:0:0:0:0:
320,192,133100,128,0,133300:0:0:0:0:
192,192,133175,128,0,133250:0:0:0:0:
192,192,133475,128,0,133550:0:0:0:0:
448,192,133500,128,0,133600:0:0:0:0:
192,192,133900,128,0,134000:0:0:0:0:
64,192,134200,128,0,134600:0:0:0:0:
448,192,134412,128,0,134525:0:0:0:0:
320,192,134800,128,0,135100:0:0:0:0:
64,192,135125,128,0,135200:0:0:0:0:
448,192,135400,128,0,135900:0:0:0:0:
192,192,135500,128,0,135575:0:0:0:0:
64,192,136100,128,0,136500:0:0:0:0:
320,192,136100,128,0,136175:0:0:0:0:
320,192,136700,128,0,137000:0:0:0:0:
64,192,137100,128,0,137200:0:0:0:0:
320,192,137300,128,0,137500:0:0:0:0:
64,192,137600,128,0,137700:0:0:0:0:
320,192,137900,128,0,138000:0:0:0:0:
64,192,138200,128,0,138300:0:0:0:0:
448,192,138400,128,0,138500:0:0:0:0:
64,192,138700,128,0,138800:0:0:0:0:
448,192,139000,128,0,139200:0:0:0:0:
64,192,139400,128,0,139500:0:0:0:0:
64,192,140100,1,0,0:0:0:0:
320,192,140400,1,0,0:0:0:0:
320,192,140600,1,0,0:0:0:0:
192,192,140900,1,0,0:0:0:0:
192,192,141100,1,0,0:0:0:0:
448,192,141300,1,0,0:0:0:0:
64,192,141600,1,0,0:0:0:0:
448,192,142000,1,0,0:0:0:0:
64,192,142300,1,0,0:0:0:0:
320,192,142600,1,0,0:0:0:0:
64,192,142900,1,0,0:0:0:0:
320,192,143100,1,0,0:0:0:0:
192,192,143400,1,0,0:0:0:0:
448,192,143700,1,0,0:0:0:0:
64,192,143787,128,0,146037:0:0:0:0:
320,192,144000,1,0,0:0:0:0:
192,192,144300,1,0,0:0:0:0:
320,192,144600,1,0,0:0:0:0:
192,192,144800,1,0,0:0:0:0:
320,192,145200,1,0,0:0:0:0:
320,192,145600,1,0,0:0:0:0:
192,192,145900,1,0,0:0:0:0:
64,192,146200,1,0,0:0:0:0:
320,192,146400,1,0,0:0:0:0:
64,192,146700,1,0,0:0:0:0:
320,192,147000,1,0,0:0:0:0:
192,192,147300,1,0,0:0:0:0:
320,192,147600,1,0,0:0:0:0:
64,192,147800,128,0,149037:0:0:0:0:
192,192,149187,128,0,149412:0:0:0:0:
320,192,149562,128,0,149750:0:0:0:0:
448,192,149937,128,0,150050:0:0:0:0:
320,192,150275,128,0,150387:0:0:0:0:
64,192,150575,128,0,150687:0:0:0:0:
320,192,150912,128,0,151025:0:0:0:0:
320,192,151212,128,0,151362:0:0:0:0:
192,192,152112,1,0,0:0:0:0:
320,192,152675,1,0,0:0:0:0:
64,192,152937,1,0,0:0:0:0:
64,192,153200,1,0,0:0:0:0:
448,192,153500,1,0,0:0:0:0:
192,192,153687,1,0,0:0:0:0:
320,192,153875,1,0,0:0:0:0:
320,192,154025,1,0,0:0:0:0:
192,192,154212,1,0,0:0:0:0:
192,192,154362,1,0,0:0:0:0:
320,192,154512,1,0,0:0:0:0:
320,192,154700,1,0,0:0:0:0:
64,192,154850,1,0,0:0:0:0:
320,192,155037,1,0,0:0:0:0:
448,192,155187,1,0,0:0:0:0:
64,192,155412,1,0,0:0:0:0:
320,192,155600,1,0,0:0:0:0:
320,192,155787,1,0,0:0:0:0:
192,192,155975,1,0,0:0:0:0:
64,192,156387,1,0,0:0:0:0:
320,192,156537,1,0,0:0:0:0:
320,192,156762,1,0,0:0:0:0:
192,192,156912,1,0,0:0:0:0:
448,192,157137,1,0,0:0:0:0:
320,192,157362,1,0,0:0:0:0:
192,192,157475,1,0,0:0:0:0:
64,192,157625,1,0,0:0:0:0:
448,192,157775,1,0,0:0:0:0:
320,192,157887,1,0,0:0:0:0:
192,192,158037,1,0,0:0:0:0:
192,192,158225,1,0,0:0:0:0:
320,192,158412,1,0,0:0:0:0:
320,192,158562,1,0,0:0:0:0:
320,192,158750,1,0,0:0:0:0:
64,192,158937,1,0,0:0:0:0:
192,192,159125,1,0,0:0:0:0:
192,192,159350,1,0,0:0:0:0:
448,192,159612,1,0,0:0:0:0:
192,192,159762,1,0,0:0:0:0:
64,192,159950,1,0,0:0:0:0:
320,192,160212,1,0,0:0:0:0:
448,192,160437,1,0,0:0:0:0:
192,192,160587,1,0,0:0:0:0:
64,192,160737,1,0,0:0:0:0:
64,192,160962,1,0,0:0:0:0:
320,192,161150,1,0,0:0:0:0:
448,192,161337,1,0,0:0:0:0:
320,192,161525,1,0,0:0:0:0:
192,192,161675,1,0,0:0:0:0:
64,192,161862,1,0,0:0:0:0:
64,192,162050,1,0,0:0:0:0:
320,192,162237,1,0,0:0:0:0:
448,192,162425,1,0,0:0:0:0:
448,192,162612,1,0,0:0:0:0:
192,192,162762,1,0,0:0:0:0:
64,192,162950,1,0,0:0:0:0:
64,192,163137,1,0,0:0:0:0:
320,192,163400,1,0,0:0:0:0:
448,192,163550,1,0,0:0:0:0:
448,192,163737,1,0,0:0:0:0:
192,192,163925,1,0,0:0:0:0:
64,192,164075,1,0,0:0:0:0:
64,192,164300,1,0,0:0:0:0:
192,192,164487,1,0,0:0:0:0:
448,192,164675,1,0,0:0:0:0:
448,192,164862,1,0,0:0:0:0:
320,192,165050,1,0,0:0:0:0:
192,192,165237,1,0,0:0:0:0:
64,192,165425,1,0,0:0:0:0:
192,192,165612,1,0,0:0:0:0:
320,192,165800,1,0,0:0:0:0:
448,192,165987,1,0,0:0:0:0:
320,192,166175,1,0,0:0:0:0:
64,192,166400,1,0,0:0:0:0:
64,192,166625,1,0,0:0:0:0:
320,192,166812,1,0,0:0:0:0:
448,192,167000,1,0,0:0:0:0:
448,192,167187,1,0,0:0:0:0:
192,192,168050,128,0,168200:0:0:0:0:
320,192,168312,128,0,168387:0:0:0:0:
320,192,168462,128,0,168575:0:0:0:0:
320,192,168650,128,0,168762:0:0:0:0:
64,192,168875,128,0,168987:0:0:0:0:
192,192,169100,128,0,169175:0:0:0:0:
320,192,169250,128,0,169362:0:0:0:0:
448,192,169475,128,0,169587:0:0:0:0:
192,192,169737,128,0,169850:0:0:0:0:
64,192,169925,128,0,170037:0:0:0:0:
320,192,170150,128,0,170262:0:0:0:0:
448,192,170337,128,0,170450:0:0:0:0:
320,192,170562,128,0,170675:0:0:0:0:
192,192,170712,128,0,170862:0:0:0:0:
64,192,170937,128,0,171050:0:0:0:0:
320,192,171200,128,0,171312:0:0:0:0:
448,192,171387,128,0,171500:0:0:0:0:
448,192,171575,128,0,171687:0:0:0:0:
192,192,171762,128,0,171912:0:0:0:0:
64,192,171950,128,0,172062:0:0:0:0:
64,192,172137,128,0,172250:0:0:0:0:
320,192,172325,128,0,172437:0:0:0:0:
320,192,172550,128,0,172625:0:0:0:0:
448,192,172700,128,0,172850:0:0:0:0:
320,192,172925,128,0,173075:0:0:0:0:
192,192,173112,128,0,173262:0:0:0:0:
192,192,173337,128,0,173450:0:0:0:0:
64,192,173562,128,0,173675:0:0:0:0:
64,192,173787,128,0,173900:0:0:0:0:
64,192,173975,128,0,174087:0:0:0:0:
192,192,174162,128,0,174275:0:0:0:0:
320,192,174350,128,0,174500:0:0:0:0:
320,192,174575,128,0,174687:0:0:0:0:
448,192,174762,128,0,174875:0:0:0:0:
448,192,174987,128,0,175062:0:0:0:0:
448,192,175175,128,0,175325:0:0:0:0:
192,192,175400,128,0,175550:0:0:0:0:
192,192,175625,128,0,175737:0:0:0:0:
64,192,175850,128,0,175962:0:0:0:0:
192,192,176037,128,0,176150:0:0:0:0:
192,192,176225,128,0,176337:0:0:0:0:
320,192,176412,128,0,176487:0:0:0:0:
320,192,176600,128,0,176675:0:0:0:0:
448,192,176750,128,0,176825:0:0:0:0:
320,192,176900,128,0,177012:0:0:0:0:
192,192,177125,128,0,177237:0:0:0:0:
64,192,177312,128,0,177425:0:0:0:0:
64,192,177462,128,0,177575:0:0:0:0:
192,192,177650,128,0,177725:0:0:0:0:
320,192,177837,128,0,177912:0:0:0:0:
320,192,177987,128,0,178100:0:0:0:0:
448,192,178175,128,0,178250:0:0:0:0:
448,192,178362,128,0,178475:0:0:0:0:
320,192,178587,128,0,178662:0:0:0:0:
192,192,178737,128,0,178850:0:0:0:0:
192,192,178925,128,0,179000:0:0:0:0:
64,192,179150,128,0,179187:0:0:0:0:
192,192,180387,1,0,0:0:0:0:
192,192,181175,128,0,181625:0:0:0:0:
448,192,181700,128,0,182075:0:0:0:0:
64,192,182262,128,0,182637:0:0:0:0:
448,192,182825,128,0,183162:0:0:0:0:
192,192,183462,128,0,183875:0:0:0:0:
192,192,184100,128,0,184437:0:0:0:0:
64,192,185000,128,0,185112:0:0:0:0:
192,192,185112,128,0,185150:0:0:0:0:
320,192,185300,128,0,185487:0:0:0:0:
320,192,185637,128,0,185712:0:0:0:0:
192,192,185787,128,0,185900:0:0:0:0:
448,192,186125,128,0,186237:0:0:0:0:
64,192,186312,128,0,186387:0:0:0:0:
320,192,186462,128,0,186575:0:0:0:0:
64,192,186762,128,0,186875:0:0:0:0:
320,192,186875,128,0,186950:0:0:0:0:
192,192,187137,128,0,187250:0:0:0:0:
64,192,187437,128,0,187550:0:0:0:0:
192,192,187700,128,0,187775:0:0:0:0:
320,192,187925,128,0,188037:0:0:0:0:
192,192,188225,128,0,188300:0:0:0:0:
192,192,188375,128,0,188450:0:0:0:0:
192,192,188675,128,0,188750:0:0:0:0:
320,192,188825,128,0,188937:0:0:0:0:
320,192,189237,128,0,189350:0:0:0:0:
320,192,189462,128,0,189650:0:0:0:0:
192,192,189762,128,0,189875:0:0:0:0:
192,192,189987,128,0,190100:0:0:0:0:
64,192,190062,128,0,190137:0:0:0:0:
448,192,190325,128,0,190437:0:0:0:0:
320,192,190662,128,0,190775:0:0:0:0:
64,192,190887,128,0,190925:0:0:0:0:
320,192,191037,128,0,191187:0:0:0:0:
192,192,191337,128,0,191450:0:0:0:0:
192,192,191600,128,0,191712:0:0:0:0:
320,192,191900,128,0,192012:0:0:0:0:
320,192,192162,128,0,192275:0:0:0:0:
192,192,192387,128,0,192537:0:0:0:0:
64,192,192687,128,0,192800:0:0:0:0:
64,192,193062,128,0,193137:0:0:0:0:
320,192,193287,128,0,193400:0:0:0:0:
448,192,193550,128,0,193662:0:0:0:0:
320,192,193887,128,0,194000:0:0:0:0:
192,192,194225,128,0,194337:0:0:0:0:
192,192,194487,128,0,194637:0:0:0:0:
64,192,194787,128,0,194900:0:0:0:0:
192,192,195050,128,0,195125:0:0:0:0:
320,192,195237,128,0,195275:0:0:0:0:
448,192,195387,128,0,195462:0:0:0:0:
320,192,195650,128,0,195762:0:0:0:0:
192,192,195912,128,0,196025:0:0:0:0:
192,192,196137,128,0,196212:0:0:0:0:
64,192,196325,128,0,196400:0:0:0:0:
192,192,196550,128,0,196625:0:0:0:0:
320,192,196700,128,0,196812:0:0:0:0:
448,192,196925,128,0,197037:0:0:0:0:
64,192,197187,128,0,197300:0:0:0:0:
64,192,197375,128,0,197450:0:0:0:0:
320,192,197562,128,0,197675:0:0:0:0:
448,192,197787,128,0,197862:0:0:0:0:
192,192,198012,128,0,198125:0:0:0:0:
192,192,198200,128,0,198275:0:0:0:0:
448,192,198387,128,0,198500:0:0:0:0:
320,192,198612,128,0,198725:0:0:0:0:
192,192,198837,128,0,198950:0:0:0:0:
64,192,199100,128,0,199175:0:0:0:0:
192,192,199287,128,0,199362:0:0:0:0:
320,192,199475,128,0,199550:0:0:0:0:
320,192,199662,128,0,199737:0:0:0:0:
320,192,199850,128,0,199962:0:0:0:0:
64,192,200075,128,0,200187:0:0:0:0:
320,192,200262,128,0,200375:0:0:0:0:
320,192,200487,128,0,200600:0:0:0:0:
320,192,200675,128,0,200825:0:0:0:0:
64,192,200937,128,0,201050:0:0:0:0:
320,192,201162,128,0,201237:0:0:0:0:
448,192,201350,128,0,201462:0:0:0:0:
320,192,201575,128,0,201725:0:0:0:0:
192,192,201800,128,0,201912:0:0:0:0:
64,192,202062,128,0,202137:0:0:0:0:
320,192,202212,128,0,202325:0:0:0:0:
320,192,202400,128,0,202512:0:0:0:0:
64,192,203150,1,0,0:0:0:0:
192,192,203337,1,0,0:0:0:0:
320,192,203487,1,0,0:0:0:0:
448,192,203637,1,0,0:0:0:0:
448,192,203825,1,0,0:0:0:0:
192,192,204087,1,0,0:0:0:0:
64,192,204312,1,0,0:0:0:0:
448,192,204500,1,0,0:0:0:0:
320,192,204725,1,0,0:0:0:0:
192,192,204950,1,0,0:0:0:0:
320,192,205137,1,0,0:0:0:0:
192,192,205362,1,0,0:0:0:0:
64,192,205550,1,0,0:0:0:0:
448,192,205775,1,0,0:0:0:0:
64,192,206037,1,0,0:0:0:0:
320,192,206187,1,0,0:0:0:0:
320,192,206600,1,0,0:0:0:0:
64,192,206787,1,0,0:0:0:0:
320,192,207012,1,0,0:0:0:0:
320,192,207237,1,0,0:0:0:0:
192,192,207425,1,0,0:0:0:0:
192,192,207650,1,0,0:0:0:0:
64,192,207912,1,0,0:0:0:0:
192,192,208137,1,0,0:0:0:0:
320,192,208287,1,0,0:0:0:0:
320,192,208475,1,0,0:0:0:0:
448,192,208662,1,0,0:0:0:0:
192,192,208887,1,0,0:0:0:0:
64,192,209075,1,0,0:0:0:0:
64,192,209300,1,0,0:0:0:0:
64,192,209450,1,0,0:0:0:0:
192,192,209937,128,0,210050:0:0:0:0:
192,192,210162,128,0,210237:0:0:0:0:
448,192,210350,128,0,210500:0:0:0:0:
192,192,210612,128,0,210762:0:0:0:0:
320,192,210837,128,0,210950:0:0:0:0:
64,192,211100,128,0,211212:0:0:0:0:
320,192,211325,128,0,211437:0:0:0:0:
448,192,211850,128,0,211962:0:0:0:0:
64,192,212037,128,0,212150:0:0:0:0:
448,192,212225,128,0,212375:0:0:0:0:
64,192,212450,128,0,212562:0:0:0:0:
320,192,212637,128,0,212712:0:0:0:0:
448,192,212825,128,0,212937:0:0:0:0:
192,192,213050,128,0,213200:0:0:0:0:
192,192,213650,128,0,213837:0:0:0:0:
320,192,213950,128,0,214137:0:0:0:0:
192,192,214662,128,0,214887:0:0:0:0:
448,192,214962,128,0,215112:0:0:0:0:
320,192,215187,128,0,215300:0:0:0:0:
192,192,215412,128,0,215525:0:0:0:0:
64,192,215787,128,0,215900:0:0:0:0:
320,192,216012,128,0,216125:0:0:0:0:
448,192,216200,128,0,216312:0:0:0:0:
448,192,216425,128,0,216537:0:0:0:0:
320,192,216612,128,0,216725:0:0:0:0:
192,192,216800,128,0,216875:0:0:0:0:
192,192,216987,128,0,217100:0:0:0:0:
448,192,217212,128,0,217362:0:0:0:0:
64,192,217437,128,0,217550:0:0:0:0:
64,192,217625,128,0,217812:0:0:0:0:
320,192,218525,1,0,0:0:0:0:
320,192,218712,1,0,0:0:0:0:
64,192,218900,1,0,0:0:0:0:
320,192,218937,1,0,0:0:0:0:
192,192,218975,1,0,0:0:0:0:
64,192,219200,1,0,0:0:0:0:
64,192,219237,1,0,0:0:0:0:
320,192,219500,1,0,0:0:0:0:
320,192,219762,1,0,0:0:0:0:
320,192,219950,1,0,0:0:0:0:
320,192,220100,1,0,0:0:0:0:
320,192,220250,1,0,0:0:0:0:
448,192,221525,1,0,0:0:0:0:
320,192,221600,1,0,0:0:0:0:
64,192,221675,1,0,0:0:0:0:
320,192,221787,1,0,0:0:0:0:
320,192,221975,1,0,0:0:0:0:
64,192,221975,1,0,0:0:0:0:
192,192,222275,1,0,0:0:0:0:
448,192,222387,1,0,0:0:0:0:
192,192,222537,1,0,0:0:0:0:
320,192,222612,1,0,0:0:0:0:
448,192,222725,1,0,0:0:0:0:
320,192,222875,1,0,0:0:0:0:
192,192,222912,1,0,0:0:0:0:
320,192,223137,1,0,0:0:0:0:
192,192,223137,128,0,223175:0:0:0:0:
448,192,223250,128,0,223287:0:0:0:0:
192,192,223287,128,0,223362:0:0:0:0:
192,192,223475,128,0,223512:0:0:0:0:
320,192,223550,128,0,223587:0:0:0:0:
64,192,223700,128,0,223775:0:0:0:0:
320,192,223775,1,0,0:0:0:0:
192,192,223887,1,0,0:0:0:0:
320,192,223925,128,0,223962:0:0:0:0:
320,192,224075,128,0,224150:0:0:0:0:
192,192,224225,128,0,224262:0:0:0:0:
192,192,224337,128,0,224412:0:0:0:0:
448,192,224487,128,0,224562:0:0:0:0:
320,192,224562,1,0,0:0:0:0:
192,192,224712,1,0,0:0:0:0:
192,192,224825,1,0,0:0:0:0:
320,192,224975,1,0,0:0:0:0:
192,192,225162,1,0,0:0:0:0:
192,192,225312,1,0,0:0:0:0:
192,192,225387,1,0,0:0:0:0:
192,192,225500,1,0,0:0:0:0:
192,192,225537,1,0,0:0:0:0:
192,192,225650,1,0,0:0:0:0:
192,192,225687,1,0,0:0:0:0:
192,192,225762,1,0,0:0:0:0:
192,192,225800,1,0,0:0:0:0:
192,192,225837,1,0,0:0:0:0:
192,192,225875,1,0,0:0:0:0:
320,192,225912,1,0,0:0:0:0:
192,192,225912,1,0,0:0:0:0:
192,192,225950,1,0,0:0:0:0:
192,192,225987,1,0,0:0:0:0:
192,192,226025,1,0,0:0:0:0:
192,192,226062,1,0,0:0:0:0:
192,192,226100,1,0,0:0:0:0:
192,192,226137,1,0,0:0:0:0:
192,192,226175,1,0,0:0:0:0:
192,192,226212,1,0,0:0:0:0:
192,192,227075,1,0,0:0:0:0:
192,192,227225,1,0,0:0:0:0:
192,192,227337,1,0,0:0:0:0:
192,192,227412,1,0,0:0:0:0:
192,192,227525,1,0,0:0:0:0:
192,192,227600,1,0,0:0:0:0:
192,192,227675,1,0,0:0:0:0:
192,192,227712,1,0,0:0:0:0:
192,192,227787,1,0,0:0:0:0:
192,192,227825,1,0,0:0:0:0:
192,192,227862,1,0,0:0:0:0:
192,192,227900,1,0,0:0:0:0:
192,192,227937,1,0,0:0:0:0:
192,192,227975,1,0,0:0:0:0:
192,192,228012,1,0,0:0:0:0:
192,192,228050,1,0,0:0:0:0:
192,192,228087,1,0,0:0:0:0:
192,192,228125,1,0,0:0:0:0:
320,192,228762,1,0,0:0:0:0:
320,192,229025,1,0,0:0:0:0:
192,192,229212,1,0,0:0:0:0:
320,192,229325,1,0,0:0:0:0:
64,192,229362,1,0,0:0:0:0:
192,192,229400,1,0,0:0:0:0:
320,192,229437,1,0,0:0:0:0:
192,192,229512,1,0,0:0:0:0:
192,192,229550,1,0,0:0:0:0:
320,192,229625,1,0,0:0:0:0:
64,192,229662,1,0,0:0:0:0:
64,192,229962,1,0,0:0:0:0:
320,192,229962,1,0,0:0:0:0:
448,192,230000,1,0,0:0:0:0:
192,192,230000,1,0,0:0:0:0:
64,192,230037,1,0,0:0:0:0:
320,192,230037,1,0,0:0:0:0:
192,192,230075,1,0,0:0:0:0:
448,192,230075,1,0,0:0:0:0:
320,192,230112,1,0,0:0:0:0:
64,192,230112,1,0,0:0:0:0:
192,192,230150,1,0,0:0:0:0:
448,192,230150,1,0,0:0:0:0:
320,192,230187,1,0,0:0:0:0:
64,192,230187,1,0,0:0:0:0:
192,192,230225,1,0,0:0:0:0:
448,192,230225,1,0,0:0:0:0:
320,192,230262,1,0,0:0:0:0:
64,192,230262,1,0,0:0:0:0:
192,192,230300,1,0,0:0:0:0:
448,192,230300,1,0,0:0:0:0:
320,192,230337,1,0,0:0:0:0:
64,192,230337,1,0,0:0:0:0:
192,192,230375,1,0,0:0:0:0:
448,192,230375,1,0,0:0:0:0:
320,192,230412,1,0,0:0:0:0:
64,192,230412,1,0,0:0:0:0:
192,192,230450,1,0,0:0:0:0:
448,192,230450,1,0,0:0:0:0:
320,192,230487,1,0,0:0:0:0:
64,192,230487,1,0,0:0:0:0:
192,192,230525,1,0,0:0:0:0:
448,192,230525,1,0,0:0:0:0:
64,192,230562,1,0,0:0:0:0:
320,192,230562,1,0,0:0:0:0:
448,192,230600,1,0,0:0:0:0:
192,192,230600,1,0,0:0:0:0:
64,192,231012,128,0,231050:0:0:0:0:
320,192,231012,128,0,231050:0:0:0:0:
448,192,231087,128,0,231125:0:0:0:0:
192,192,231087,128,0,231125:0:0:0:0:
320,192,231162,128,0,231200:0:0:0:0:
64,192,231162,128,0,231200:0:0:0:0:
192,192,231237,128,0,231275:0:0:0:0:
448,192,231237,128,0,231275:0:0:0:0:
64,192,231312,128,0,231350:0:0:0:0:
320,192,231312,128,0,231350:0:0:0:0:
448,192,231387,128,0,231425:0:0:0:0:
192,192,231387,128,0,231425:0:0:0:0:
64,192,231462,128,0,231500:0:0:0:0:
320,192,231462,128,0,231500:0:0:0:0:
448,192,231537,128,0,231575:0:0:0:0:
192,192,231537,128,0,231575:0:0:0:0:
64,192,231612,128,0,231650:0:0:0:0:
320,192,231612,128,0,231650:0:0:0:0:
448,192,231687,128,0,231725:0:0:0:0:
192,192,231687,128,0,231725:0:0:0:0:
64,192,231762,128,0,231800:0:0:0:0:
320,192,231762,128,0,231800:0:0:0:0:
64,192,231837,128,0,231950:0:0:0:0:
192,192,231837,128,0,231950:0:0:0:0:
320,192,231837,128,0,231950:0:0:0:0:
448,192,231837,128,0,231950:0:0:0:0:
64,192,232175,1,0,0:0:0:0:
192,192,232175,1,0,0:0:0:0:
320,192,232175,1,0,0:0:0:0:
448,192,232175,1,0,0:0:0:0:
448,192,232212,1,0,0:0:0:0:
320,192,232212,1,0,0:0:0:0:
192,192,232212,1,0,0:0:0:0:
64,192,232212,1,0,0:0:0:0:
64,192,232250,1,0,0:0:0:0:
192,192,232250,1,0,0:0:0:0:
320,192,232250,1,0,0:0:0:0:
448,192,232250,1,0,0:0:0:0:
448,192,232287,1,0,0:0:0:0:
320,192,232287,1,0,0:0:0:0:
192,192,232287,1,0,0:0:0:0:
64,192,232287,1,0,0:0:0:0:
64,192,232325,1,0,0:0:0:0:
192,192,232325,1,0,0:0:0:0:
320,192,232325,1,0,0:0:0:0:
448,192,232325,1,0,0:0:0:0:
448,192,232362,1,0,0:0:0:0:
320,192,232362,1,0,0:0:0:0:
192,192,232362,1,0,0:0:0:0:
64,192,232362,1,0,0:0:0:0:
64,192,232400,1,0,0:0:0:0:
192,192,232400,1,0,0:0:0:0:
320,192,232400,1,0,0:0:0:0:
448,192,232400,1,0,0:0:0:0:
448,192,232437,1,0,0:0:0:0:
320,192,232437,1,0,0:0:0:0:
64,192,232437,1,0,0:0:0:0:
192,192,232437,1,0,0:0:0:0:
64,192,232475,1,0,0:0:0:0:
192,192,232475,1,0,0:0:0:0:
320,192,232475,1,0,0:0:0:0:
448,192,232475,1,0,0:0:0:0:
448,192,232512,1,0,0:0:0:0:
320,192,232512,1,0,0:0:0:0:
192,192,232512,1,0,0:0:0:0:
64,192,232512,1,0,0:0:0:0:
320,192,232550,1,0,0:0:0:0:
64,192,232550,1,0,0:0:0:0:
192,192,232550,1,0,0:0:0:0:
448,192,232550,1,0,0:0:0:0:
64,192,232700,1,0,0:0:0:0:
448,192,232700,1,0,0:0:0:0:
192,192,232737,1,0,0:0:0:0:
320,192,232737,1,0,0:0:0:0:
320,192,232775,1,0,0:0:0:0:
192,192,232775,1,0,0:0:0:0:
448,192,232812,1,0,0:0:0:0:
64,192,232812,1,0,0:0:0:0:
192,192,232850,1,0,0:0:0:0:
320,192,232850,1,0,0:0:0:0:
320,192,232887,1,0,0:0:0:0:
192,192,232887,1,0,0:0:0:0:
448,192,232925,1,0,0:0:0:0:
64,192,232925,1,0,0:0:0:0:
192,192,232962,1,0,0:0:0:0:
320,192,232962,1,0,0:0:0:0:
320,192,233000,1,0,0:0:0:0:
192,192,233000,1,0,0:0:0:0:
448,192,233037,1,0,0:0:0:0:
64,192,233037,1,0,0:0:0:0:
192,192,233075,1,0,0:0:0:0:
320,192,233075,1,0,0:0:0:0:
320,192,233112,1,0,0:0:0:0:
192,192,233112,1,0,0:0:0:0:
64,192,233150,1,0,0:0:0:0:
448,192,233150,1,0,0:0:0:0:
320,192,233187,1,0,0:0:0:0:
192,192,233187,1,0,0:0:0:0:
320,192,233225,1,0,0:0:0:0:
192,192,233225,1,0,0:0:0:0:
64,192,233337,1,0,0:0:0:0:
192,192,233337,1,0,0:0:0:0:
320,192,233337,1,0,0:0:0:0:
448,192,233337,1,0,0:0:0:0:
192,192,233450,1,0,0:0:0:0:
320,192,233450,1,0,0:0:0:0:
64,192,233562,1,0,0:0:0:0:
448,192,233562,1,0,0:0:0:0:
64,192,233600,1,0,0:0:0:0:
448,192,233600,1,0,0:0:0:0:
64,192,233787,1,0,0:0:0:0:
192,192,233787,1,0,0:0:0:0:
320,192,233787,1,0,0:0:0:0:
448,192,233787,1,0,0:0:0:0:
64,192,233825,1,0,0:0:0:0:
448,192,233825,1,0,0:0:0:0:
320,192,233825,1,0,0:0:0:0:
192,192,233825,1,0,0:0:0:0:
64,192,233862,1,0,0:0:0:0:
64,192,233900,1,0,0:0:0:0:
64,192,233937,1,0,0:0:0:0:
64,192,233975,1,0,0:0:0:0:
64,192,234012,1,0,0:0:0:0:
64,192,234050,1,0,0:0:0:0:
64,192,234087,1,0,0:0:0:0:
64,192,234125,1,0,0:0:0:0:
64,192,234162,1,0,0:0:0:0:
64,192,234200,1,0,0:0:0:0:
64,192,234237,1,0,0:0:0:0:
64,192,234275,1,0,0:0:0:0:
64,192,234312,1,0,0:0:0:0:
64,192,234875,1,0,0:0:0:0:
192,192,234875,1,0,0:0:0:0:
320,192,234875,1,0,0:0:0:0:
448,192,234875,1,0,0:0:0:0:
64,192,234912,1,0,0:0:0:0:
192,192,234912,1,0,0:0:0:0:
320,192,234912,1,0,0:0:0:0:
448,192,234912,1,0,0:0:0:0:
64,192,234950,1,0,0:0:0:0:
64,192,234987,1,0,0:0:0:0:
64,192,235025,1,0,0:0:0:0:
64,192,235062,1,0,0:0:0:0:
64,192,235100,1,0,0:0:0:0:
192,192,235100,1,0,0:0:0:0:
320,192,235100,1,0,0:0:0:0:
448,192,235100,1,0,0:0:0:0:
64,192,235137,1,0,0:0:0:0:
192,192,235137,1,0,0:0:0:0:
320,192,235137,1,0,0:0:0:0:
448,192,235137,1,0,0:0:0:0:
64,192,235175,1,0,0:0:0:0:
64,192,235212,1,0,0:0:0:0:
64,192,235250,1,0,0:0:0:0:
64,192,235287,1,0,0:0:0:0:
64,192,235325,1,0,0:0:0:0:
192,192,235325,1,0,0:0:0:0:
320,192,235325,1,0,0:0:0:0:
448,192,235325,1,0,0:0:0:0:
64,192,235362,1,0,0:0:0:0:
192,192,235362,1,0,0:0:0:0:
320,192,235362,1,0,0:0:0:0:
448,192,235362,1,0,0:0:0:0:
64,192,235700,128,0,236337:0:0:0:0:
192,192,235700,1,0,0:0:0:0:
320,192,235700,1,0,0:0:0:0:
448,192,235700,1,0,0:0:0:0:
192,192,235737,1,0,0:0:0:0:
320,192,235737,1,0,0:0:0:0:
448,192,235737,1,0,0:0:0:0:
