osu file format v14

[General]
AudioFilename: audio.mp3
AudioLeadIn: 0
PreviewTime: 52853
Countdown: 0
SampleSet: Soft
StackLeniency: 0.7
Mode: 0
LetterboxInBreaks: 0
WidescreenStoryboard: 0

[Editor]
DistanceSpacing: 1
BeatDivisor: 4
GridSize: 4
TimelineZoom: 1.4

[Metadata]
Title:Raise de Aou
TitleUnicode:来世で会おう
Artist:Sayuri
ArtistUnicode:さユり
Creator:Frostmourne
Version:Insane
Source:
Tags:ミカヅキの航海 Mikazuki no Koukai pop japanese ritsu-tanaika FrostxE Sore wa Chiisana Hikari no Youna それは小さな光のような 僕だけがいない街 Boku dake ga Inai Machi
BeatmapID:1022432
BeatmapSetID:478766

[Difficulty]
HPDrainRate:6
CircleSize:4
OverallDifficulty:7
ApproachRate:8
SliderMultiplier:1.7
SliderTickRate:1

[Events]
//Background and Video events
0,0,"bg.jpg",0,0
//Break Periods
2,196170,208371
//Storyboard Layer 0 (Background)
//Storyboard Layer 1 (Fail)
//Storyboard Layer 2 (Pass)
//Storyboard Layer 3 (Foreground)
//Storyboard Layer 4 (Overlay)
//Storyboard Sound Samples

[TimingPoints]
354,410.958904109589,4,2,1,20,1,0
6518,-100,4,2,1,50,0,0
6929,-100,4,2,1,80,0,0
52956,-100,4,2,1,80,0,1
85833,-100,4,2,1,80,0,0
121997,-100,4,2,1,80,0,1
154874,-100,4,2,1,80,0,0
222271,-100,4,2,1,80,0,1
255148,-100,4,2,1,80,0,0

[Colours]
Combo1 : 198,234,255
Combo2 : 192,192,192

[HitObjects]
232,352,354,6,0,B|216:256,1,85
209,184,764,1,2,0:0:0:0:
286,220,970,1,0,0:0:0:0:
143,238,1175,2,0,P|110:173|133:73,1,170
218,268,1792,5,0,0:0:0:0:
291,310,1997,2,0,P|373:295|429:234,1,170,0|2,0:0|0:0,0:0:0:0:
468,96,2614,1,0,0:0:0:0:
407,154,2819,1,0,0:0:0:0:
192,188,3230,5,2,0:0:0:0:
251,127,3436,1,0,0:0:0:0:
276,211,3641,1,2,0:0:0:0:
169,103,3847,1,0,0:0:0:0:
276,211,4052,1,2,0:0:0:0:
144,256,4258,1,0,0:0:0:0:
251,127,4463,2,0,P|325:140|367:226,1,170,2|2,0:0|0:0,0:0:0:0:
365,304,5080,1,0,0:0:0:0:
276,211,5285,1,2,0:0:0:0:
276,211,5696,5,2,0:0:0:0:
224,288,5901,1,0,0:0:0:0:
251,127,6107,1,2,0:0:0:0:
316,328,6312,2,0,L|329:284,3,28.3333333333333,0|0|0|2,0:0|0:0|0:0|0:0,0:0:0:0:
316,328,6929,6,0,B|380:364|440:316|440:316,1,127.5,6|2,0:0|0:0,0:0:0:0:
461,302,7340,1,8,0:0:0:0:
481,219,7545,2,0,L|459:113,1,85,0|2,0:0|0:0,0:0:0:0:
328,216,7956,1,2,0:0:0:0:
253,178,8162,1,8,0:0:0:0:
171,202,8367,2,0,B|156:151|191:118|191:118,1,85,0|2,0:0|0:0,0:0:0:0:
328,216,8778,2,0,B|343:267|308:300|308:300,1,85,2|8,0:0|0:0,0:0:0:0:
171,322,9189,2,0,L|81:252,1,85,0|2,0:0|0:0,0:0:0:0:
256,352,9600,1,2,0:0:0:0:
382,358,9806,2,0,L|406:265,1,85,8|8,0:0|0:0,0:0:0:0:
403,275,10114,1,8,0:0:0:0:
403,275,10217,1,6,0:0:0:0:
352,88,10422,5,2,0:0:0:0:
352,88,10627,1,8,0:0:0:0:
418,141,10833,2,0,B|393:182|343:174|343:174,1,85,0|2,0:0|0:0,0:0:0:0:
180,128,11244,1,2,0:0:0:0:
133,208,11449,1,8,0:0:0:0:
180,128,11655,1,0,0:0:0:0:
229,256,11860,1,2,0:0:0:0:
102,136,12066,5,8,0:0:0:0:
75,149,12169,1,8,0:0:0:0:
55,171,12271,1,10,0:0:0:0:
47,200,12374,1,8,0:0:0:0:
49,230,12477,1,8,0:0:0:0:
62,258,12580,1,8,0:0:0:0:
83,280,12682,1,10,0:0:0:0:
113,287,12785,1,8,0:0:0:0:
143,284,12888,1,8,0:0:0:0:
292,168,13093,1,10,0:0:0:0:
381,350,13299,5,8,0:0:0:0:
381,350,13401,1,8,0:0:0:0:
381,350,13504,2,0,L|236:338,1,127.5,6|2,0:0|0:0,0:0:0:0:
224,336,13915,1,8,0:0:0:0:
128,188,14121,2,0,L|247:196,1,85,0|2,0:0|0:0,0:0:0:0:
336,204,14532,5,2,0:0:0:0:
269,269,14737,1,8,0:0:0:0:
204,104,14943,2,0,P|252:112|284:140,1,85,0|2,0:0|0:0,0:0:0:0:
364,292,15353,1,2,0:0:0:0:
288,356,15559,2,0,P|211:334|182:242,1,170,8|2,0:0|0:0,0:0:0:0:
269,269,16175,1,2,0:0:0:0:
112,176,16381,1,8,0:0:0:0:
140,172,16484,1,8,0:0:0:0:
168,168,16586,1,8,0:0:0:0:
196,164,16689,1,8,0:0:0:0:
224,160,16792,1,6,0:0:0:0:
312,152,16997,5,2,0:0:0:0:
269,269,17203,1,8,0:0:0:0:
202,81,17408,2,0,P|88:96|88:96,1,85,0|2,0:0|0:0,0:0:0:0:
310,303,17819,2,0,P|424:288|424:288,1,85,2|8,0:0|0:0,0:0:0:0:
312,152,18230,1,0,0:0:0:0:
204,360,18436,5,2,0:0:0:0:
128,324,18744,5,2,0:0:0:0:
52,288,19052,5,2,0:0:0:0:
144,204,19258,1,8,0:0:0:0:
169,188,19360,1,8,0:0:0:0:
198,183,19463,1,8,0:0:0:0:
227,186,19566,1,8,0:0:0:0:
255,195,19669,1,8,0:0:0:0:
277,214,19771,1,8,0:0:0:0:
287,242,19874,1,2,0:0:0:0:
304,368,20080,1,10,0:0:0:0:
362,306,20285,5,0,0:0:0:0:
414,239,20490,1,0,0:0:0:0:
362,306,20696,1,10,0:0:0:0:
296,116,20901,1,0,0:0:0:0:
352,179,21106,1,0,0:0:0:0:
296,116,21312,1,0,0:0:0:0:
214,89,21518,1,0,0:0:0:0:
130,106,21723,1,0,0:0:0:0:
80,323,22134,1,0,0:0:0:0:
80,323,22545,5,0,0:0:0:0:
165,323,22751,2,0,L|271:322,1,85
400,256,23162,1,0,0:0:0:0:
336,312,23367,1,10,0:0:0:0:
176,205,23573,5,0,0:0:0:0:
176,205,23778,1,0,0:0:0:0:
256,152,23984,1,10,0:0:0:0:
256,152,24189,1,0,0:0:0:0:
311,231,24395,1,0,0:0:0:0:
311,231,24600,2,0,P|361:242|448:223,2,127.5
175,187,25422,6,0,P|195:227|238:253,1,85
256,152,25833,2,0,P|227:115|180:97,1,85,0|2,0:0|0:0,0:0:0:0:
115,286,26244,1,8,0:0:0:0:
175,187,26449,1,2,0:0:0:0:
180,364,26655,1,10,0:0:0:0:
413,311,27066,6,0,P|366:321|316:308,1,85,0|10,0:0|0:0,0:0:0:0:
413,311,27477,2,0,P|366:297|328:262,1,85
292,200,27888,2,0,P|339:190|389:203,1,85
452,231,28299,1,10,0:0:0:0:
312,352,28504,1,0,0:0:0:0:
312,352,28710,1,0,0:0:0:0:
230,300,28915,1,8,0:0:0:0:
176,220,29121,5,8,0:0:0:0:
256,192,29429,5,8,0:0:0:0:
335,162,29737,5,8,0:0:0:0:
416,188,29943,6,0,B|491:135|499:44|499:44,1,170,6|2,0:0|0:0,0:0:0:0:
360,268,30764,2,0,B|258:262|227:169|227:169,1,170,2|2,0:0|0:0,0:0:0:0:
272,100,31381,1,0,0:0:0:0:
140,216,31586,6,0,B|116:168|143:128|143:128,1,85,2|8,0:0|0:0,0:0:0:0:
140,134,31895,1,8,0:0:0:0:
140,134,31997,1,8,0:0:0:0:
188,63,32203,1,2,0:0:0:0:
288,216,32408,1,8,0:0:0:0:
228,144,32614,1,2,0:0:0:0:
164,336,32819,1,2,0:0:0:0:
164,336,33230,6,0,P|204:352|252:344,1,85,6|0,0:0|0:0,0:0:0:0:
329,334,33641,1,2,0:0:0:0:
278,268,33847,1,8,0:0:0:0:
244,347,34052,1,2,0:0:0:0:
324,88,34463,2,0,P|279:98|247:133,1,85,8|0,0:0|0:0,0:0:0:0:
218,203,34874,1,2,0:0:0:0:
35,180,35285,5,2,0:0:0:0:
103,125,35490,1,8,0:0:0:0:
183,98,35696,2,0,B|227:78|267:101|267:101,1,85,2|0,0:0|0:0,0:0:0:0:
329,286,36107,2,0,B|285:306|245:283|245:283,1,85,8|0,0:0|0:0,0:0:0:0:
170,321,36518,6,0,B|153:219,1,85,2|0,0:0|0:0,0:0:0:0:
76,292,36929,2,0,B|93:394,1,85,2|8,0:0|0:0,0:0:0:0:
252,200,37340,2,0,P|204:150|108:144,1,170,2|8,0:0|0:0,0:0:0:0:
342,321,38162,6,0,B|359:219,1,85,2|0,0:0|0:0,0:0:0:0:
436,292,38573,2,0,B|419:394,1,85,2|8,0:0|0:0,0:0:0:0:
260,200,38984,2,0,P|308:150|404:144,1,170,2|8,0:0|0:0,0:0:0:0:
404,144,39806,6,0,P|411:103|429:56,1,85,2|0,0:0|0:0,0:0:0:0:
480,188,40217,2,0,L|464:292,1,85,2|8,0:0|0:0,0:0:0:0:
426,346,40627,2,0,P|383:351|341:320,1,85,2|0,0:0|0:0,0:0:0:0:
311,253,41038,1,8,0:0:0:0:
145,185,41449,6,0,L|126:274,1,85,2|0,0:0|0:0,0:0:0:0:
218,116,41860,2,0,L|236:205,1,85,2|8,0:0|0:0,0:0:0:0:
103,99,42271,2,0,L|47:178,1,85,2|0,0:0|0:0,0:0:0:0:
145,185,42682,1,8,0:0:0:0:
428,197,43093,6,0,B|461:101|387:40|387:40,1,170,2|2,0:0|0:0,0:0:0:0:
312,160,43710,1,8,0:0:0:0:
312,160,43915,2,0,P|307:230|263:295,1,127.5,2|0,0:0|0:0,0:0:0:0:
279,278,44326,2,0,L|158:289,1,85,8|0,0:0|0:0,0:0:0:0:
162,363,44737,5,2,0:0:0:0:
34,250,44943,1,8,0:0:0:0:
194,196,45148,1,8,0:0:0:0:
162,363,45354,1,2,0:0:0:0:
94,162,45559,1,8,0:0:0:0:
194,285,45764,1,8,0:0:0:0:
194,285,45867,1,8,0:0:0:0:
194,285,45970,2,0,B|266:347|361:296|361:296,1,170,2|12,0:0|0:0,0:0:0:0:
280,188,46586,5,2,0:0:0:0:
280,188,46792,1,2,0:0:0:0:
344,352,46997,5,8,0:0:0:0:
195,253,47203,1,2,0:0:0:0:
195,253,47409,1,2,0:0:0:0:
369,268,47614,5,8,0:0:0:0:
231,160,47819,1,2,0:0:0:0:
256,356,48025,5,12,0:0:0:0:
340,160,48230,1,2,0:0:0:0:
340,160,48436,1,2,0:0:0:0:
195,253,48641,5,8,0:0:0:0:
240,72,48847,1,2,0:0:0:0:
240,72,49052,1,2,0:0:0:0:
408,104,49258,6,0,B|380:66|333:70|333:70,1,85,12|2,0:0|0:0,0:0:0:0:
195,253,49669,2,0,B|237:274|277:250|277:250,1,85,12|2,0:0|0:0,0:0:0:0:
361,252,50080,2,0,B|363:205|326:177|326:177,1,85,12|2,0:0|0:0,0:0:0:0:
108,252,50490,2,0,B|105:298|142:326|142:326,1,85,12|2,0:0|0:0,0:0:0:0:
225,344,50901,5,12,0:0:0:0:
288,96,51107,1,2,0:0:0:0:
288,96,51210,1,2,0:0:0:0:
288,96,51312,1,12,0:0:0:0:
176,168,51518,1,2,0:0:0:0:
296,220,51723,5,2,0:0:0:0:
196,68,51929,1,8,0:0:0:0:
80,248,52134,1,0,0:0:0:0:
94,267,52237,1,0,0:0:0:0:
108,287,52340,1,0,0:0:0:0:
122,307,52443,1,0,0:0:0:0:
140,325,52545,2,0,L|228:277,1,85,2|0,0:0|0:0,0:0:0:0:
496,193,52956,6,0,L|476:17,1,170,6|8,0:0|0:0,0:0:0:0:
388,121,53573,2,0,L|408:297,1,170,2|2,0:0|0:0,0:0:0:0:
185,320,54189,1,8,0:0:0:0:
185,320,54292,1,2,0:0:0:0:
185,320,54395,1,0,0:0:0:0:
250,264,54600,5,2,0:0:0:0:
201,194,54806,1,2,0:0:0:0:
285,178,55011,2,0,P|293:155|298:125,2,42.5,8|2|0,0:0|0:0|0:0,0:0:0:0:
341,243,55422,1,2,0:0:0:0:
310,324,55627,5,2,0:0:0:0:
250,264,55833,1,8,0:0:0:0:
396,316,56038,1,0,0:0:0:0:
216,352,56244,2,0,P|185:331|152:286,1,85,2|2,0:0|0:0,0:0:0:0:
204,144,56655,5,8,0:0:0:0:
338,248,56860,2,0,P|360:218|376:165,1,85,0|2,0:0|0:0,0:0:0:0:
363,88,57271,2,0,P|331:63|273:55,1,85,2|8,0:0|0:0,0:0:0:0:
174,136,57682,2,0,P|152:166|136:219,1,85,0|2,0:0|0:0,0:0:0:0:
223,330,58093,2,0,P|182:321|149:296,1,85,2|8,0:0|0:0,0:0:0:0:
288,53,58504,2,0,P|329:62|363:88,1,85,0|2,0:0|0:0,0:0:0:0:
418,152,58915,1,2,0:0:0:0:
371,223,59121,1,8,0:0:0:0:
371,223,59223,1,2,0:0:0:0:
371,223,59326,1,0,0:0:0:0:
292,140,59532,6,0,L|116:140,1,170,6|8,0:0|0:0,0:0:0:0:
48,184,60148,2,0,P|36:142|48:96,1,85,0|2,0:0|0:0,0:0:0:0:
96,300,60559,2,0,P|107:257|128:221,1,85,2|8,0:0|0:0,0:0:0:0:
300,312,60970,2,0,P|257:306|218:291,1,85,0|2,0:0|0:0,0:0:0:0:
212,72,61381,2,0,P|254:77|293:92,1,85,2|8,0:0|0:0,0:0:0:0:
504,220,61792,2,0,B|424:216|332:235|332:235,1,170,0|2,0:0|0:0,0:0:0:0:
212,360,62408,1,8,0:0:0:0:
256,192,62614,5,8,0:0:0:0:
256,192,62717,1,8,0:0:0:0:
256,192,62819,1,12,0:0:0:0:
193,129,63025,1,2,0:0:0:0:
275,106,63230,1,2,0:0:0:0:
323,270,63436,5,8,0:0:0:0:
155,226,63641,1,2,0:0:0:0:
275,106,63847,1,2,0:0:0:0:
376,344,64052,2,0,P|334:358|282:354,1,85,12|0,0:0|0:0,0:0:0:0:
104,152,64463,2,0,P|146:138|198:142,1,85,12|8,0:0|0:0,0:0:0:0:
304,200,64874,5,8,0:0:0:0:
304,200,65080,1,8,0:0:0:0:
200,48,65285,1,8,0:0:0:0:
152,221,65490,1,8,0:0:0:0:
368,96,65696,1,8,0:0:0:0:
400,328,65901,1,8,0:0:0:0:
372,332,66004,1,8,0:0:0:0:
345,337,66107,2,0,L|250:319,1,85,6|2,0:0|0:0,0:0:0:0:
44,188,66518,5,8,0:0:0:0:
44,188,66621,1,2,0:0:0:0:
44,188,66723,1,0,0:0:0:0:
115,234,66929,1,2,0:0:0:0:
188,276,67134,1,2,0:0:0:0:
194,191,67340,1,8,0:0:0:0:
194,191,67443,1,2,0:0:0:0:
194,191,67545,1,0,0:0:0:0:
188,276,67751,5,2,0:0:0:0:
270,299,67956,1,2,0:0:0:0:
278,166,68162,1,8,0:0:0:0:
278,166,68264,1,2,0:0:0:0:
278,166,68367,1,0,0:0:0:0:
354,278,68573,5,2,0:0:0:0:
270,299,68778,1,2,0:0:0:0:
194,191,68984,1,8,0:0:0:0:
270,299,69189,1,0,0:0:0:0:
395,183,69395,2,0,L|304:125,1,85,2|2,0:0|0:0,0:0:0:0:
250,92,69806,5,8,0:0:0:0:
368,268,70011,2,0,L|277:210,1,85,0|2,0:0|0:0,0:0:0:0:
194,191,70422,2,0,P|158:183|106:192,1,85,2|8,0:0|0:0,0:0:0:0:
58,294,70833,2,0,P|97:308|155:293,1,85,0|2,0:0|0:0,0:0:0:0:
324,138,71244,2,0,L|343:19,1,85,2|8,0:0|0:0,0:0:0:0:
174,214,71655,2,0,L|185:324,1,85,0|2,0:0|0:0,0:0:0:0:
174,214,72066,5,2,0:0:0:0:
266,250,72271,1,8,0:0:0:0:
162,122,72477,1,8,0:0:0:0:
162,122,72580,1,8,0:0:0:0:
162,122,72682,2,0,B|214:114|242:150|242:150,1,85,2|2,0:0|0:0,0:0:0:0:
344,224,73093,2,0,B|292:216|264:252|264:252,1,85,8|0,0:0|0:0,0:0:0:0:
210,326,73504,2,0,L|92:317,1,85,2|2,0:0|0:0,0:0:0:0:
25,224,73915,6,0,B|42:127|128:99|128:99,1,170,8|2,0:0|0:0,0:0:0:0:
325,304,74532,1,2,0:0:0:0:
253,258,74737,1,8,0:0:0:0:
329,221,74943,1,0,0:0:0:0:
249,343,75148,1,2,0:0:0:0:
182,209,75354,1,2,0:0:0:0:
182,209,75559,2,0,L|187:112,1,85,8|0,0:0|0:0,0:0:0:0:
253,258,75970,2,0,L|248:355,1,85,2|2,0:0|0:0,0:0:0:0:
331,360,76381,6,0,L|336:263,1,85,8|0,0:0|0:0,0:0:0:0:
420,273,76792,2,0,L|382:189,1,85,2|2,0:0|0:0,0:0:0:0:
464,165,77203,2,0,L|400:99,1,85,8|0,0:0|0:0,0:0:0:0:
216,164,77614,2,0,P|266:170|308:151,1,85,2|8,0:0|0:0,0:0:0:0:
298,159,77922,1,8,0:0:0:0:
298,159,78025,1,8,0:0:0:0:
252,80,78230,5,2,0:0:0:0:
224,272,78436,2,0,B|124:255|110:159|110:159,1,170,8|8,0:0|0:0,0:0:0:0:
103,76,79052,1,8,0:0:0:0:
103,76,79155,1,8,0:0:0:0:
103,76,79258,1,6,0:0:0:0:
279,70,79463,5,2,0:0:0:0:
298,159,79669,2,0,P|307:215|306:254,1,85,8|0,0:0|0:0,0:0:0:0:
172,336,80080,2,0,P|141:307|107:283,1,85,2|2,0:0|0:0,0:0:0:0:
164,204,80490,2,0,P|195:233|230:258,1,85,8|0,0:0|0:0,0:0:0:0:
436,349,80901,5,12,0:0:0:0:
306,354,81107,1,2,0:0:0:0:
306,354,81312,1,2,0:0:0:0:
448,312,81518,5,8,0:0:0:0:
280,176,81723,1,2,0:0:0:0:
280,176,81929,1,2,0:0:0:0:
456,276,82134,2,0,P|410:259|364:263,1,85,12|0,0:0|0:0,0:0:0:0:
176,352,82545,1,14,0:0:0:0:
236,148,82751,5,8,0:0:0:0:
313,199,82956,1,10,0:0:0:0:
229,242,83162,1,8,0:0:0:0:
131,141,83367,5,10,0:0:0:0:
131,141,83573,1,8,0:0:0:0:
292,320,83778,1,10,0:0:0:0:
292,320,83984,1,8,0:0:0:0:
376,96,84189,1,10,0:0:0:0:
376,96,84395,1,8,0:0:0:0:
144,232,84600,5,10,0:0:0:0:
248,48,84806,1,8,0:0:0:0:
358,307,85011,1,10,0:0:0:0:
327,322,85114,1,8,0:0:0:0:
292,320,85217,1,8,0:0:0:0:
263,301,85319,1,8,0:0:0:0:
247,270,85422,1,14,0:0:0:0:
336,192,85627,1,2,0:0:0:0:
164,354,85833,5,8,0:0:0:0:
156,268,86141,5,8,0:0:0:0:
148,184,86449,5,8,0:0:0:0:
148,184,87066,6,0,L|93:183,2,42.5,8|8|8,0:0|0:0|0:0,0:0:0:0:
372,192,87477,1,6,0:0:0:0:
256,192,87580,12,12,88710,0:0:0:0:
256,192,89121,5,6,0:0:0:0:
336,161,89326,1,0,0:0:0:0:
417,188,89532,1,8,0:0:0:0:
464,256,89737,1,0,0:0:0:0:
379,265,89943,1,2,0:0:0:0:
417,188,90148,1,2,0:0:0:0:
464,256,90354,1,8,0:0:0:0:
429,333,90559,1,0,0:0:0:0:
345,348,90764,2,0,B|246:351|209:259|209:259,1,170,2|8,0:0|0:0,0:0:0:0:
210,261,91586,5,2,0:0:0:0:
173,184,91792,1,2,0:0:0:0:
203,104,91997,1,8,0:0:0:0:
256,170,92203,1,0,0:0:0:0:
173,184,92408,1,2,0:0:0:0:
203,104,92614,1,2,0:0:0:0:
56,158,92819,5,8,0:0:0:0:
56,158,93025,2,0,L|80:74,1,85,0|2,0:0|0:0,0:0:0:0:
219,245,93436,2,0,L|195:329,1,85,2|8,0:0|0:0,0:0:0:0:
60,243,93847,2,0,B|142:186|222:245|222:245,1,170,0|2,0:0|0:0,0:0:0:0:
286,296,94463,1,8,0:0:0:0:
369,280,94669,1,0,0:0:0:0:
416,210,94874,5,2,0:0:0:0:
286,296,95080,1,2,0:0:0:0:
332,100,95285,1,8,0:0:0:0:
369,280,95490,2,0,P|288:266|185:280,1,170,8|0,0:0|0:0,0:0:0:0:
76,145,96107,5,8,0:0:0:0:
123,216,96312,1,0,0:0:0:0:
163,140,96518,1,2,0:0:0:0:
72,159,96724,5,2,0:0:0:0:
138,212,96929,1,8,0:0:0:0:
153,127,97135,1,0,0:0:0:0:
52,276,97340,2,0,P|76:300|147:299,1,85,2|2,0:0|0:0,0:0:0:0:
210,306,97751,1,8,0:0:0:0:
240,144,97956,1,2,0:0:0:0:
324,150,98162,1,8,0:0:0:0:
296,348,98367,1,8,0:0:0:0:
296,348,98470,1,8,0:0:0:0:
296,348,98573,1,8,0:0:0:0:
240,144,98778,1,8,0:0:0:0:
376,312,98984,5,12,0:0:0:0:
232,232,99189,1,2,0:0:0:0:
232,232,99395,1,2,0:0:0:0:
404,228,99600,5,12,0:0:0:0:
240,144,99806,1,2,0:0:0:0:
240,144,100011,1,2,0:0:0:0:
307,271,100217,2,0,B|333:232|312:188|312:188,1,85,12|2,0:0|0:0,0:0:0:0:
168,356,100627,2,0,B|213:368|248:335|248:335,1,85,12|2,0:0|0:0,0:0:0:0:
55,268,101038,5,8,0:0:0:0:
80,253,101141,1,8,0:0:0:0:
104,234,101244,1,8,0:0:0:0:
123,211,101347,1,8,0:0:0:0:
138,185,101449,1,2,0:0:0:0:
175,74,101655,5,8,0:0:0:0:
307,271,101860,1,8,0:0:0:0:
400,56,102066,1,8,0:0:0:0:
175,74,102271,2,0,B|78:80|32:162|32:162,1,170,6|2,0:0|0:0,0:0:0:0:
200,200,102888,5,8,0:0:0:0:
304,288,103093,2,0,P|350:281|406:285,1,85,2|0,0:0|0:0,0:0:0:0:
200,200,103504,2,0,P|246:206|298:226,1,85,8|0,0:0|0:0,0:0:0:0:
330,79,103915,2,0,P|318:124|330:188,1,85,2|0,0:0|0:0,0:0:0:0:
407,127,104326,5,2,0:0:0:0:
496,252,104532,1,8,0:0:0:0:
430,314,104737,2,0,B|386:322|350:286|350:286,1,85,2|0,0:0|0:0,0:0:0:0:
460,56,105148,2,0,B|496:82|496:133|496:133,1,85,8|0,0:0|0:0,0:0:0:0:
280,360,105559,2,0,B|243:335|243:284|243:284,1,85,2|0,0:0|0:0,0:0:0:0:
256,200,105970,5,2,0:0:0:0:
144,308,106175,1,8,0:0:0:0:
191,132,106381,2,0,L|260:41,1,85,2|0,0:0|0:0,0:0:0:0:
68,268,106792,1,8,0:0:0:0:
68,268,106997,1,0,0:0:0:0:
115,99,107203,2,0,P|160:108|204:152,1,85,2|0,0:0|0:0,0:0:0:0:
232,240,107614,2,0,P|191:252|149:247,1,85,2|8,0:0|0:0,0:0:0:0:
328,200,108025,5,8,0:0:0:0:
335,230,108127,1,8,0:0:0:0:
334,262,108230,1,8,0:0:0:0:
323,292,108333,1,8,0:0:0:0:
304,318,108435,1,8,0:0:0:0:
36,292,108641,1,8,0:0:0:0:
37,276,108744,1,8,0:0:0:0:
38,260,108847,2,0,L|101:183,1,85,6|0,0:0|0:0,0:0:0:0:
232,240,109258,5,2,0:0:0:0:
156,360,109463,1,8,0:0:0:0:
232,240,109669,2,0,P|269:221|312:219,1,85,2|0,0:0|0:0,0:0:0:0:
476,160,110080,2,0,L|368:160,1,85,8|0,0:0|0:0,0:0:0:0:
62,240,110490,6,0,L|250:240,1,170,2|2,0:0|0:0,0:0:0:0:
176,152,111107,1,8,0:0:0:0:
296,296,111312,2,0,P|264:323|222:330,1,85,2|0,0:0|0:0,0:0:0:0:
119,217,111723,1,8,0:0:0:0:
176,152,111929,1,0,0:0:0:0:
200,242,112134,6,0,B|105:246|66:151|66:151,1,170,2|2,0:0|0:0,0:0:0:0:
116,83,112751,1,8,0:0:0:0:
260,180,112956,2,0,P|323:191|398:177,1,127.5,2|0,0:0|0:0,0:0:0:0:
385,181,113367,2,0,L|408:83,1,85,8|0,0:0|0:0,0:0:0:0:
476,200,113778,5,2,0:0:0:0:
440,321,113984,1,8,0:0:0:0:
360,351,114189,1,8,0:0:0:0:
277,331,114395,1,2,0:0:0:0:
240,224,114600,1,8,0:0:0:0:
76,268,114806,1,2,0:0:0:0:
76,268,114908,1,2,0:0:0:0:
76,268,115011,2,0,P|121:245|169:237,1,85,8|0,0:0|0:0,0:0:0:0:
360,351,115422,6,0,P|318:335|273:332,1,85,12|0,0:0|0:0,0:0:0:0:
195,350,115833,1,2,0:0:0:0:
276,176,116038,1,12,0:0:0:0:
324,256,116244,2,0,P|355:228|373:187,1,85,2|0,0:0|0:0,0:0:0:0:
208,128,116655,2,0,P|236:158|277:176,1,85,8|0,0:0|0:0,0:0:0:0:
378,69,117066,5,12,0:0:0:0:
454,261,117271,1,2,0:0:0:0:
454,261,117477,1,2,0:0:0:0:
212,200,117682,5,12,0:0:0:0:
274,348,117888,1,2,0:0:0:0:
274,348,118093,1,2,0:0:0:0:
292,172,118299,6,0,B|280:126|235:113|235:113,1,85,12|0,0:0|0:0,0:0:0:0:
127,212,118710,2,0,B|220:198|220:198,1,85,12|2,0:0|0:0,0:0:0:0:
436,280,119121,2,0,B|343:294|343:294,1,85,12|2,0:0|0:0,0:0:0:0:
184,116,119532,2,0,B|201:74|248:55|248:55,1,85,12|2,0:0|0:0,0:0:0:0:
390,151,119942,5,12,0:0:0:0:
274,348,120148,1,2,0:0:0:0:
274,348,120251,1,2,0:0:0:0:
274,348,120353,1,12,0:0:0:0:
292,164,120559,5,2,0:0:0:0:
273,246,120764,1,2,0:0:0:0:
207,194,120970,1,2,0:0:0:0:
274,82,121175,5,2,0:0:0:0:
274,82,121278,1,8,0:0:0:0:
274,82,121381,1,8,0:0:0:0:
274,82,121484,1,2,0:0:0:0:
274,82,121586,1,8,0:0:0:0:
274,82,121689,1,8,0:0:0:0:
274,82,121792,1,8,0:0:0:0:
274,82,121895,1,8,0:0:0:0:
274,82,121997,2,0,B|230:158|274:246|274:246,1,170,6|8,0:0|0:0,0:0:0:0:
353,278,122614,6,0,B|454:272,1,85,2|10,0:0|0:0,0:0:0:0:
437,272,122922,1,8,0:0:0:0:
437,272,123025,1,2,0:0:0:0:
443,85,123230,1,8,0:0:0:0:
443,85,123333,1,2,0:0:0:0:
443,85,123436,1,0,0:0:0:0:
369,44,123641,1,2,0:0:0:0:
368,129,123847,1,2,0:0:0:0:
443,85,124052,1,8,0:0:0:0:
304,196,124258,5,8,0:0:0:0:
275,200,124360,1,2,0:0:0:0:
246,201,124463,1,8,0:0:0:0:
217,197,124566,1,8,0:0:0:0:
190,187,124669,1,8,0:0:0:0:
111,156,124874,1,8,0:0:0:0:
173,97,125080,1,0,0:0:0:0:
96,248,125285,6,0,P|57:231|30:198,1,85,2|2,0:0|0:0,0:0:0:0:
96,248,125696,1,8,0:0:0:0:
177,271,125901,2,0,L|204:357,1,85,0|2,0:0|0:0,0:0:0:0:
283,324,126312,2,0,L|256:238,1,85,2|8,0:0|0:0,0:0:0:0:
464,212,126723,2,0,L|437:298,1,85,0|2,0:0|0:0,0:0:0:0:
358,265,127134,2,0,L|385:179,1,85,2|8,0:0|0:0,0:0:0:0:
265,233,127545,5,8,0:0:0:0:
267,205,127647,1,2,0:0:0:0:
270,176,127750,1,8,0:0:0:0:
273,148,127853,1,8,0:0:0:0:
276,121,127956,1,2,0:0:0:0:
357,96,128162,1,8,0:0:0:0:
174,230,128367,1,8,0:0:0:0:
174,230,128470,1,8,0:0:0:0:
174,230,128573,2,0,P|163:177|152:143,1,85,6|2,0:0|0:0,0:0:0:0:
204,324,128984,5,8,0:0:0:0:
308,280,129189,2,0,L|282:382,1,85,2|2,0:0|0:0,0:0:0:0:
287,362,129497,1,8,0:0:0:0:
287,362,129600,1,2,0:0:0:0:
380,348,129806,1,8,0:0:0:0:
332,196,130011,2,0,P|294:192|241:223,1,85,0|2,0:0|0:0,0:0:0:0:
380,348,130422,2,0,P|417:351|471:321,1,85,2|8,0:0|0:0,0:0:0:0:
488,232,130833,6,0,P|442:244|389:225,1,85,0|2,0:0|0:0,0:0:0:0:
406,235,131141,1,8,0:0:0:0:
406,235,131244,1,2,0:0:0:0:
344,172,131449,2,0,B|308:134|266:144|266:144,1,85,8|0,0:0|0:0,0:0:0:0:
241,157,131758,1,8,0:0:0:0:
241,157,131860,1,6,0:0:0:0:
318,349,132066,1,2,0:0:0:0:
318,349,132271,1,2,0:0:0:0:
176,216,132477,5,8,0:0:0:0:
324,260,132682,1,2,0:0:0:0:
324,260,132888,1,2,0:0:0:0:
112,156,133093,2,0,P|145:135|200:132,1,85,12|0,0:0|0:0,0:0:0:0:
408,232,133504,1,6,0:0:0:0:
232,364,133710,5,8,0:0:0:0:
232,364,133812,1,8,0:0:0:0:
232,364,133915,1,10,0:0:0:0:
256,192,134121,1,8,0:0:0:0:
256,192,134223,1,8,0:0:0:0:
256,192,134326,1,10,0:0:0:0:
336,308,134531,5,8,0:0:0:0:
160,244,134737,1,8,0:0:0:0:
284,104,134942,1,8,0:0:0:0:
284,104,135045,1,8,0:0:0:0:
284,104,135148,1,6,0:0:0:0:
336,308,135354,5,2,0:0:0:0:
258,342,135559,1,8,0:0:0:0:
420,316,135764,2,0,P|412:267|381:233,1,85,0|2,0:0|0:0,0:0:0:0:
258,342,136175,1,2,0:0:0:0:
48,224,136381,2,0,P|129:263|212:268,1,170,8|2,0:0|0:0,0:0:0:0:
420,120,136997,5,2,0:0:0:0:
336,136,137203,1,8,0:0:0:0:
251,132,137408,1,8,0:0:0:0:
223,128,137510,1,2,0:0:0:0:
195,123,137613,1,8,0:0:0:0:
167,119,137716,1,8,0:0:0:0:
140,114,137819,1,2,0:0:0:0:
56,131,138025,1,8,0:0:0:0:
56,131,138230,1,0,0:0:0:0:
104,284,138436,6,0,P|139:250|184:227,1,85,2|2,0:0|0:0,0:0:0:0:
328,224,138847,1,8,0:0:0:0:
164,356,139052,2,0,P|200:322|244:299,1,85,0|2,0:0|0:0,0:0:0:0:
448,192,139463,2,0,P|429:151|395:123,1,85,2|8,0:0|0:0,0:0:0:0:
64,192,139874,2,0,P|83:233|117:261,1,85,0|2,0:0|0:0,0:0:0:0:
248,180,140285,2,0,L|254:95,1,85,2|8,0:0|0:0,0:0:0:0:
364,184,140696,5,8,0:0:0:0:
368,212,140798,1,2,0:0:0:0:
373,240,140901,1,8,0:0:0:0:
377,268,141004,1,8,0:0:0:0:
382,295,141107,1,2,0:0:0:0:
332,363,141312,1,8,0:0:0:0:
248,256,141518,5,8,0:0:0:0:
248,256,141621,1,8,0:0:0:0:
248,256,141723,2,0,P|207:238|167:233,1,85,6|2,0:0|0:0,0:0:0:0:
85,254,142134,2,0,P|42:268|10:292,1,85,8|0,0:0|0:0,0:0:0:0:
96,352,142545,2,0,L|209:348,1,85,2|2,0:0|0:0,0:0:0:0:
416,356,142956,2,0,P|459:300|463:183,1,170,8|2,0:0|0:0,0:0:0:0:
437,123,143573,1,2,0:0:0:0:
302,209,143778,6,0,P|341:223|368:255,1,85,8|0,0:0|0:0,0:0:0:0:
216,360,144189,1,2,0:0:0:0:
216,360,144292,1,8,0:0:0:0:
216,360,144395,1,2,0:0:0:0:
128,152,144600,1,8,0:0:0:0:
128,152,145011,6,0,P|210:133|301:149,1,170,2|8,0:0|0:0,0:0:0:0:
368,187,145627,1,0,0:0:0:0:
216,224,145833,2,0,B|254:252|301:248|301:248,1,85,2|2,0:0|0:0,0:0:0:0:
268,348,146244,2,0,B|230:320|183:324|183:324,1,85,8|0,0:0|0:0,0:0:0:0:
16,344,146655,5,2,0:0:0:0:
72,180,146860,1,8,0:0:0:0:
72,180,146963,1,8,0:0:0:0:
72,180,147066,1,8,0:0:0:0:
192,80,147271,5,8,0:0:0:0:
221,72,147374,1,8,0:0:0:0:
251,72,147477,1,8,0:0:0:0:
281,78,147580,1,8,0:0:0:0:
309,89,147682,1,8,0:0:0:0:
331,109,147785,1,8,0:0:0:0:
346,134,147888,2,0,L|339:233,1,85,8|8,0:0|0:0,0:0:0:0:
153,258,148299,6,0,P|155:311|172:357,1,85,6|2,0:0|0:0,0:0:0:0:
249,345,148710,1,8,0:0:0:0:
249,345,148812,1,2,0:0:0:0:
249,345,148915,1,0,0:0:0:0:
366,277,149121,2,0,P|326:261|285:266,1,85,2|2,0:0|0:0,0:0:0:0:
227,118,149532,2,0,P|184:121|146:107,1,85,8|2,0:0|0:0,0:0:0:0:
268,31,149943,5,12,0:0:0:0:
200,232,150148,1,2,0:0:0:0:
200,232,150354,1,2,0:0:0:0:
227,118,150559,5,8,0:0:0:0:
336,311,150764,1,2,0:0:0:0:
336,311,150970,1,2,0:0:0:0:
452,172,151175,2,0,P|412:181|369:188,1,85,12|0,0:0|0:0,0:0:0:0:
60,172,151586,2,0,P|100:181|143:188,1,85,6|8,0:0|0:0,0:0:0:0:
256,152,151997,5,10,0:0:0:0:
256,152,152203,1,8,0:0:0:0:
256,256,152408,1,10,0:0:0:0:
256,256,152614,1,8,0:0:0:0:
256,56,152819,1,10,0:0:0:0:
256,56,153025,1,8,0:0:0:0:
332,336,153230,1,10,0:0:0:0:
332,336,153436,1,8,0:0:0:0:
256,152,153641,5,10,0:0:0:0:
151,319,153847,1,8,0:0:0:0:
57,154,154052,2,0,P|97:117|126:111,1,85,10|8,0:0|0:0,0:0:0:0:
320,236,154463,1,10,0:0:0:0:
295,251,154566,1,8,0:0:0:0:
267,258,154669,1,8,0:0:0:0:
238,257,154771,1,8,0:0:0:0:
210,249,154874,1,6,0:0:0:0:
256,192,154977,12,2,158162,0:0:0:0:
233,208,158367,5,2,0:0:0:0:
196,131,158573,1,8,0:0:0:0:
196,131,158675,1,2,0:0:0:0:
196,131,158778,1,0,0:0:0:0:
181,282,158984,5,2,0:0:0:0:
266,287,159189,1,2,0:0:0:0:
140,200,159395,1,8,0:0:0:0:
140,200,159497,1,2,0:0:0:0:
140,200,159600,1,0,0:0:0:0:
328,348,159806,5,2,0:0:0:0:
360,228,160011,1,2,0:0:0:0:
392,104,160217,1,8,0:0:0:0:
392,104,160319,1,2,0:0:0:0:
392,104,160422,2,0,L|364:201,1,85,0|2,0:0|0:0,0:0:0:0:
224,349,160833,2,0,L|251:254,1,85,2|8,0:0|0:0,0:0:0:0:
324,40,161244,1,8,0:0:0:0:
324,40,161347,1,8,0:0:0:0:
324,40,161449,1,6,0:0:0:0:
316,168,161655,5,2,0:0:0:0:
253,101,161860,1,8,0:0:0:0:
253,101,161963,1,2,0:0:0:0:
253,101,162066,2,0,L|135:90,1,85,0|2,0:0|0:0,0:0:0:0:
316,168,162477,1,2,0:0:0:0:
184,184,162682,1,8,0:0:0:0:
184,184,162785,1,2,0:0:0:0:
184,184,162888,2,0,L|66:173,1,85,0|2,0:0|0:0,0:0:0:0:
184,352,163299,5,2,0:0:0:0:
316,168,163504,1,8,0:0:0:0:
316,168,163607,1,2,0:0:0:0:
316,168,163710,2,0,L|434:157,1,85,0|2,0:0|0:0,0:0:0:0:
464,288,164121,1,2,0:0:0:0:
320,248,164326,1,8,0:0:0:0:
320,248,164429,1,2,0:0:0:0:
320,248,164532,1,0,0:0:0:0:
156,308,164737,5,8,0:0:0:0:
209,175,164943,1,2,0:0:0:0:
209,175,165148,1,2,0:0:0:0:
243,301,165354,5,8,0:0:0:0:
296,168,165560,1,2,0:0:0:0:
296,168,165765,1,2,0:0:0:0:
340,348,165970,5,10,0:0:0:0:
384,152,166175,2,0,P|374:128|349:101,2,42.5,0|0|8,0:0|0:0|0:0,0:0:0:0:
384,152,166689,2,0,P|387:215|369:279,1,127.5,8|2,0:0|0:0,0:0:0:0:
279,279,167203,5,8,0:0:0:0:
249,285,167306,1,8,0:0:0:0:
219,289,167408,1,8,0:0:0:0:
189,288,167511,1,8,0:0:0:0:
159,282,167614,1,8,0:0:0:0:
130,271,167717,1,8,0:0:0:0:
103,258,167819,1,8,0:0:0:0:
78,240,167922,1,8,0:0:0:0:
61,215,168025,2,0,L|40:62,2,127.5,6|2|2,0:0|0:0|0:0,0:0:0:0:
384,336,168847,6,0,P|285:359|192:336,1,170,8|8,0:0|0:0,0:0:0:0:
137,325,169463,1,8,0:0:0:0:
137,325,169566,1,8,0:0:0:0:
137,325,169669,2,0,L|5:361,2,127.5,2|2|2,0:0|0:0|0:0,0:0:0:0:
292,248,170490,2,0,P|310:175|355:232,1,170,8|8,0:0|0:0,0:0:0:0:
420,148,171107,1,8,0:0:0:0:
420,148,171210,1,8,0:0:0:0:
420,148,171312,2,0,P|384:114|303:92,2,127.5,6|2|2,0:0|0:0|0:0,0:0:0:0:
466,219,172134,6,0,L|459:315,1,85,8|2,0:0|0:0,0:0:0:0:
378,247,172545,2,0,L|371:343,1,85,8|8,0:0|0:0,0:0:0:0:
371,331,172854,1,8,0:0:0:0:
371,331,172956,2,0,P|308:319|237:324,2,127.5,2|2|2,0:0|0:0|0:0,0:0:0:0:
280,200,173778,5,8,0:0:0:0:
153,343,173984,1,2,0:0:0:0:
280,200,174189,1,8,0:0:0:0:
153,343,174395,1,8,0:0:0:0:
153,343,174497,1,8,0:0:0:0:
153,343,174600,2,0,P|86:348|20:328,2,127.5,6|2|2,0:0|0:0|0:0,0:0:0:0:
178,225,175422,6,0,P|202:259|238:281,1,85,8|2,0:0|0:0,0:0:0:0:
264,190,175833,1,8,0:0:0:0:
206,101,176038,1,8,0:0:0:0:
206,101,176141,1,8,0:0:0:0:
206,101,176244,2,0,P|140:92|84:111,2,127.5,6|2|2,0:0|0:0|0:0,0:0:0:0:
304,116,177066,5,8,0:0:0:0:
416,220,177271,1,2,0:0:0:0:
264,224,177477,1,8,0:0:0:0:
396,120,177682,1,8,0:0:0:0:
396,120,177785,1,8,0:0:0:0:
396,120,177888,2,0,P|455:127|515:181,2,127.5,6|2|2,0:0|0:0|0:0,0:0:0:0:
305,360,178710,1,8,0:0:0:0:
305,360,179121,5,8,0:0:0:0:
344,184,179326,1,8,0:0:0:0:
344,184,179429,1,8,0:0:0:0:
344,184,179532,2,0,L|325:278,1,85,2|0,0:0|0:0,0:0:0:0:
388,328,179943,1,8,0:0:0:0:
160,296,180148,1,8,0:0:0:0:
160,296,180251,1,8,0:0:0:0:
160,296,180354,2,0,P|202:291|244:295,1,85,2|0,0:0|0:0,0:0:0:0:
80,344,180764,1,8,0:0:0:0:
244,204,180970,5,8,0:0:0:0:
244,204,181073,1,8,0:0:0:0:
244,204,181175,2,0,P|189:169|119:159,2,127.5,6|2|2,0:0|0:0|0:0,0:0:0:0:
60,224,181997,2,0,P|45:147|92:72,1,170,8|8,0:0|0:0,0:0:0:0:
176,76,182614,1,8,0:0:0:0:
176,76,182717,1,8,0:0:0:0:
176,76,182819,2,0,L|304:88,1,127.5,2|2,0:0|0:0,0:0:0:0:
320,112,183230,1,0,0:0:0:0:
341,194,183436,1,2,0:0:0:0:
200,176,183641,5,8,0:0:0:0:
216,336,183847,1,2,0:0:0:0:
200,176,184052,1,8,0:0:0:0:
48,267,184258,1,8,0:0:0:0:
48,267,184360,1,8,0:0:0:0:
48,267,184463,2,0,P|66:202|133:162,2,127.5,6|2|2,0:0|0:0|0:0,0:0:0:0:
231,355,185285,5,8,0:0:0:0:
261,275,185490,1,2,0:0:0:0:
315,340,185696,1,8,0:0:0:0:
328,240,185901,1,8,0:0:0:0:
328,240,186004,1,8,0:0:0:0:
328,240,186107,2,0,P|266:245|203:210,1,127.5,2|8,0:0|0:0,0:0:0:0:
190,192,186518,1,2,0:0:0:0:
160,104,186723,5,8,0:0:0:0:
160,104,186826,1,8,0:0:0:0:
160,104,186929,1,2,0:0:0:0:
120,264,187134,1,8,0:0:0:0:
120,264,187237,1,8,0:0:0:0:
120,264,187340,1,2,0:0:0:0:
262,343,187545,1,8,0:0:0:0:
262,343,187648,1,8,0:0:0:0:
262,343,187751,1,6,0:0:0:0:
332,295,187956,5,2,0:0:0:0:
100,356,188162,1,8,0:0:0:0:
100,356,188264,1,2,0:0:0:0:
100,356,188367,1,0,0:0:0:0:
28,253,188573,2,0,P|65:195|123:183,1,127.5,2|2,0:0|0:0,0:0:0:0:
120,183,188984,1,12,0:0:0:0:
236,272,189189,1,0,0:0:0:0:
312,116,189395,5,12,0:0:0:0:
265,187,189600,1,2,0:0:0:0:
225,111,189806,1,2,0:0:0:0:
316,130,190012,5,8,0:0:0:0:
250,183,190217,1,2,0:0:0:0:
235,98,190423,1,2,0:0:0:0:
367,233,190628,5,12,0:0:0:0:
138,137,190833,1,2,0:0:0:0:
272,244,191039,5,12,0:0:0:0:
159,185,191244,1,2,0:0:0:0:
266,116,191449,1,2,0:0:0:0:
253,252,191655,5,12,0:0:0:0:
160,164,191860,1,2,0:0:0:0:
282,127,192065,1,2,0:0:0:0:
176,328,192271,5,12,0:0:0:0:
348,180,192477,1,2,0:0:0:0:
136,248,192682,1,6,0:0:0:0:
144,72,192888,5,8,0:0:0:0:
365,146,193093,1,2,0:0:0:0:
148,164,193299,1,8,0:0:0:0:
320,224,193504,1,2,0:0:0:0:
136,248,193710,1,8,0:0:0:0:
364,300,193915,1,2,0:0:0:0:
148,332,194121,1,8,0:0:0:0:
455,242,194326,5,10,0:0:0:0:
435,242,194428,1,8,0:0:0:0:
415,242,194531,1,8,0:0:0:0:
395,242,194634,1,8,0:0:0:0:
375,242,194736,1,10,0:0:0:0:
355,242,194839,1,8,0:0:0:0:
335,242,194943,5,8,0:0:0:0:
315,242,195045,1,8,0:0:0:0:
295,242,195148,1,10,0:0:0:0:
275,242,195251,1,8,0:0:0:0:
255,242,195353,1,10,0:0:0:0:
235,242,195456,1,8,0:0:0:0:
215,242,195559,1,10,0:0:0:0:
195,242,195662,1,8,0:0:0:0:
175,242,195764,1,10,0:0:0:0:
155,242,195867,1,8,0:0:0:0:
135,242,195970,1,0,0:0:0:0:
344,264,209121,6,0,L|428:276,2,85,12|2|2,0:0|0:0|0:0,0:0:0:0:
259,256,209737,2,0,L|191:318,2,85,8|2|2,0:0|0:0|0:0,0:0:0:0:
290,90,210354,1,8,0:0:0:0:
344,264,210559,1,2,0:0:0:0:
350,25,210764,6,0,P|374:61|376:108,2,85,8|2|2,0:0|0:0|0:0,0:0:0:0:
327,171,211381,1,8,0:0:0:0:
290,90,211586,1,2,0:0:0:0:
189,228,211792,1,2,0:0:0:0:
240,159,211997,1,8,0:0:0:0:
148,332,212203,1,2,0:0:0:0:
113,256,212408,6,0,P|109:212|131:170,2,85,8|2|2,0:0|0:0|0:0,0:0:0:0:
232,304,213025,2,0,P|268:328|315:330,1,85,8|2,0:0|0:0,0:0:0:0:
232,304,213436,2,0,P|271:286|298:247,1,85,2|8,0:0|0:0,0:0:0:0:
380,266,213847,5,2,0:0:0:0:
397,349,214052,1,8,0:0:0:0:
348,180,214258,1,2,0:0:0:0:
348,180,214463,1,2,0:0:0:0:
304,364,214669,5,8,0:0:0:0:
212,216,214874,1,2,0:0:0:0:
212,216,215080,1,2,0:0:0:0:
184,360,215285,5,8,0:0:0:0:
264,144,215491,1,2,0:0:0:0:
356,308,215696,2,0,L|272:283,1,85,6|2,0:0|0:0,0:0:0:0:
274,285,216004,1,2,0:0:0:0:
274,285,216107,1,2,0:0:0:0:
111,284,216312,5,8,0:0:0:0:
272,376,216518,1,2,0:0:0:0:
272,376,216723,1,2,0:0:0:0:
420,224,216929,2,0,L|336:199,1,85,12|2,0:0|0:0,0:0:0:0:
111,284,217340,2,0,L|195:259,1,85,12|2,0:0|0:0,0:0:0:0:
193,259,217648,1,2,0:0:0:0:
193,259,217751,1,2,0:0:0:0:
296,124,217956,5,8,0:0:0:0:
264,203,218162,1,2,0:0:0:0:
207,137,218367,1,2,0:0:0:0:
207,137,218470,1,2,0:0:0:0:
207,137,218573,1,12,0:0:0:0:
243,60,218778,1,2,0:0:0:0:
462,270,218985,5,10,0:0:0:0:
452,287,219086,1,8,0:0:0:0:
439,303,219189,1,8,0:0:0:0:
426,318,219292,1,8,0:0:0:0:
409,331,219395,1,10,0:0:0:0:
392,341,219497,1,8,0:0:0:0:
374,349,219600,1,8,0:0:0:0:
354,355,219703,1,8,0:0:0:0:
334,358,219805,1,10,0:0:0:0:
313,360,219908,1,8,0:0:0:0:
293,357,220011,1,8,0:0:0:0:
273,353,220114,1,8,0:0:0:0:
253,347,220216,1,10,0:0:0:0:
235,338,220319,1,8,0:0:0:0:
219,327,220422,1,8,0:0:0:0:
203,314,220525,1,8,0:0:0:0:
190,299,220627,1,2,0:0:0:0:
159,202,220833,5,8,0:0:0:0:
364,160,221038,1,8,0:0:0:0:
159,202,221244,2,0,P|194:219|254:211,1,85,2|2,0:0|0:0,0:0:0:0:
266,188,221552,2,0,L|280:64,1,85,12|8,0:0|0:0,0:0:0:0:
282,66,221860,1,8,0:0:0:0:
312,43,221963,1,8,0:0:0:0:
347,28,222066,1,8,0:0:0:0:
385,31,222169,1,8,0:0:0:0:
416,52,222271,2,0,L|402:176,1,85,6|2,0:0|0:0,0:0:0:0:
160,344,222682,5,8,0:0:0:0:
79,297,222888,1,8,0:0:0:0:
102,272,222991,1,8,0:0:0:0:
132,255,223094,1,2,0:0:0:0:
215,270,223299,1,2,0:0:0:0:
328,360,223504,1,8,0:0:0:0:
372,204,223710,1,0,0:0:0:0:
296,280,223915,5,2,0:0:0:0:
296,280,224121,1,2,0:0:0:0:
264,116,224326,1,8,0:0:0:0:
425,162,224532,1,8,0:0:0:0:
402,187,224635,1,8,0:0:0:0:
372,204,224738,1,2,0:0:0:0:
287,197,224943,1,2,0:0:0:0:
224,332,225148,5,8,0:0:0:0:
172,160,225353,1,0,0:0:0:0:
224,332,225559,2,0,P|255:359|312:367,1,85,2|2,0:0|0:0,0:0:0:0:
373,331,225970,1,8,0:0:0:0:
228,244,226175,2,0,P|187:252|146:291,1,85,0|2,0:0|0:0,0:0:0:0:
79,320,226586,2,0,L|70:233,1,85,2|8,0:0|0:0,0:0:0:0:
48,92,226997,6,0,L|132:99,1,85,0|2,0:0|0:0,0:0:0:0:
376,184,227408,2,0,B|379:135|347:106|347:106,1,85,2|8,0:0|0:0,0:0:0:0:
280,168,227819,2,0,B|242:138|241:95|241:95,1,85,0|2,0:0|0:0,0:0:0:0:
241,94,228127,1,8,0:0:0:0:
241,94,228229,1,2,0:0:0:0:
428,48,228436,1,8,0:0:0:0:
416,272,228641,1,8,0:0:0:0:
416,272,228744,1,8,0:0:0:0:
416,272,228847,2,0,B|348:340|253:307|253:307,1,170,6|8,0:0|0:0,0:0:0:0:
53,351,229463,6,0,L|75:252,1,85,0|2,0:0|0:0,0:0:0:0:
44,187,229874,2,0,P|84:186|128:201,1,85,2|8,0:0|0:0,0:0:0:0:
161,277,230285,2,0,L|139:376,1,85,0|2,0:0|0:0,0:0:0:0:
224,204,230696,2,0,P|264:203|308:218,1,85,2|8,0:0|0:0,0:0:0:0:
272,372,231107,2,0,B|255:265|255:265,1,85,0|2,0:0|0:0,0:0:0:0:
259,288,231415,1,8,0:0:0:0:
260,289,231518,1,2,0:0:0:0:
368,112,231723,5,8,0:0:0:0:
432,296,231929,1,8,0:0:0:0:
432,296,232032,1,8,0:0:0:0:
432,296,232134,1,12,0:0:0:0:
288,160,232340,1,2,0:0:0:0:
288,160,232545,1,2,0:0:0:0:
355,350,232751,5,8,0:0:0:0:
208,212,232956,1,2,0:0:0:0:
208,212,233162,1,2,0:0:0:0:
264,364,233367,5,12,0:0:0:0:
208,124,233573,1,2,0:0:0:0:
80,304,233778,2,0,P|112:331|153:338,1,85,6|8,0:0|0:0,0:0:0:0:
284,260,234189,5,8,0:0:0:0:
264,52,234395,1,8,0:0:0:0:
284,260,234600,1,8,0:0:0:0:
144,214,234805,5,8,0:0:0:0:
169,198,234908,1,8,0:0:0:0:
198,196,235011,1,8,0:0:0:0:
227,198,235114,1,8,0:0:0:0:
253,210,235216,1,8,0:0:0:0:
270,234,235319,1,8,0:0:0:0:
284,260,235422,2,0,P|327:262|368:247,1,85,6|2,0:0|0:0,0:0:0:0:
180,104,235833,5,8,0:0:0:0:
180,104,235936,1,2,0:0:0:0:
180,104,236038,1,0,0:0:0:0:
196,292,236244,1,2,0:0:0:0:
266,339,236449,1,2,0:0:0:0:
128,352,236655,1,8,0:0:0:0:
128,352,236758,1,2,0:0:0:0:
128,352,236860,1,0,0:0:0:0:
180,104,237066,5,2,0:0:0:0:
265,93,237271,1,2,0:0:0:0:
350,85,237477,1,8,0:0:0:0:
350,85,237579,1,2,0:0:0:0:
350,85,237682,1,0,0:0:0:0:
99,358,237888,5,2,0:0:0:0:
192,220,238093,1,2,0:0:0:0:
264,370,238299,1,8,0:0:0:0:
380,251,238504,1,0,0:0:0:0:
380,251,238710,2,0,L|346:341,1,85,2|2,0:0|0:0,0:0:0:0:
366,162,239121,6,0,P|409:164|448:187,1,85,8|0,0:0|0:0,0:0:0:0:
349,330,239532,2,0,P|306:328|267:305,1,85,2|2,0:0|0:0,0:0:0:0:
276,160,239943,1,8,0:0:0:0:
366,162,240148,6,0,P|409:164|448:187,1,85,0|2,0:0|0:0,0:0:0:0:
488,352,240559,2,0,L|472:252,1,85,2|8,0:0|0:0,0:0:0:0:
262,243,240970,2,0,L|278:143,1,85,0|2,0:0|0:0,0:0:0:0:
404,48,241381,5,2,0:0:0:0:
353,206,241586,1,8,0:0:0:0:
248,76,241792,1,8,0:0:0:0:
248,76,241895,1,8,0:0:0:0:
248,76,241997,2,0,B|196:68|168:104|168:104,1,85,2|2,0:0|0:0,0:0:0:0:
136,305,242408,6,0,B|110:197|110:197,1,85,8|0,0:0|0:0,0:0:0:0:
200,231,242819,2,0,B|226:339|226:339,1,85,2|2,0:0|0:0,0:0:0:0:
34,266,243230,2,0,B|63:171|153:155|153:155,1,170,8|2,0:0|0:0,0:0:0:0:
312,204,243847,1,2,0:0:0:0:
396,212,244052,2,0,L|497:225,1,85,8|0,0:0|0:0,0:0:0:0:
384,116,244463,2,0,L|283:103,1,85,2|2,0:0|0:0,0:0:0:0:
456,304,244874,2,0,L|363:324,1,85,8|0,0:0|0:0,0:0:0:0:
84,344,245285,6,0,L|136:260,1,85,2|2,0:0|0:0,0:0:0:0:
362,227,245696,2,0,P|332:197|272:182,1,85,8|0,0:0|0:0,0:0:0:0:
206,297,246107,2,0,P|248:292|284:270,1,85,2|2,0:0|0:0,0:0:0:0:
140,168,246518,2,0,P|180:180|221:225,1,85,8|0,0:0|0:0,0:0:0:0:
448,216,246929,2,0,P|443:267|416:304,1,85,2|8,0:0|0:0,0:0:0:0:
425,295,247237,1,8,0:0:0:0:
425,295,247340,1,2,0:0:0:0:
308,184,247545,5,2,0:0:0:0:
212,384,247751,1,2,0:0:0:0:
212,384,247854,1,8,0:0:0:0:
212,384,247956,1,0,0:0:0:0:
140,212,248162,1,8,0:0:0:0:
296,332,248367,5,8,0:0:0:0:
296,332,248470,1,8,0:0:0:0:
296,332,248573,1,6,0:0:0:0:
188,300,248778,1,2,0:0:0:0:
324,244,248984,2,0,P|369:277|387:313,1,85,8|0,0:0|0:0,0:0:0:0:
188,140,249395,2,0,P|143:107|125:71,1,85,2|2,0:0|0:0,0:0:0:0:
376,72,249806,2,0,L|367:165,1,85,8|2,0:0|0:0,0:0:0:0:
329,353,250216,5,12,0:0:0:0:
240,216,250422,1,2,0:0:0:0:
240,216,250627,1,2,0:0:0:0:
180,292,250833,5,8,0:0:0:0:
304,48,251038,1,2,0:0:0:0:
304,48,251244,1,2,0:0:0:0:
172,155,251449,5,12,0:0:0:0:
378,209,251655,1,2,0:0:0:0:
230,361,251860,1,12,0:0:0:0:
172,155,252066,5,8,0:0:0:0:
127,238,252271,1,10,0:0:0:0:
208,140,252477,5,8,0:0:0:0:
220,266,252682,1,10,0:0:0:0:
239,112,252888,5,8,0:0:0:0:
325,248,253093,1,10,0:0:0:0:
268,80,253299,5,8,0:0:0:0:
412,188,253504,1,10,0:0:0:0:
246,258,253710,1,8,0:0:0:0:
268,80,253915,2,0,P|314:51|343:50,1,85,10|8,0:0|0:0,0:0:0:0:
354,286,254326,5,10,0:0:0:0:
325,291,254429,1,8,0:0:0:0:
296,287,254532,1,8,0:0:0:0:
269,276,254634,1,8,0:0:0:0:
246,258,254737,1,6,0:0:0:0:
320,197,254943,1,0,0:0:0:0:
88,288,255148,6,0,L|77:157,1,127.5,6|2,0:0|0:0,0:0:0:0:
102,145,255559,2,0,P|143:134|188:146,1,85,8|0,0:0|0:0,0:0:0:0:
208,159,255867,1,2,0:0:0:0:
208,159,255970,1,0,0:0:0:0:
335,290,256175,5,2,0:0:0:0:
320,197,256381,1,8,0:0:0:0:
335,290,256586,2,0,L|348:378,2,85,0|2|2,0:0|0:0|0:0,0:0:0:0:
320,197,257203,1,8,0:0:0:0:
432,320,257408,1,2,0:0:0:0:
234,341,257614,1,2,0:0:0:0:
234,341,257717,1,8,0:0:0:0:
234,341,257819,2,0,L|227:255,2,85,2|8|0,0:0|0:0|0:0,0:0:0:0:
152,104,258436,5,2,0:0:0:0:
201,172,258641,1,2,0:0:0:0:
239,95,258847,1,8,0:0:0:0:
112,188,259052,2,0,P|96:231|99:292,1,85,0|2,0:0|0:0,0:0:0:0:
94,269,259360,1,8,0:0:0:0:
94,269,259463,1,2,0:0:0:0:
288,328,259669,1,8,0:0:0:0:
231,253,259874,1,0,0:0:0:0:
288,328,260080,5,2,0:0:0:0:
196,344,260285,1,2,0:0:0:0:
328,244,260490,1,8,0:0:0:0:
140,248,260696,2,0,P|151:209|192:170,1,85,0|2,0:0|0:0,0:0:0:0:
179,177,261004,1,8,0:0:0:0:
179,177,261107,1,2,0:0:0:0:
231,253,261312,1,8,0:0:0:0:
288,328,261518,5,8,0:0:0:0:
288,328,261621,1,8,0:0:0:0:
288,328,261723,2,0,L|312:193,1,127.5,6|2,0:0|0:0,0:0:0:0:
316,175,262134,1,8,0:0:0:0:
290,86,262340,2,0,P|250:106|226:146,1,85,0|2,0:0|0:0,0:0:0:0:
171,217,262751,6,0,P|205:246|250:256,1,85,2|8,0:0|0:0,0:0:0:0:
396,189,263162,2,0,P|355:171|309:176,1,85,0|2,0:0|0:0,0:0:0:0:
111,273,263573,2,0,P|149:250|172:210,1,85,2|8,0:0|0:0,0:0:0:0:
242,337,263984,2,0,L|326:356,1,85,0|2,0:0|0:0,0:0:0:0:
156,360,264395,5,2,0:0:0:0:
392,300,264600,1,12,0:0:0:0:
408,276,264703,1,8,0:0:0:0:
418,247,264806,1,8,0:0:0:0:
420,217,264909,1,8,0:0:0:0:
416,188,265011,2,0,P|374:117|325:81,1,127.5,6|2,0:0|0:0,0:0:0:0:
340,89,265422,1,8,0:0:0:0:
316,192,265627,6,0,P|248:172|220:180,1,85,0|2,0:0|0:0,0:0:0:0:
236,174,265936,1,8,0:0:0:0:
236,174,266038,1,2,0:0:0:0:
240,356,266244,1,8,0:0:0:0:
180,104,266449,2,0,P|138:111|102:142,2,85,0|2|2,0:0|0:0|0:0,0:0:0:0:
249,53,267066,1,8,0:0:0:0:
308,223,267271,5,2,0:0:0:0:
334,134,267476,1,8,0:0:0:0:
361,148,267579,1,8,0:0:0:0:
383,168,267682,1,2,0:0:0:0:
400,332,267888,1,8,0:0:0:0:
256,248,268093,1,0,0:0:0:0:
232,329,268299,5,2,0:0:0:0:
333,272,268504,1,2,0:0:0:0:
232,213,268710,1,8,0:0:0:0:
232,329,268915,2,0,P|196:306|163:265,1,85,0|2,0:0|0:0,0:0:0:0:
168,274,269223,1,8,0:0:0:0:
168,274,269326,1,2,0:0:0:0:
333,272,269532,1,8,0:0:0:0:
232,213,269737,1,0,0:0:0:0:
319,354,269943,5,2,0:0:0:0:
314,184,270148,1,2,0:0:0:0:
168,274,270353,1,8,0:0:0:0:
319,354,270559,2,0,P|365:352|406:316,1,85,0|2,0:0|0:0,0:0:0:0:
396,330,270867,1,8,0:0:0:0:
396,330,270970,1,2,0:0:0:0:
196,360,271175,1,12,0:0:0:0:
248,140,271381,1,0,0:0:0:0:
304,218,271586,5,8,0:0:0:0:
225,267,271791,1,2,0:0:0:0:
223,174,271997,1,2,0:0:0:0:
307,310,272203,5,8,0:0:0:0:
147,222,272408,1,2,0:0:0:0:
303,128,272614,1,2,0:0:0:0:
225,267,272819,5,8,0:0:0:0:
223,174,273025,1,2,0:0:0:0:
304,218,273230,1,8,0:0:0:0:
225,267,273436,5,2,0:0:0:0:
303,128,273641,1,8,0:0:0:0:
307,310,273847,5,2,0:0:0:0:
227,82,274052,1,10,0:0:0:0:
399,262,274258,5,10,0:0:0:0:
307,34,274463,1,10,0:0:0:0:
147,222,274669,1,10,0:0:0:0:
