osu file format v14

[General]
AudioFilename: audio.mp3
AudioLeadIn: 0
PreviewTime: 52853
Countdown: 0
SampleSet: Soft
StackLeniency: 0.7
Mode: 0
LetterboxInBreaks: 0
WidescreenStoryboard: 1

[Editor]
DistanceSpacing: 1
BeatDivisor: 4
GridSize: 4
TimelineZoom: 1.4

[Metadata]
Title:Raise de Aou
TitleUnicode:来世で会おう
Artist:Sayuri
ArtistUnicode:さユり
Creator:Frostmourne
Version:Hard
Source:
Tags:ミカヅキの航海 Mikazuki no Koukai pop japanese ritsu-tanaika FrostxE Sore wa Chiisana Hikari no Youna それは小さな光のような 僕だけがいない街 Boku dake ga Inai Machi
BeatmapID:1151517
BeatmapSetID:478766

[Difficulty]
HPDrainRate:5
CircleSize:4
OverallDifficulty:6
ApproachRate:6.5
SliderMultiplier:1.3
SliderTickRate:1

[Events]
//Background and Video events
0,0,"bg.jpg",0,0
//Break Periods
2,158362,167050
2,196170,208146
//Storyboard Layer 0 (Background)
//Storyboard Layer 1 (Fail)
//Storyboard Layer 2 (Pass)
//Storyboard Layer 3 (Foreground)
//Storyboard Layer 4 (Overlay)
//Storyboard Sound Samples

[TimingPoints]
354,410.958904109589,4,2,1,20,1,0
6518,-100,4,2,1,50,0,0
6929,-100,4,2,1,80,0,0
52956,-100,4,2,1,80,0,1
85833,-100,4,2,1,80,0,0
121997,-100,4,2,1,80,0,1
154874,-100,4,2,1,80,0,0
222271,-100,4,2,1,80,0,1
255148,-100,4,2,1,80,0,0

[Colours]
Combo1 : 198,234,255
Combo2 : 192,192,192

[HitObjects]
112,125,354,6,0,P|168:96|232:112,1,130,0|2,0:0|0:0,0:0:0:0:
268,184,970,1,0,0:0:0:0:
268,184,1175,2,0,L|244:336,1,130
173,353,1792,1,0,0:0:0:0:
159,269,1997,1,0,0:0:0:0:
191,103,2408,5,2,0:0:0:0:
250,42,2614,1,0,0:0:0:0:
271,123,2819,1,0,0:0:0:0:
418,41,3230,2,0,P|426:82|418:114,1,65,2|0,0:0|0:0,0:0:0:0:
480,164,3641,6,0,P|464:202|440:225,1,65,2|0,0:0|0:0,0:0:0:0:
368,247,4052,1,2,0:0:0:0:
313,182,4258,1,0,0:0:0:0:
285,261,4463,1,2,0:0:0:0:
149,159,4874,5,2,0:0:0:0:
167,241,5080,1,0,0:0:0:0:
230,186,5285,2,0,P|249:118|227:59,1,130,2|2,0:0|0:0,0:0:0:0:
145,56,5901,1,0,0:0:0:0:
145,56,6107,2,0,P|126:124|148:183,1,130,2|2,0:0|0:0,0:0:0:0:
367,328,6929,6,0,P|386:260|364:201,1,130,6|8,0:0|0:0,0:0:0:0:
292,245,7545,2,0,L|148:260,1,130,0|2,0:0|0:0,0:0:0:0:
78,268,8162,1,8,0:0:0:0:
99,186,8367,2,0,L|243:171,1,130,0|2,0:0|0:0,0:0:0:0:
313,167,8984,1,8,0:0:0:0:
424,40,9395,1,2,0:0:0:0:
472,108,9600,1,2,0:0:0:0:
472,108,9806,2,0,P|477:156|452:242,1,130,8|6,0:0|0:0,0:0:0:0:
415,308,10422,5,2,0:0:0:0:
359,244,10627,1,8,0:0:0:0:
334,325,10833,2,0,P|286:330|200:305,1,130,0|2,0:0|0:0,0:0:0:0:
132,347,11449,2,0,L|122:252,1,65,8|0,0:0|0:0,0:0:0:0:
187,224,11860,6,0,P|221:225|282:214,1,65,2|8,0:0|0:0,0:0:0:0:
336,214,12271,1,8,0:0:0:0:
336,214,12477,2,0,L|345:129,1,65,8|0,0:0|0:0,0:0:0:0:
425,168,12888,1,2,0:0:0:0:
425,168,13093,2,0,L|416:253,1,65,8|0,0:0|0:0,0:0:0:0:
372,304,13504,6,0,P|434:315|500:256,1,130,6|8,0:0|0:0,0:0:0:0:
418,232,14121,2,0,P|356:221|289:279,1,130,0|2,0:0|0:0,0:0:0:0:
255,185,14737,1,8,0:0:0:0:
255,185,14943,2,0,L|226:46,1,130,0|2,0:0|0:0,0:0:0:0:
305,23,15559,1,8,0:0:0:0:
144,142,15970,5,2,0:0:0:0:
166,223,16175,1,2,0:0:0:0:
225,162,16381,2,0,P|297:127|351:127,1,130,8|6,0:0|0:0,0:0:0:0:
372,206,16997,2,0,L|450:175,1,65,2|8,0:0|0:0,0:0:0:0:
488,245,17408,2,0,L|362:296,1,130,0|2,0:0|0:0,0:0:0:0:
286,321,18025,2,0,P|281:292|290:257,1,65,8|0,0:0|0:0,0:0:0:0:
254,180,18436,6,0,L|171:101,2,97.5,8|8|8,0:0|0:0|0:0,0:0:0:0:
203,248,19258,2,0,L|52:248,2,130,8|8|8,0:0|0:0|0:0,0:0:0:0:
276,292,20285,6,0,L|276:360,2,65,0|0|8,0:0|0:0|0:0,0:0:0:0:
360,292,20901,2,0,L|360:360,2,65
444,288,21518,1,0,0:0:0:0:
444,204,21723,1,0,0:0:0:0:
360,56,22134,1,0,0:0:0:0:
280,204,22545,1,0,0:0:0:0:
228,136,22751,2,0,P|254:122|304:124,2,65
156,184,23367,5,8,0:0:0:0:
76,155,23573,2,0,P|62:129|64:79,2,65,0|0|8,0:0|0:0|0:0,0:0:0:0:
156,184,24189,2,0,P|170:210|168:260,1,65
184,328,24600,2,0,L|291:305,2,97.5
99,338,25422,6,0,L|84:266,1,65
22,212,25833,2,0,P|84:192|157:219,1,130,0|8,0:0|0:0,0:0:0:0:
352,276,26655,2,0,P|289:295|217:269,1,130,8|0,0:0|0:0,0:0:0:0:
235,193,27271,1,8,0:0:0:0:
235,193,27477,2,0,L|250:108,1,65
326,154,27888,2,0,L|341:69,1,65
419,108,28299,2,0,L|404:193,1,65,8|0,0:0|0:0,0:0:0:0:
492,174,28710,2,0,L|477:259,1,65,0|8,0:0|0:0,0:0:0:0:
464,320,29121,2,0,P|424:348|348:347,2,97.5,8|8|8,0:0|0:0|0:0,0:0:0:0:
395,269,29943,5,6,0:0:0:0:
256,368,30353,1,2,0:0:0:0:
316,208,30764,1,2,0:0:0:0:
180,308,31175,1,2,0:0:0:0:
181,138,31586,6,0,P|120:118|56:136,1,130,2|8,0:0|0:0,0:0:0:0:
58,134,32203,1,0,0:0:0:0:
48,217,32408,2,0,L|61:296,1,65,8|2,0:0|0:0,0:0:0:0:
95,357,32819,1,2,0:0:0:0:
273,198,33230,6,0,L|260:119,1,65,6|0,0:0|0:0,0:0:0:0:
312,65,33641,1,2,0:0:0:0:
361,134,33847,1,8,0:0:0:0:
400,59,34052,2,0,L|423:204,1,130,2|8,0:0|0:0,0:0:0:0:
293,326,34874,6,0,L|270:181,1,130,2|2,0:0|0:0,0:0:0:0:
259,113,35490,1,8,0:0:0:0:
175,126,35696,2,0,L|198:271,1,130,2|8,0:0|0:0,0:0:0:0:
347,177,36518,6,0,L|360:98,1,65,2|0,0:0|0:0,0:0:0:0:
308,44,36929,1,2,0:0:0:0:
259,113,37135,1,8,0:0:0:0:
220,38,37340,2,0,L|197:183,1,130,2|8,0:0|0:0,0:0:0:0:
149,234,37956,1,0,0:0:0:0:
81,285,38162,6,0,P|63:221|96:166,1,130,2|2,0:0|0:0,0:0:0:0:
149,234,38778,1,8,0:0:0:0:
216,182,38984,2,0,P|234:246|201:301,1,130,2|8,0:0|0:0,0:0:0:0:
369,335,39806,6,0,L|300:326,1,65,2|0,0:0|0:0,0:0:0:0:
351,256,40217,2,0,L|420:265,1,65,2|8,0:0|0:0,0:0:0:0:
473,202,40627,2,0,P|487:126|477:53,1,130,2|8,0:0|0:0,0:0:0:0:
411,26,41244,1,0,0:0:0:0:
350,85,41449,2,0,P|274:70|201:81,1,130,2|2,0:0|0:0,0:0:0:0:
141,102,42066,1,8,0:0:0:0:
141,102,42271,2,0,L|155:241,1,130,2|8,0:0|0:0,0:0:0:0:
293,327,43093,6,0,L|279:188,1,130,2|2,0:0|0:0,0:0:0:0:
300,115,43710,1,8,0:0:0:0:
363,171,43915,2,0,P|403:157|476:162,2,97.5,2|0|0,0:0|0:0|0:0,0:0:0:0:
279,197,44737,1,2,0:0:0:0:
200,165,44943,5,8,0:0:0:0:
200,165,45148,1,8,0:0:0:0:
120,194,45354,1,2,0:0:0:0:
44,157,45559,2,0,P|53:91|86:26,1,130,8|8,0:0|0:0,0:0:0:0:
120,194,46381,6,0,P|111:260|78:325,1,130,12|2,0:0|0:0,0:0:0:0:
155,361,46997,1,8,0:0:0:0:
155,361,47203,2,0,P|176:330|217:308,1,65,2|2,0:0|0:0,0:0:0:0:
232,237,47614,2,0,P|263:258|285:299,1,65,8|2,0:0|0:0,0:0:0:0:
306,360,48025,5,12,0:0:0:0:
306,360,48231,1,2,0:0:0:0:
367,301,48436,2,0,L|387:219,2,65,2|8|2,0:0|0:0|0:0,0:0:0:0:
434,351,49052,1,2,0:0:0:0:
434,351,49258,2,0,L|469:211,1,130,12|12,0:0|0:0,0:0:0:0:
487,143,49874,5,2,0:0:0:0:
461,62,50080,2,0,L|376:27,1,65,8|2,0:0|0:0,0:0:0:0:
368,115,50490,2,0,L|283:80,1,65,12|2,0:0|0:0,0:0:0:0:
241,142,50901,2,0,L|156:107,1,65,8|2,0:0|0:0,0:0:0:0:
180,117,51210,1,2,0:0:0:0:
180,117,51312,1,8,0:0:0:0:
132,186,51518,1,8,0:0:0:0:
53,155,51723,1,8,0:0:0:0:
29,236,51929,2,0,P|87:304|203:341,1,195,8|2,0:0|0:0,0:0:0:0:
344,208,52956,6,0,P|294:247|226:250,1,130,6|8,0:0|0:0,0:0:0:0:
184,323,53573,2,0,P|145:273|142:205,1,130,0|2,0:0|0:0,0:0:0:0:
182,134,54189,2,0,L|280:23,1,130,8|2,0:0|0:0,0:0:0:0:
399,143,55011,2,0,L|301:254,1,130,8|2,0:0|0:0,0:0:0:0:
232,213,55627,2,0,P|229:257|252:298,2,65,2|8|0,0:0|0:0|0:0,0:0:0:0:
202,132,56244,6,0,P|260:134|317:189,1,130,2|8,0:0|0:0,0:0:0:0:
332,261,56860,2,0,P|390:259|447:204,1,130,0|2,0:0|0:0,0:0:0:0:
442,213,57477,1,8,0:0:0:0:
470,133,57682,2,0,L|451:52,1,65,0|2,0:0|0:0,0:0:0:0:
372,83,58093,2,0,L|386:146,1,65,2|8,0:0|0:0,0:0:0:0:
313,189,58504,2,0,L|294:108,2,65,0|2|2,0:0|0:0|0:0,0:0:0:0:
329,272,59121,1,8,0:0:0:0:
329,272,59326,1,0,0:0:0:0:
273,336,59532,6,0,P|208:342|149:311,1,130,6|8,0:0|0:0,0:0:0:0:
89,255,60148,2,0,P|108:238|147:227,1,65,0|2,0:0|0:0,0:0:0:0:
209,172,60559,2,0,P|190:155|151:144,1,65,2|8,0:0|0:0,0:0:0:0:
292,164,60970,2,0,P|288:138|265:105,1,65,0|2,0:0|0:0,0:0:0:0:
152,144,61381,2,0,P|155:118|178:85,1,65,2|8,0:0|0:0,0:0:0:0:
236,26,61792,2,0,L|377:39,1,130,0|2,0:0|0:0,0:0:0:0:
449,43,62408,2,0,L|465:125,1,65,8|0,0:0|0:0,0:0:0:0:
486,187,62819,6,0,P|495:235|469:329,1,130,12|2,0:0|0:0,0:0:0:0:
393,306,63436,2,0,L|380:373,2,65,8|2|2,0:0|0:0|0:0,0:0:0:0:
391,221,64052,2,0,P|355:228|326:253,1,65,12|0,0:0|0:0,0:0:0:0:
272,305,64463,6,0,L|259:372,2,65,12|2|2,0:0|0:0|0:0,0:0:0:0:
216,240,65080,1,8,0:0:0:0:
216,240,65285,2,0,L|229:173,1,65,2|2,0:0|0:0,0:0:0:0:
259,97,65696,2,0,P|320:81|389:101,2,130,8|6|8,0:0|0:0|0:0,0:0:0:0:
174,107,66723,6,0,L|29:128,1,130,0|2,0:0|0:0,0:0:0:0:
68,207,67340,2,0,L|213:186,1,130,8|2,0:0|0:0,0:0:0:0:
280,175,67956,1,2,0:0:0:0:
280,175,68162,2,0,P|261:245|211:273,1,130,8|2,0:0|0:0,0:0:0:0:
132,288,68778,1,2,0:0:0:0:
140,372,68984,1,8,0:0:0:0:
224,356,69189,1,0,0:0:0:0:
224,356,69395,2,0,P|301:346|350:320,1,130,2|8,0:0|0:0,0:0:0:0:
416,372,70011,6,0,P|463:310|479:257,1,130,2|2,0:0|0:0,0:0:0:0:
467,177,70627,1,8,0:0:0:0:
388,208,70833,2,0,P|371:177|366:137,1,65,0|2,0:0|0:0,0:0:0:0:
308,85,71244,2,0,P|339:68|379:63,1,65,2|8,0:0|0:0,0:0:0:0:
365,148,71655,2,0,P|334:165|294:170,1,65,0|2,0:0|0:0,0:0:0:0:
220,169,72066,1,2,0:0:0:0:
140,141,72271,2,0,L|110:73,1,65,8|8,0:0|0:0,0:0:0:0:
113,81,72580,1,8,0:0:0:0:
113,81,72682,2,0,P|159:52|244:53,1,130,2|8,0:0|0:0,0:0:0:0:
313,77,73299,5,0,0:0:0:0:
313,77,73504,2,0,L|310:156,1,65,2|2,0:0|0:0,0:0:0:0:
308,226,73915,2,0,P|353:255|438:254,2,130,8|2|8,0:0|0:0|0:0,0:0:0:0:
308,226,74943,1,0,0:0:0:0:
231,261,75148,2,0,L|220:352,1,65,2|2,0:0|0:0,0:0:0:0:
141,347,75559,2,0,L|152:256,1,65,8|0,0:0|0:0,0:0:0:0:
161,156,75970,6,0,P|116:127|31:128,2,130,2|8|2,0:0|0:0|0:0,0:0:0:0:
238,190,76997,1,2,0:0:0:0:
262,108,77203,2,0,L|282:29,1,65,8|0,0:0|0:0,0:0:0:0:
351,87,77614,2,0,L|331:166,1,65,2|0,0:0|0:0,0:0:0:0:
314,232,78025,2,0,P|259:275|189:268,2,130,8|2|8,0:0|0:0|0:0,0:0:0:0:
398,223,79052,5,8,0:0:0:0:
398,223,79155,1,8,0:0:0:0:
398,223,79258,2,0,L|456:356,2,130,6|8|2,0:0|0:0|0:0,0:0:0:0:
463,169,80285,1,2,0:0:0:0:
385,139,80490,2,0,P|351:151|326:172,1,65,8|2,0:0|0:0,0:0:0:0:
245,183,80901,2,0,L|112:125,2,130,12|2|2,0:0|0:0|0:0,0:0:0:0:
297,249,81929,1,2,0:0:0:0:
256,323,82134,2,0,P|288:335|335:323,1,65,12|0,0:0|0:0,0:0:0:0:
387,282,82545,6,0,L|411:142,1,130,12|8,0:0|0:0,0:0:0:0:
125,102,83367,2,0,L|101:242,1,130,8|8,0:0|0:0,0:0:0:0:
133,309,83984,1,8,0:0:0:0:
188,245,84189,2,0,P|236:233|325:246,1,130,8|8,0:0|0:0,0:0:0:0:
384,291,84806,1,8,0:0:0:0:
384,291,85011,2,0,P|396:243|383:154,1,130,2|6,0:0|0:0,0:0:0:0:
124,192,85833,6,0,B|88:204|72:172|24:192,2,97.5,8|8|8,0:0|0:0|0:0,0:0:0:0:
420,192,87066,2,0,L|492:192,2,65,8|0|6,0:0|0:0|0:0,0:0:0:0:
335,205,87682,2,0,P|324:136|356:76,2,130,0|0|2,0:0|0:0|0:0,0:0:0:0:
335,205,88710,1,8,0:0:0:0:
199,305,89121,5,6,0:0:0:0:
116,300,89326,2,0,P|81:300|41:295,2,65,0|8|0,0:0|0:0|0:0,0:0:0:0:
199,305,89943,2,0,P|199:340|194:380,2,65,2|2|8,0:0|0:0|0:0,0:0:0:0:
283,295,90559,1,0,0:0:0:0:
364,315,90764,2,0,P|423:320|501:308,2,130,2|8|2,0:0|0:0|0:0,0:0:0:0:
283,295,91792,1,2,0:0:0:0:
235,225,91997,1,8,0:0:0:0:
319,218,92203,2,0,L|335:137,1,65,0|2,0:0|0:0,0:0:0:0:
356,73,92614,6,0,P|326:70|275:87,1,65,2|8,0:0|0:0,0:0:0:0:
219,34,93025,2,0,P|193:83|124:122,1,130,0|2,0:0|0:0,0:0:0:0:
130,120,93641,1,8,0:0:0:0:
48,143,93847,2,0,P|74:192|143:231,1,130,0|2,0:0|0:0,0:0:0:0:
220,236,94463,2,0,L|230:316,1,65,8|0,0:0|0:0,0:0:0:0:
310,321,94874,5,8,0:0:0:0:
358,251,95080,1,8,0:0:0:0:
396,326,95285,1,8,0:0:0:0:
310,321,95490,2,0,L|155:327,1,130,8|0,0:0|0:0,0:0:0:0:
94,327,96107,6,0,P|89:292|100:257,1,65,8|0,0:0|0:0,0:0:0:0:
142,192,96518,1,2,0:0:0:0:
222,218,96723,2,0,P|226:183|216:148,1,65,2|8,0:0|0:0,0:0:0:0:
304,172,97134,1,0,0:0:0:0:
355,239,97340,2,0,P|378:213|391:178,2,65,2|2|8,0:0|0:0|0:0,0:0:0:0:
288,291,97956,1,2,0:0:0:0:
204,292,98162,2,0,L|104:292,2,97.5,8|8|8,0:0|0:0|0:0,0:0:0:0:
288,291,98984,6,0,P|372:283|440:264,1,130,6|2,0:0|0:0,0:0:0:0:
478,214,99600,1,12,0:0:0:0:
475,129,99806,2,0,L|467:39,1,65,2|2,0:0|0:0,0:0:0:0:
385,76,100217,2,0,L|393:166,1,65,12|2,0:0|0:0,0:0:0:0:
312,172,100627,6,0,L|300:40,2,130,12|8|2,0:0|0:0|0:0,0:0:0:0:
273,247,101655,1,8,0:0:0:0:
214,185,101860,1,8,0:0:0:0:
189,266,102066,1,8,0:0:0:0:
131,204,102271,6,0,P|104:273|135:334,1,130,6|2,0:0|0:0,0:0:0:0:
204,352,102888,1,8,0:0:0:0:
272,300,103093,2,0,P|339:292|412:312,1,130,2|8,0:0|0:0,0:0:0:0:
434,140,103915,6,0,L|300:140,1,130,2|2,0:0|0:0,0:0:0:0:
304,140,104532,1,8,0:0:0:0:
220,148,104737,2,0,P|212:81|244:30,1,130,2|8,0:0|0:0,0:0:0:0:
143,166,105559,2,0,P|151:233|119:284,1,130,2|2,0:0|0:0,0:0:0:0:
119,283,106175,1,8,0:0:0:0:
198,312,106381,2,0,L|342:301,1,130,2|8,0:0|0:0,0:0:0:0:
412,296,106997,5,0,0:0:0:0:
480,344,107203,2,0,L|443:211,1,130,2|2,0:0|0:0,0:0:0:0:
422,137,107819,1,8,0:0:0:0:
344,172,108025,2,0,P|280:184|216:164,1,130,2|8,0:0|0:0,0:0:0:0:
201,82,108641,5,8,0:0:0:0:
201,82,108744,1,8,0:0:0:0:
201,82,108847,2,0,L|140:210,1,130,6|2,0:0|0:0,0:0:0:0:
73,153,109463,1,8,0:0:0:0:
37,229,109669,2,0,P|33:296|47:362,1,130,2|8,0:0|0:0,0:0:0:0:
192,274,110490,2,0,P|259:270|325:284,1,130,2|2,0:0|0:0,0:0:0:0:
320,282,111107,1,8,0:0:0:0:
325,197,111312,2,0,P|261:184|196:188,1,130,2|8,0:0|0:0,0:0:0:0:
196,188,111929,1,0,0:0:0:0:
199,103,112134,6,0,P|263:98|327:111,1,130,2|2,0:0|0:0,0:0:0:0:
408,135,112751,1,8,0:0:0:0:
449,61,112956,2,0,L|463:204,1,130,2|8,0:0|0:0,0:0:0:0:
396,245,113573,1,0,0:0:0:0:
326,197,113778,5,2,0:0:0:0:
282,269,113984,1,8,0:0:0:0:
282,269,114189,1,8,0:0:0:0:
217,214,114395,1,2,0:0:0:0:
163,278,114600,2,0,P|118:244|85:160,1,130,8|8,0:0|0:0,0:0:0:0:
220,73,115422,6,0,P|265:107|298:191,1,130,12|2,0:0|0:0,0:0:0:0:
293,256,116038,1,12,0:0:0:0:
271,338,116244,2,0,P|305:293|389:260,1,130,2|8,0:0|0:0,0:0:0:0:
463,120,117066,6,0,L|485:54,2,65,12|2|2,0:0|0:0|0:0,0:0:0:0:
435,199,117682,1,12,0:0:0:0:
377,136,117888,2,0,P|343:91|259:58,1,130,2|8,0:0|0:0,0:0:0:0:
110,87,118710,6,0,P|65:121|32:205,2,130,12|8|8,0:0|0:0|0:0,0:0:0:0:
193,70,119737,1,2,0:0:0:0:
192,156,119943,2,0,L|192:240,1,65,8|2,0:0|0:0,0:0:0:0:
272,244,120353,2,0,L|355:244,2,65,12|8|8,0:0|0:0|0:0,0:0:0:0:
217,309,120970,1,2,0:0:0:0:
144,348,121175,2,0,L|292:364,1,130,2|8,0:0|0:0,0:0:0:0:
352,328,121792,1,0,0:0:0:0:
428,360,121997,6,0,P|437:285|420:232,1,130,6|8,0:0|0:0,0:0:0:0:
356,180,122614,2,0,L|215:166,1,130,0|2,0:0|0:0,0:0:0:0:
148,200,123230,2,0,P|128:144|147:76,1,130,8|2,0:0|0:0,0:0:0:0:
228,66,123847,1,2,0:0:0:0:
228,66,124052,2,0,L|357:78,1,130,8|2,0:0|0:0,0:0:0:0:
438,105,124669,2,0,P|441:61|418:20,2,65,2|8|0,0:0|0:0|0:0,0:0:0:0:
414,186,125285,6,0,P|367:229|303:233,1,130,2|8,0:0|0:0,0:0:0:0:
221,253,125901,2,0,P|279:255|336:310,1,130,0|2,0:0|0:0,0:0:0:0:
252,340,126518,1,8,0:0:0:0:
252,340,126723,2,0,L|164:340,1,65,0|2,0:0|0:0,0:0:0:0:
116,293,127134,2,0,L|130:230,1,65,2|8,0:0|0:0,0:0:0:0:
48,207,127545,2,0,L|29:288,2,65,0|2|2,0:0|0:0|0:0,0:0:0:0:
48,207,128162,1,8,0:0:0:0:
73,125,128367,1,0,0:0:0:0:
149,87,128573,6,0,P|214:81|273:112,1,130,6|8,0:0|0:0,0:0:0:0:
303,187,129189,2,0,P|322:204|361:215,1,65
423,270,129600,2,0,P|404:287|365:298,1,65,2|8,0:0|0:0,0:0:0:0:
281,300,130011,2,0,P|285:326|308:359,1,65,0|2,0:0|0:0,0:0:0:0:
281,300,130422,2,0,P|278:274|255:241,1,65,2|8,0:0|0:0,0:0:0:0:
198,304,130833,2,0,L|57:291,1,130,0|2,0:0|0:0,0:0:0:0:
79,208,131449,2,0,L|148:214,1,65,8|0,0:0|0:0,0:0:0:0:
152,129,131860,6,0,P|214:108|293:121,1,130,12|2,0:0|0:0,0:0:0:0:
361,123,132477,2,0,L|374:56,2,65,8|2|2,0:0|0:0|0:0,0:0:0:0:
417,190,133093,2,0,P|453:183|482:158,1,65,12|0,0:0|0:0,0:0:0:0:
336,204,133504,2,0,L|315:268,2,65,12|2|2,0:0|0:0|0:0,0:0:0:0:
276,148,134121,1,8,0:0:0:0:
276,148,134326,2,0,L|220:186,1,65,2|2,0:0|0:0,0:0:0:0:
232,80,134737,2,0,P|171:64|102:84,2,130,8|6|8,0:0|0:0|0:0,0:0:0:0:
344,88,135764,6,0,P|364:140|336:216,1,130,0|2,0:0|0:0,0:0:0:0:
284,268,136381,2,0,L|139:247,1,130,8|2,0:0|0:0,0:0:0:0:
133,170,136997,1,2,0:0:0:0:
133,170,137203,2,0,P|152:100|202:72,1,130,8|2,0:0|0:0,0:0:0:0:
261,128,137819,1,2,0:0:0:0:
340,99,138025,1,8,0:0:0:0:
409,146,138230,1,0,0:0:0:0:
455,77,138436,6,0,L|467:210,1,130,2|8,0:0|0:0,0:0:0:0:
472,292,139052,2,0,P|409:315|345:291,1,130,0|2,0:0|0:0,0:0:0:0:
280,248,139668,1,8,0:0:0:0:
216,192,139874,2,0,P|199:223|194:263,1,65,0|2,0:0|0:0,0:0:0:0:
140,316,140285,2,0,P|171:333|211:338,1,65,2|8,0:0|0:0,0:0:0:0:
275,300,140696,2,0,P|306:283|346:278,1,65,0|2,0:0|0:0,0:0:0:0:
419,281,141107,1,2,0:0:0:0:
419,281,141312,1,8,0:0:0:0:
429,196,141518,5,8,0:0:0:0:
429,196,141621,1,8,0:0:0:0:
429,196,141723,2,0,P|401:148|326:109,1,130,6|8,0:0|0:0,0:0:0:0:
259,143,142340,1,0,0:0:0:0:
259,143,142545,2,0,L|180:146,1,65,2|2,0:0|0:0,0:0:0:0:
128,91,142956,2,0,P|173:62|258:63,2,130,8|2|8,0:0|0:0|0:0,0:0:0:0:
91,167,143984,5,0,0:0:0:0:
81,250,144189,2,0,L|70:341,1,65,2|2,0:0|0:0,0:0:0:0:
156,299,144600,2,0,L|167:390,1,65,8|0,0:0|0:0,0:0:0:0:
241,329,145011,2,0,P|286:300|371:301,2,130,2|8|2,0:0|0:0|0:0,0:0:0:0:
241,329,146038,1,2,0:0:0:0:
222,246,146244,2,0,L|242:167,1,65,8|0,0:0|0:0,0:0:0:0:
322,184,146655,6,0,L|302:105,1,65,2|0,0:0|0:0,0:0:0:0:
269,44,147066,2,0,L|135:42,2,130,8|2|8,0:0|0:0|0:0,0:0:0:0:
352,44,148093,1,8,0:0:0:0:
352,44,148196,1,8,0:0:0:0:
352,44,148299,2,0,L|410:177,1,130,6|8,0:0|0:0,0:0:0:0:
479,123,148915,5,0,0:0:0:0:
488,207,149121,2,0,L|483:291,1,65,2|2,0:0|0:0,0:0:0:0:
467,354,149531,2,0,P|433:342|408:321,1,65,8|0,0:0|0:0,0:0:0:0:
332,290,149943,2,0,L|199:348,2,130,12|2|2,0:0|0:0|0:0,0:0:0:0:
332,290,150970,1,0,0:0:0:0:
376,218,151175,2,0,P|344:206|297:218,1,65,12|0,0:0|0:0,0:0:0:0:
232,231,151586,6,0,P|148:243|98:216,1,130,12|8,0:0|0:0,0:0:0:0:
109,225,152203,1,8,0:0:0:0:
65,296,152408,2,0,L|41:156,1,130,8|8,0:0|0:0,0:0:0:0:
98,103,153025,1,8,0:0:0:0:
174,137,153230,2,0,P|222:149|311:136,1,130,8|8,0:0|0:0,0:0:0:0:
384,123,153847,1,8,0:0:0:0:
384,123,154052,2,0,P|396:171|383:260,1,130,8|8,0:0|0:0,0:0:0:0:
296,268,154669,1,0,0:0:0:0:
232,212,154874,1,6,0:0:0:0:
256,192,154977,12,2,158162,0:0:0:0:
100,256,168025,6,0,P|129:302|322:314,1,260,6|8,0:0|0:0,0:0:0:0:
420,185,169258,2,0,L|411:89,1,65,8|8,0:0|0:0,0:0:0:0:
364,52,169669,2,0,P|320:41|256:52,2,97.5,2|2|2,0:0|0:0|0:0,0:0:0:0:
316,124,170490,2,0,P|272:135|192:100,1,130,8|8,0:0|0:0,0:0:0:0:
113,126,171107,1,8,0:0:0:0:
113,126,171312,2,0,L|71:227,2,97.5,6|2|2,0:0|0:0|0:0,0:0:0:0:
76,49,172134,5,8,0:0:0:0:
186,177,172545,1,8,0:0:0:0:
248,120,172751,1,8,0:0:0:0:
248,120,172956,2,0,P|296:111|352:129,2,97.5,2|2|2,0:0|0:0|0:0,0:0:0:0:
296,196,173778,2,0,P|344:208|416:168,1,130,8|8,0:0|0:0,0:0:0:0:
485,128,174395,5,8,0:0:0:0:
485,128,174600,2,0,P|494:176|476:232,2,97.5,6|2|2,0:0|0:0|0:0,0:0:0:0:
427,66,175422,1,8,0:0:0:0:
346,83,175627,2,0,L|253:78,1,65,0|8,0:0|0:0,0:0:0:0:
221,139,176038,1,8,0:0:0:0:
221,139,176244,2,0,L|150:39,2,97.5,2|2|2,0:0|0:0|0:0,0:0:0:0:
291,186,177066,6,0,P|232:221|170:205,1,130,8|8,0:0|0:0,0:0:0:0:
96,175,177682,1,8,0:0:0:0:
96,175,177887,2,0,P|87:127|105:71,2,97.5,6|2|2,0:0|0:0|0:0,0:0:0:0:
35,236,178710,2,0,L|13:371,1,130,8|8,0:0|0:0,0:0:0:0:
97,351,179327,1,8,0:0:0:0:
97,351,179532,2,0,P|145:342|228:351,1,130,2|8,0:0|0:0,0:0:0:0:
305,321,180148,6,0,L|311:366,2,32.5,8|8|8,0:0|0:0|0:0,0:0:0:0:
387,339,180559,1,2,0:0:0:0:
365,257,180764,1,8,0:0:0:0:
460,117,181175,6,0,L|466:233,2,97.5,6|2|2,0:0|0:0|0:0,0:0:0:0:
382,82,181997,2,0,P|315:56|240:75,1,130,8|8,0:0|0:0,0:0:0:0:
183,104,182614,1,8,0:0:0:0:
183,104,182819,2,0,P|132:105|76:82,2,97.5,2|2|2,0:0|0:0|0:0,0:0:0:0:
254,148,183641,2,0,P|249:226|226:282,1,130,8|8,0:0|0:0,0:0:0:0:
145,272,184258,1,8,0:0:0:0:
145,272,184463,2,0,P|94:271|38:294,2,97.5,6|2|2,0:0|0:0|0:0,0:0:0:0:
186,345,185285,6,0,L|287:336,1,97.5,8|0,0:0|0:0,0:0:0:0:
316,360,185696,2,0,L|340:268,1,65,8|8,0:0|0:0,0:0:0:0:
412,325,186107,2,0,P|431:255|421:210,1,97.5,2|8,0:0|0:0,0:0:0:0:
427,231,186518,1,8,0:0:0:0:
363,175,186723,2,0,L|376:119,2,32.5,8|8|8,0:0|0:0|0:0,0:0:0:0:
296,227,187134,2,0,L|283:283,2,32.5,8|8|8,0:0|0:0|0:0,0:0:0:0:
272,144,187545,1,8,0:0:0:0:
272,144,187648,1,8,0:0:0:0:
272,144,187751,2,0,P|206:137|142:161,1,130,6|8,0:0|0:0,0:0:0:0:
80,209,188367,5,0,0:0:0:0:
110,288,188573,2,0,L|213:313,1,97.5,2|0,0:0|0:0,0:0:0:0:
204,310,188984,2,0,P|239:297|282:302,1,65,12|0,0:0|0:0,0:0:0:0:
344,330,189395,6,0,P|424:291|450:240,1,130,12|2,0:0|0:0,0:0:0:0:
463,175,190011,2,0,L|463:104,2,65,12|2|2,0:0|0:0|0:0,0:0:0:0:
381,197,190627,1,12,0:0:0:0:
381,197,190833,1,0,0:0:0:0:
297,188,191038,6,0,P|254:164|172:159,1,130,12|2,0:0|0:0,0:0:0:0:
98,197,191655,2,0,L|80:63,1,130,12|2,0:0|0:0,0:0:0:0:
162,47,192270,1,12,0:0:0:0:
162,47,192476,1,0,0:0:0:0:
236,84,192682,6,0,L|236:156,2,65,6|8|2,0:0|0:0|0:0,0:0:0:0:
316,52,193299,1,8,0:0:0:0:
380,108,193504,2,0,L|434:152,2,65,2|8|2,0:0|0:0|0:0,0:0:0:0:
308,152,194121,1,8,0:0:0:0:
308,152,194326,1,8,0:0:0:0:
256,192,194429,12,0,195970,0:0:0:0:
183,280,209121,5,12,0:0:0:0:
302,160,209532,1,2,0:0:0:0:
337,236,209737,2,0,P|303:295|243:339,1,130,8|2,0:0|0:0,0:0:0:0:
183,280,210354,1,8,0:0:0:0:
170,363,210559,1,2,0:0:0:0:
101,313,210764,6,0,L|75:159,1,130,8|2,0:0|0:0,0:0:0:0:
161,161,211381,2,0,L|184:84,2,65,8|2|2,0:0|0:0|0:0,0:0:0:0:
235,201,211997,1,8,0:0:0:0:
235,201,212203,1,2,0:0:0:0:
314,227,212408,6,0,P|339:166|328:95,1,130,8|2,0:0|0:0,0:0:0:0:
360,24,213025,2,0,P|422:44|470:98,1,130,8|2,0:0|0:0,0:0:0:0:
476,173,213641,1,8,0:0:0:0:
400,210,213847,2,0,L|390:283,1,65,2|8,0:0|0:0,0:0:0:0:
464,319,214258,2,0,L|474:246,1,65,2|2,0:0|0:0,0:0:0:0:
476,173,214669,2,0,P|432:132|360:132,1,130,8|2,0:0|0:0,0:0:0:0:
285,160,215285,2,0,L|269:82,1,65,8|2,0:0|0:0,0:0:0:0:
196,135,215696,6,0,P|151:136|59:108,1,130,12|2,0:0|0:0,0:0:0:0:
35,190,216312,1,8,0:0:0:0:
69,270,216518,2,0,P|131:250|196:249,1,130,2|12,0:0|0:0,0:0:0:0:
316,135,217340,6,0,P|361:136|453:108,1,130,12|2,0:0|0:0,0:0:0:0:
477,190,217956,1,8,0:0:0:0:
442,270,218162,2,0,P|380:250|316:249,1,130,2|12,0:0|0:0,0:0:0:0:
256,308,218778,1,0,0:0:0:0:
180,347,218984,6,0,P|119:329|80:271,1,130,8|2,0:0|0:0,0:0:0:0:
62,194,219600,2,0,L|49:124,1,65,8|2,0:0|0:0,0:0:0:0:
132,116,220011,2,0,L|145:186,1,65,8|2,0:0|0:0,0:0:0:0:
184,256,220422,1,8,0:0:0:0:
232,188,220627,5,8,0:0:0:0:
232,188,220833,1,8,0:0:0:0:
288,272,221038,1,8,0:0:0:0:
288,272,221244,2,4,P|325:247|352:180,2,97.5,8|12|8,0:0|0:0|0:0,0:0:0:0:
307,358,222066,1,8,0:0:0:0:
307,358,222169,1,8,0:0:0:0:
307,358,222271,6,0,L|452:340,1,130,6|8,0:0|0:0,0:0:0:0:
469,263,222888,2,0,L|451:118,1,130,0|2,0:0|0:0,0:0:0:0:
379,175,223504,2,0,P|328:115|335:58,1,130,8|2,0:0|0:0,0:0:0:0:
330,67,224121,1,2,0:0:0:0:
256,164,224326,2,0,L|241:300,1,130,8|2,0:0|0:0,0:0:0:0:
171,340,224943,2,0,P|126:341|88:368,2,65,2|8|0,0:0|0:0|0:0,0:0:0:0:
165,255,225559,6,0,P|138:203|76:156,1,130,2|8,0:0|0:0,0:0:0:0:
28,224,226175,2,0,L|44:80,1,130,0|2,0:0|0:0,0:0:0:0:
108,40,226792,1,8,0:0:0:0:
184,80,226997,2,0,L|165:161,1,65,0|2,0:0|0:0,0:0:0:0:
180,227,227408,2,0,L|194:290,1,65,2|8,0:0|0:0,0:0:0:0:
272,260,227819,2,0,L|253:179,2,65,0|2|2,0:0|0:0|0:0,0:0:0:0:
356,272,228436,1,8,0:0:0:0:
356,272,228641,1,0,0:0:0:0:
428,227,228847,6,0,P|434:162|403:103,1,130,6|8,0:0|0:0,0:0:0:0:
344,164,229463,2,0,P|325:147|286:136,1,65
226,77,229874,2,0,P|245:60|284:49,1,65,2|8,0:0|0:0,0:0:0:0:
226,77,230285,2,0,P|222:51|199:18,1,65,0|2,0:0|0:0,0:0:0:0:
145,83,230696,2,0,P|125:108|120:140,1,65,2|8,0:0|0:0,0:0:0:0:
48,184,231107,2,0,L|189:197,1,130,0|2,0:0|0:0,0:0:0:0:
264,196,231723,2,0,L|280:278,1,65,8|0,0:0|0:0,0:0:0:0:
320,336,232134,6,0,P|272:345|197:298,1,130,12|2,0:0|0:0,0:0:0:0:
123,276,232751,2,0,L|110:343,2,65,8|2|2,0:0|0:0|0:0,0:0:0:0:
127,191,233367,2,0,P|163:198|192:223,1,65,12|0,0:0|0:0,0:0:0:0:
265,186,233778,2,0,L|252:119,2,65,12|2|2,0:0|0:0|0:0,0:0:0:0:
341,223,234395,1,8,0:0:0:0:
341,223,234600,2,0,L|354:156,1,65,2|2,0:0|0:0,0:0:0:0:
380,78,235011,2,0,P|441:62|510:82,2,130,8|6|8,0:0|0:0|0:0,0:0:0:0:
303,41,236038,6,0,L|158:62,1,130,0|2,0:0|0:0,0:0:0:0:
163,144,236655,2,0,L|308:123,1,130,8|2,0:0|0:0,0:0:0:0:
374,109,237271,1,2,0:0:0:0:
374,109,237477,2,0,P|444:128|472:178,1,130,8|2,0:0|0:0,0:0:0:0:
446,255,238093,1,2,0:0:0:0:
389,191,238299,1,8,0:0:0:0:
320,240,238504,1,0,0:0:0:0:
320,240,238710,2,0,P|243:230|194:204,1,130,2|8,0:0|0:0,0:0:0:0:
104,348,239532,6,0,P|181:338|230:312,1,130,2|8,0:0|0:0,0:0:0:0:
296,361,240148,2,0,P|313:330|318:290,1,65,0|2,0:0|0:0,0:0:0:0:
372,235,240559,2,0,P|341:218|301:213,1,65,2|8,0:0|0:0,0:0:0:0:
229,231,240970,2,0,P|192:243|156:235,1,65,0|2,0:0|0:0,0:0:0:0:
93,196,241381,1,2,0:0:0:0:
108,113,241586,2,0,L|126:40,1,65,8|8,0:0|0:0,0:0:0:0:
208,41,241997,6,0,P|262:46|328:99,1,130,2|8,0:0|0:0,0:0:0:0:
400,57,242614,1,0,0:0:0:0:
400,57,242819,2,0,L|418:136,1,65,2|2,0:0|0:0,0:0:0:0:
344,167,243230,2,0,P|389:196|474:195,2,130,8|2|8,0:0|0:0|0:0,0:0:0:0:
259,159,244258,1,0,0:0:0:0:
259,159,244463,2,0,L|248:250,1,65,2|2,0:0|0:0,0:0:0:0:
166,216,244874,2,0,L|177:125,1,65,8|0,0:0|0:0,0:0:0:0:
88,152,245285,6,0,L|71:300,2,130,2|8|2,0:0|0:0|0:0,0:0:0:0:
112,72,246312,1,2,0:0:0:0:
112,72,246518,2,0,L|180:72,1,65,8|0,0:0|0:0,0:0:0:0:
260,72,246929,2,0,L|348:72,1,65,2|0,0:0|0:0,0:0:0:0:
408,76,247340,2,0,P|451:131|444:201,2,130,8|2|8,0:0|0:0|0:0,0:0:0:0:
364,148,248367,1,8,0:0:0:0:
364,148,248470,1,8,0:0:0:0:
364,148,248573,2,0,L|332:280,1,130,6|8,0:0|0:0,0:0:0:0:
273,334,249189,5,0,0:0:0:0:
228,261,249395,2,0,L|136:252,1,65,2|2,0:0|0:0,0:0:0:0:
137,334,249805,2,0,P|171:346|196:367,1,65,8|2,0:0|0:0,0:0:0:0:
273,334,250216,2,0,P|339:314|411:322,1,130,12|2,0:0|0:0,0:0:0:0:
458,257,250833,5,8,0:0:0:0:
400,195,251038,2,0,L|319:183,1,65,2|2,0:0|0:0,0:0:0:0:
261,226,251449,2,0,P|250:184|261:145,1,65,12|0,0:0|0:0,0:0:0:0:
277,81,251860,6,0,L|137:57,1,130,12|2,0:0|0:0,0:0:0:0:
83,113,252477,1,8,0:0:0:0:
83,113,252682,2,0,L|59:253,1,130,2|2,0:0|0:0,0:0:0:0:
81,323,253299,1,8,0:0:0:0:
144,267,253504,2,0,P|192:255|281:268,1,130,2|2,0:0|0:0,0:0:0:0:
342,310,254121,1,8,0:0:0:0:
375,232,254326,2,0,P|387:184|374:95,1,130,2|4,0:0|0:0,0:0:0:0:
317,44,254943,1,0,0:0:0:0:
264,109,255148,6,0,P|200:124|134:109,1,130,6|8,0:0|0:0,0:0:0:0:
60,76,255764,2,0,L|50:157,1,65,0|2,0:0|0:0,0:0:0:0:
85,218,256175,1,2,0:0:0:0:
85,218,256381,1,8,0:0:0:0:
168,227,256586,2,0,P|228:208|306:216,1,130,0|2,0:0|0:0,0:0:0:0:
369,252,257203,1,8,0:0:0:0:
302,304,257408,1,0,0:0:0:0:
379,338,257614,2,0,P|420:345|490:278,1,130,2|8,0:0|0:0,0:0:0:0:
459,126,258436,5,2,0:0:0:0:
459,126,258641,1,2,0:0:0:0:
397,67,258847,1,8,0:0:0:0:
361,143,259052,2,0,P|290:166|238:146,1,130,0|2,0:0|0:0,0:0:0:0:
162,181,259669,2,0,L|155:267,1,65,8|0,0:0|0:0,0:0:0:0:
146,329,260080,5,2,0:0:0:0:
146,329,260285,1,2,0:0:0:0:
232,336,260490,1,8,0:0:0:0:
232,336,260696,2,0,L|385:321,1,130,0|2,0:0|0:0,0:0:0:0:
434,366,261312,2,0,P|446:336|442:287,1,65,8|0,0:0|0:0,0:0:0:0:
420,224,261723,6,0,L|284:224,1,130,6|8,0:0|0:0,0:0:0:0:
208,224,262340,2,0,P|152:179|138:117,1,130,2|2,0:0|0:0,0:0:0:0:
54,110,262956,1,8,0:0:0:0:
36,192,263162,2,0,P|92:237|106:299,1,130,2|2,0:0|0:0,0:0:0:0:
188,308,263778,1,8,0:0:0:0:
268,333,263984,2,0,P|271:297|256:248,1,65,2|0,0:0|0:0,0:0:0:0:
329,213,264395,2,0,P|299:193|248:183,1,65,2|8,0:0|0:0,0:0:0:0:
216,120,264806,1,8,0:0:0:0:
249,42,265011,6,0,P|312:78|378:63,1,130,6|8,0:0|0:0,0:0:0:0:
452,76,265627,2,0,L|462:157,1,65,0|2,0:0|0:0,0:0:0:0:
427,218,266038,1,2,0:0:0:0:
427,218,266244,1,8,0:0:0:0:
344,227,266449,2,0,P|284:208|206:216,1,130,0|2,0:0|0:0,0:0:0:0:
143,252,267066,1,8,0:0:0:0:
210,304,267271,1,0,0:0:0:0:
133,338,267477,2,0,P|92:345|22:278,1,130,2|8,0:0|0:0,0:0:0:0:
53,126,268299,5,2,0:0:0:0:
89,202,268504,1,0,0:0:0:0:
151,143,268710,1,8,0:0:0:0:
151,143,268915,2,0,P|222:166|274:146,1,130,0|2,0:0|0:0,0:0:0:0:
350,181,269532,2,0,L|357:267,1,65,8|0,0:0|0:0,0:0:0:0:
366,329,269943,5,2,0:0:0:0:
366,329,270148,1,0,0:0:0:0:
280,336,270353,1,8,0:0:0:0:
280,336,270559,2,0,L|127:321,1,130,0|2,0:0|0:0,0:0:0:0:
78,365,271175,2,0,P|65:335|70:286,1,65,12|0,0:0|0:0,0:0:0:0:
108,230,271586,5,8,0:0:0:0:
191,243,271792,2,0,L|206:178,1,65,2|2,0:0|0:0,0:0:0:0:
290,181,272203,2,0,L|275:116,1,65,8|2,0:0|0:0,0:0:0:0:
359,106,272614,2,0,L|373:169,1,65,2|8,0:0|0:0,0:0:0:0:
392,252,273025,1,2,0:0:0:0:
328,308,273230,6,0,L|262:284,1,65,8|2,0:0|0:0,0:0:0:0:
219,356,273641,2,0,L|153:332,1,65,8|2,0:0|0:0,0:0:0:0:
80,304,274052,1,8,0:0:0:0:
144,248,274258,1,8,0:0:0:0:
76,196,274463,1,8,0:0:0:0:
144,144,274669,1,8,0:0:0:0:
