osu file format v14

[General]
AudioFilename: audio.mp3
AudioLeadIn: 0
PreviewTime: 31185
Countdown: 0
SampleSet: Soft
StackLeniency: 0.4
Mode: 0
LetterboxInBreaks: 0
WidescreenStoryboard: 0

[Editor]
DistanceSpacing: 4
BeatDivisor: 4
GridSize: 4
TimelineZoom: 1.3

[Metadata]
Title:Mikazuki
TitleUnicode:ミカヅキ
Artist:Sayuri
ArtistUnicode:さユり
Creator:handsome
Version:Master
Source:乱歩奇譚 Game of Laplace
Tags:ミカヅキの航海 さゆり mikazuki no koukai crescent moon voyage j-pop rampo kitan full version anime size ending appleeaterx toybot fanzhen0019
BeatmapID:1028017
BeatmapSetID:481703

[Difficulty]
HPDrainRate:6
CircleSize:4
OverallDifficulty:8
ApproachRate:8
SliderMultiplier:1.4
SliderTickRate:1

[Events]
//Background and Video events
0,0,"37294005_p0.jpg",0,0
//Break Periods
2,145789,160077
2,175313,176268
2,228446,235315
//Storyboard Layer 0 (Background)
//Storyboard Layer 1 (Fail)
//Storyboard Layer 2 (Pass)
//Storyboard Layer 3 (Foreground)
//Storyboard Sound Samples

[TimingPoints]
828,476.190476190476,4,2,1,30,1,0
828,-125,4,2,1,30,0,0
16066,-100,4,2,1,50,0,0
26542,-125,4,2,1,50,0,0
27018,-100,4,2,1,50,0,0
27494,-125,4,2,1,50,0,0
27970,-100,4,2,1,50,0,0
28447,-125,4,2,1,50,0,0
28923,-100,4,2,1,50,0,0
31304,-55.5555555555556,4,2,1,60,0,1
32256,-50,4,2,1,70,0,1
33685,-45.4545454545455,4,2,1,80,0,1
34161,-45.4545454545455,4,2,1,50,0,1
35113,-55.5555555555556,4,2,1,60,0,1
36066,-50,4,2,1,70,0,1
37018,-50,4,2,1,60,0,1
37494,-62.5,4,2,1,50,0,1
37970,-83.3333333333333,4,2,1,40,0,1
38923,-62.5,4,2,1,50,0,1
40827,-62.5,4,2,1,60,0,1
42256,-125,4,2,1,50,0,1
42732,-62.5,4,2,1,60,0,1
44637,-62.5,4,2,1,40,0,0
45113,-62.5,4,2,1,50,0,0
45589,-62.5,4,2,1,60,0,0
46066,-125,4,2,1,70,0,0
46542,-55.5555555555556,4,2,1,60,0,1
47494,-50,4,2,1,70,0,1
48923,-45.4545454545455,4,2,1,80,0,1
49399,-45.4545454545455,4,2,1,50,0,1
50351,-62.5,4,2,1,60,0,1
51542,-62.5,4,2,1,40,0,1
51780,-62.5,4,2,1,50,0,1
52018,-62.5,4,2,1,60,0,1
52256,-55.5555555555556,4,2,1,70,0,1
54161,-62.5,4,2,1,60,0,1
57494,-125,4,2,1,50,0,1
57970,-55.5555555555556,4,2,1,40,0,1
58447,-55.5555555555556,4,2,1,50,0,1
58923,-55.5555555555556,4,2,1,60,0,1
59399,-55.5555555555556,4,2,1,70,0,1
59875,-55.5555555555556,4,2,1,80,0,0
60351,-55.5555555555556,4,2,1,60,0,0
61542,-83.3333333333333,4,2,1,50,0,0
69399,-125,4,2,1,30,0,0
77018,-125,4,2,1,40,0,0
84637,-83.3333333333333,4,2,1,50,0,0
96066,-83.3333333333333,4,2,1,60,0,0
98923,-125,4,2,1,40,0,0
99280,-125,4,2,1,10,0,0
99399,-62.5,4,2,1,30,0,0
99875,-55.5555555555556,4,2,1,60,0,1
100827,-50,4,2,1,70,0,1
101780,-50,4,2,1,60,0,1
102732,-62.5,4,2,1,70,0,1
103685,-55.5555555555556,4,2,1,60,0,1
104637,-50,4,2,1,70,0,1
105589,-50,4,2,1,60,0,1
106066,-62.5,4,2,1,50,0,1
106542,-83.3333333333333,4,2,1,40,0,1
107494,-62.5,4,2,1,50,0,1
109399,-62.5,4,2,1,60,0,1
110827,-125,4,2,1,50,0,1
111304,-62.5,4,2,1,60,0,1
113208,-62.5,4,2,1,40,0,0
113685,-62.5,4,2,1,50,0,0
114161,-62.5,4,2,1,60,0,0
114637,-125,4,2,1,70,0,0
115113,-55.5555555555556,4,2,1,60,0,1
116066,-50,4,2,1,70,0,1
117018,-50,4,2,1,60,0,1
117970,-62.5,4,2,1,70,0,1
118923,-62.5,4,2,1,60,0,1
120827,-55.5555555555556,4,2,1,70,0,1
122732,-62.5,4,2,1,60,0,1
126066,-125,4,2,1,50,0,1
126542,-125,4,2,1,40,0,1
127018,-125,4,2,1,50,0,1
127494,-125,4,2,1,60,0,1
127970,-125,4,2,1,70,0,1
128447,-62.5,4,2,1,60,0,0
130351,-62.5,4,2,1,70,0,1
131780,-55.5555555555556,4,2,1,70,0,1
132256,-50,4,2,1,70,0,1
133208,-45.4545454545455,4,2,1,70,0,1
133685,-41.6666666666667,4,2,1,70,0,1
134161,-38.4615384615385,4,2,1,70,0,1
134637,-50,4,2,1,70,0,1
134875,-35.7142857142857,4,2,1,70,0,1
135351,-50,4,2,1,70,0,1
135589,-38.4615384615385,4,2,1,70,0,1
136066,-50,4,2,1,70,0,1
138208,-71.4285714285714,4,2,1,55,0,1
138566,-62.5,4,2,1,60,0,1
138923,-55.5555555555556,4,2,1,65,0,1
139280,-50,4,2,1,70,0,1
141780,-50,4,2,1,65,0,1
142137,-50,4,2,1,70,0,1
142494,-50,4,2,1,75,0,1
143685,-50,4,2,1,80,0,1
144161,-50,4,2,1,85,0,1
144875,-125,4,2,1,50,0,0
160827,-200,4,2,1,30,0,0
162732,-125,4,2,1,40,0,0
166542,-100,4,2,1,50,0,0
168447,-100,4,2,1,50,0,0
169399,-100,4,2,1,55,0,0
170351,-100,4,2,1,60,0,0
171780,-166.666666666667,4,2,1,60,0,0
173685,-100,4,2,1,60,0,0
177018,476.190476190476,4,2,1,60,1,0
177018,-100,4,2,1,60,0,0
178922,-55.5555555555556,4,2,1,60,0,1
179875,-50,4,2,1,70,0,1
181303,-45.4545454545455,4,2,1,80,0,1
181779,-45.4545454545455,4,2,1,50,0,1
182732,-55.5555555555556,4,2,1,60,0,1
183684,-50,4,2,1,70,0,1
184637,-50,4,2,1,60,0,1
185113,-62.5,4,2,1,50,0,1
185589,-83.3333333333333,4,2,1,40,0,1
186541,-62.5,4,2,1,50,0,1
188446,-62.5,4,2,1,60,0,1
189875,-125,4,2,1,50,0,1
190351,-62.5,4,2,1,60,0,1
192256,-62.5,4,2,1,40,0,0
192732,-62.5,4,2,1,50,0,0
193208,-62.5,4,2,1,60,0,0
193684,-62.5,4,2,1,70,0,0
194160,-55.5555555555556,4,2,1,60,0,1
195113,-50,4,2,1,70,0,1
196541,-45.4545454545455,4,2,1,80,0,1
197018,-83.3333333333333,4,2,1,50,0,1
197970,-50,4,2,1,60,0,1
199875,-62.5,4,2,1,70,0,1
201779,-62.5,4,2,1,60,0,1
205113,-125,4,2,1,50,0,1
205589,-62.5,4,2,1,40,0,1
206065,-62.5,4,2,1,50,0,1
206541,-62.5,4,2,1,60,0,1
207018,-62.5,4,2,1,70,0,1
207494,-62.5,4,2,1,60,0,1
208922,-62.5,4,2,1,70,0,0
209398,-62.5,4,2,1,80,0,1
209637,-62.5,4,2,1,70,0,0
210351,-62.5,4,2,1,80,0,1
210589,-62.5,4,2,1,70,0,0
211303,-62.5,4,2,1,80,0,1
211541,-62.5,4,2,1,70,0,0
213208,-62.5,4,2,1,80,0,1
226303,-62.5,4,2,1,80,0,0
236065,-125,4,2,1,30,0,0
243684,500,4,2,1,30,1,0
243684,-125,4,2,1,30,0,0
244684,555.555555555556,4,2,1,30,1,0
244684,-125,4,2,1,30,0,0
245795,576.923076923077,4,2,1,30,1,0
245795,-125,4,2,1,30,0,0
246371,689.655172413793,4,2,1,30,1,0
247060,1200,4,2,1,30,1,0
248260,1395.3488372093,4,2,1,30,1,0
249655,1499.99999999999,4,2,1,30,1,0
251155,1818.18181818182,4,2,1,30,1,0
253105,909.090909090909,4,2,1,30,1,0

[Colours]
Combo1 : 159,225,244
Combo2 : 253,215,142
Combo3 : 167,243,207
Combo4 : 250,255,183

[HitObjects]
109,44,828,6,2,L|113:123,2,56
229,171,1780,2,2,L|233:92,2,56
251,32,2732,6,2,P|294:57|306:77,3,56
172,56,3685,2,0,P|172:6|183:-14,1,56,2|0,0:0|0:0,0:0:0:0:
232,112,4161,2,0,P|188:136|165:137,1,56
58,187,4637,6,2,P|85:180|113:184,1,56
187,217,5114,1,2,0:0:0:0:
187,217,5351,1,2,0:0:0:0:
268,186,5590,6,2,P|295:193|323:189,1,56
398,156,6067,1,2,0:0:0:0:
398,156,6304,1,2,0:0:0:0:
415,291,6542,6,2,L|421:223,3,56
348,345,7494,1,2,0:0:0:0:
348,345,7732,1,2,0:0:0:0:
270,333,7970,1,2,0:0:0:0:
270,333,8208,1,2,0:0:0:0:
219,272,8447,6,2,P|183:263|145:263,1,56
96,303,8923,1,2,0:0:0:0:
1,158,9399,6,2,P|36:148|75:148,1,56
124,188,9875,1,2,0:0:0:0:
219,43,10351,6,2,P|183:33|144:33,1,56
96,73,10827,1,2,0:0:0:0:
96,73,11304,6,2,L|102:148,1,56
177,167,11780,2,2,L|171:242,1,56
37,334,12256,6,2,L|42:279,2,56
212,344,13208,2,2,L|216:288,2,56
387,354,14161,6,2,L|391:298,1,56
505,118,14637,2,2,L|500:173,1,56
446,236,15113,1,4,0:1:0:0:
45,71,16066,5,4,1:0:0:0:
45,71,16304,2,0,L|124:60,1,70,2|0,1:2|0:0,0:0:0:0:
179,122,16780,2,0,P|174:156|181:190,1,70,2|0,0:0|0:0,0:0:0:0:
268,231,17256,1,2,0:0:0:0:
268,231,17494,2,0,P|272:196|265:162,1,70,2|0,0:0|0:0,0:0:0:0:
121,268,17970,5,0,0:0:0:0:
121,268,18208,1,0,0:0:0:0:
121,268,18447,1,0,0:0:0:0:
121,268,18685,1,0,0:0:0:0:
121,268,18923,6,0,L|211:271,1,70,2|0,0:0|0:0,0:0:0:0:
263,336,19399,2,0,L|353:339,1,70,2|0,0:0|0:0,0:0:0:0:
455,306,19875,5,4,1:0:0:0:
455,306,20113,2,0,P|464:270|459:227,1,70,2|0,1:2|0:0,0:0:0:0:
269,140,20589,2,0,L|182:131,1,70,2|0,0:0|0:0,0:0:0:0:
429,109,21065,1,2,0:0:0:0:
375,263,21304,1,2,0:0:0:0:
358,171,21542,1,2,0:0:0:0:
148,200,21780,6,0,P|159:134|138:43,1,140,4|0,0:1|0:0,0:0:0:0:
146,62,22494,1,2,0:0:0:0:
9,20,22732,2,0,L|84:12,1,70,2|0,0:0|0:0,0:0:0:0:
231,55,23208,2,0,L|306:47,1,70,2|0,0:0|0:0,0:0:0:0:
455,78,23685,5,4,1:0:0:0:
455,78,23923,2,0,P|464:114|459:157,1,70,2|0,1:2|0:0,0:0:0:0:
313,186,24399,2,0,L|226:195,1,70,2|0,0:0|0:0,0:0:0:0:
378,242,24875,1,2,0:0:0:0:
443,298,25113,2,0,L|530:289,1,70,2|0,0:0|0:0,0:0:0:0:
320,314,25589,1,4,0:2:0:0:
320,314,26066,6,0,P|257:291|196:315,1,105,0|0,1:0|0:0,0:0:0:0:
168,355,26542,2,0,P|207:376|239:370,1,56,2|0,0:0|0:0,0:0:0:0:
221,298,27018,6,0,P|228:246|206:200,1,105,0|0,1:0|0:0,0:0:0:0:
134,166,27494,2,0,P|125:192|130:220,1,56,4|4,0:3|0:3,0:0:0:0:
205,199,27970,6,0,P|269:180|304:125,1,105,0|0,1:0|0:0,0:0:0:0:
302,77,28447,2,0,P|258:82|235:106,1,56,2|0,0:0|0:0,0:0:0:0:
293,152,28923,6,0,P|330:207|393:224,1,105,0|0,1:0|0:0,0:0:0:0:
439,210,29399,5,0,1:0:0:0:
134,166,29637,1,0,1:0:0:0:
354,381,29875,1,0,1:0:0:0:
302,77,30113,1,0,1:0:0:0:
168,355,30351,1,0,1:0:0:0:
168,355,31304,6,0,P|177:316|164:272,1,62.9999980773926,4|0,1:0|0:0,0:0:0:0:
310,250,31542,2,0,P|276:228|230:227,1,62.9999980773926,0|0,1:0|0:0,0:0:0:0:
255,83,31780,2,0,P|224:107|209:151,1,62.9999980773926,4|0,1:2|0:0,0:0:0:0:
78,85,32018,2,0,P|93:120|129:148,1,62.9999980773926,0|0,1:0|0:0,0:0:0:0:
178,360,32256,6,0,P|187:321|174:277,1,70,4|0,1:0|0:0,0:0:0:0:
318,242,32494,2,0,P|284:220|238:219,1,70,0|0,1:0|0:0,0:0:0:0:
250,73,32732,2,0,P|219:97|204:141,1,70,4|0,1:2|0:0,0:0:0:0:
67,87,32970,2,0,P|82:122|118:150,1,70,0|0,1:0|0:0,0:0:0:0:
89,248,33208,5,4,1:0:0:0:
89,248,33685,2,0,L|186:244,1,77.0000023498536,4|0,1:2|0:0,0:0:0:0:
225,169,33923,2,0,L|322:165,1,77.0000023498536,4|0,1:2|0:0,0:0:0:0:
434,256,34161,5,2,1:2:0:0:
435,248,34399,1,0,1:0:0:0:
436,240,34637,1,2,1:2:0:0:
437,232,34875,1,0,1:0:0:0:
438,224,35113,6,0,P|456:214|524:204,1,62.9999980773926,4|0,1:0|0:0,0:0:0:0:
301,281,35351,2,0,P|292:299|243:347,1,62.9999980773926,0|0,1:0|0:0,0:0:0:0:
378,154,35589,2,0,P|374:133|385:66,1,62.9999980773926,4|0,1:2|0:3,0:3:0:0:
391,302,35827,2,0,P|406:316|436:377,1,62.9999980773926,0|0,1:0|0:0,0:0:0:0:
292,198,36066,6,0,P|271:195|210:165,1,70,4|0,1:0|0:0,0:0:0:0:
434,216,36304,2,0,P|452:206|519:193,1,70,0|0,1:0|0:0,0:0:0:0:
309,285,36542,2,0,P|300:303|253:353,1,70,4|0,1:2|0:0,0:0:0:0:
369,155,36780,2,0,P|365:134|374:67,1,70,0|0,1:0|0:0,0:0:0:0:
508,343,37018,6,0,P|440:345|395:294,1,140,4|0,1:2|0:0,0:0:0:0:
434,216,37375,1,0,1:0:0:0:
507,335,37494,6,0,P|439:336|401:293,1,112,4|0,1:2|0:0,0:0:0:0:
434,216,37851,1,0,1:0:0:0:
506,327,37970,6,0,P|437:326|412:290,3,83.9999974365235,4|0|0|0,1:2|1:0|1:0|1:0,0:0:0:0:
387,86,38923,5,4,1:0:0:0:
474,255,39161,1,0,1:0:0:0:
387,86,39399,6,0,P|385:169|296:212,1,168,4|0,1:2|0:0,0:0:0:0:
155,79,39875,2,0,P|227:39|309:95,1,168,4|0,1:2|0:0,0:0:0:0:
265,284,40351,2,0,P|194:240|202:142,1,168,4|0,1:2|0:0,0:0:0:0:
44,136,40827,5,4,1:0:0:0:
269,150,41066,1,0,1:0:0:0:
0,217,41304,5,4,1:2:0:0:
303,72,41542,1,0,1:0:0:0:
326,86,41661,1,0,1:0:0:0:
343,108,41780,1,0,1:0:0:0:
343,108,42256,6,0,P|340:154|350:204,1,84,4|0,1:2|0:0,0:0:0:0:
413,247,42732,6,0,P|392:264|326:278,1,56,4|0,1:0|0:0,0:0:0:0:
217,369,42970,2,0,P|211:342|232:278,1,56,0|0,1:0|0:0,0:0:0:0:
209,139,43208,2,0,P|234:147|279:198,1,56,0|0,1:0|0:0,0:0:0:0:
278,251,43447,5,4,1:3:0:0:
278,251,43566,1,4,0:3:0:0:
278,251,43685,1,4,0:3:0:0:
110,267,43923,1,4,1:3:0:0:
278,251,44161,6,0,L|101:268,1,168,4|0,1:0|0:0,0:0:0:0:
29,295,44637,5,4,1:2:0:0:
33,267,44756,1,4,0:3:0:0:
37,239,44875,1,4,0:3:0:0:
176,96,45113,5,4,1:2:0:0:
182,136,45232,1,4,0:3:0:0:
188,178,45351,1,4,0:3:0:0:
354,347,45589,5,4,1:2:0:0:
362,291,45708,1,8,1:3:0:0:
370,235,45827,1,8,1:3:0:0:
462,14,46066,6,0,L|483:117,1,84,4|0,1:2|0:0,0:0:0:0:
472,172,46542,6,0,P|444:168|405:138,1,62.9999980773926,4|0,1:0|0:0,0:0:0:0:
365,74,46780,2,0,P|352:99|311:127,1,62.9999980773926,0|0,1:0|0:0,0:0:0:0:
239,146,47018,2,0,P|259:165|273:212,1,62.9999980773926,4|0,1:2|0:0,0:0:0:0:
267,289,47256,2,0,P|292:275|341:277,1,62.9999980773926,0|0,1:0|0:0,0:0:0:0:
479,168,47494,6,0,P|444:161|417:140,1,70,4|0,1:0|0:0,0:0:0:0:
363,66,47732,2,0,P|346:96|318:116,1,70,0|0,1:0|0:0,0:0:0:0:
230,145,47970,2,0,P|253:170|264:203,1,70,4|0,1:2|0:0,0:0:0:0:
263,296,48208,2,0,P|294:281|329:281,1,70,0|0,1:0|0:0,0:0:0:0:
417,311,48447,5,0,1:0:0:0:
417,311,48923,2,0,L|296:295,1,77.0000023498536,4|0,1:2|0:0,0:0:0:0:
264,203,49161,2,0,L|143:187,1,77.0000023498536,4|0,1:2|0:0,0:0:0:0:
40,290,49399,5,2,1:2:0:0:
37,297,49637,1,0,1:0:0:0:
34,304,49875,1,2,1:2:0:0:
31,311,50113,1,0,1:0:0:0:
28,318,50351,6,0,P|19:257|57:185,1,112,4|0,1:0|0:0,0:0:0:0:
11,120,50708,2,0,P|59:81|140:78,1,112,4|0,1:2|0:0,0:0:0:0:
176,7,51066,1,4,1:2:0:0:
203,12,51185,1,4,0:3:0:0:
230,18,51304,1,4,0:3:0:0:
351,233,51542,5,4,1:3:0:0:
391,270,51661,1,4,0:3:0:0:
446,271,51780,1,4,1:3:0:0:
487,236,51899,1,4,0:3:0:0:
495,181,52018,1,4,1:3:0:0:
465,135,52137,1,4,0:3:0:0:
413,121,52256,6,0,L|263:137,1,125.999996154785,4|0,1:0|0:0,0:0:0:0:
413,116,52613,2,0,L|262:131,1,125.999996154785,4|0,1:2|0:0,0:0:0:0:
349,116,52970,2,0,L|287:123,1,62.9999980773926,4|0,1:0|0:0,0:0:0:0:
109,94,53208,6,0,P|76:179|125:249,1,125.999996154785,4|0,1:0|0:0,0:0:0:0:
103,92,53566,2,0,P|70:177|119:247,1,125.999996154785,4|0,1:2|0:0,0:0:0:0:
65,143,53923,2,0,P|63:174|73:204,1,62.9999980773926,4|0,1:2|0:0,0:0:0:0:
31,367,54161,6,0,L|182:348,1,112,4|0,1:0|0:0,0:0:0:0:
165,270,54518,2,0,P|196:341|254:352,1,112,4|0,1:2|0:0,0:0:0:0:
292,311,54875,1,4,1:2:0:0:
446,237,55113,6,0,L|295:218,1,112,4|0,1:0|0:0,0:0:0:0:
312,140,55470,2,0,P|281:211|223:222,1,112,4|0,1:2|0:0,0:0:0:0:
185,181,55827,1,4,1:2:0:0:
90,24,56066,6,0,L|108:156,1,112,4|0,1:0|0:0,0:0:0:0:
5,148,56423,1,0,1:0:0:0:
102,152,56542,2,0,P|77:219|127:308,1,168,4|0,1:2|0:0,0:0:0:0:
200,309,57018,1,0,1:0:0:0:
200,309,57494,6,0,L|89:297,1,84,4|0,1:0|0:0,0:0:0:0:
40,345,57970,5,4,1:2:0:0:
18,87,58208,1,0,1:0:0:0:
117,301,58447,5,4,1:2:0:0:
99,121,58685,1,0,1:0:0:0:
200,309,58923,5,4,1:2:0:0:
181,103,59161,1,0,1:0:0:0:
282,344,59399,5,4,1:2:0:0:
258,58,59637,1,0,1:0:0:0:
359,383,59875,5,4,1:0:0:0:
329,10,60351,1,4,1:2:0:0:
363,371,60827,5,4,1:3:0:0:
371,340,60946,1,4,0:3:0:0:
380,310,61065,1,4,0:3:0:0:
490,283,61304,1,0,1:0:0:0:
366,284,61542,6,0,L|349:153,1,125.999996154785,4|0,1:0|0:0,0:0:0:0:
336,81,62018,1,0,1:0:0:0:
404,26,62256,2,0,P|422:76|410:123,1,83.9999974365235,0|0,1:0|0:0,0:0:0:0:
417,105,62613,1,0,0:0:0:0:
417,105,62732,1,0,1:0:0:0:
267,135,62970,2,0,P|248:84|260:37,1,83.9999974365235,0|0,1:0|0:0,0:0:0:0:
252,55,63327,1,4,0:3:0:0:
252,55,63447,1,4,0:3:0:0:
124,192,63685,5,0,1:0:0:0:
277,223,63923,1,0,1:0:0:0:
100,109,64161,1,4,1:3:0:0:
63,128,64280,1,4,0:3:0:0:
41,163,64399,1,4,0:3:0:0:
38,205,64518,1,4,0:3:0:0:
55,243,64637,1,4,1:3:0:0:
186,297,64875,2,0,B|112:278|112:355|16:321,1,167.999994873047,0|0,1:0|0:0,0:0:0:0:
168,384,65589,5,0,1:0:0:0:
270,268,65827,1,0,1:3:0:0:
118,238,66066,1,0,1:0:0:0:
186,297,66304,1,0,1:0:0:0:
186,297,66423,1,0,0:0:0:0:
186,297,66542,1,0,0:0:0:0:
387,328,66780,5,0,0:0:0:0:
249,132,67018,2,0,L|258:203,1,41.9999987182618,0|0,1:0|0:0,0:0:0:0:
274,290,67256,1,0,0:0:0:0:
382,200,67494,5,2,0:0:0:0:
173,164,67732,1,2,0:0:0:0:
385,43,67970,1,2,0:0:0:0:
189,62,68208,1,2,0:0:0:0:
312,0,68447,5,0,3:0:0:0:
299,37,68566,1,0,3:0:0:0:
306,78,68685,1,0,3:0:0:0:
331,111,68804,1,0,3:0:0:0:
370,127,68923,1,0,3:0:0:0:
385,43,69161,1,0,1:0:0:0:
385,43,69399,6,2,L|464:39,2,56
287,189,70351,2,2,L|208:185,2,56
447,324,71303,6,2,L|514:319,3,56
382,266,72256,2,0,L|326:270,1,56,2|0,0:0|0:0,0:0:0:0:
372,352,72732,2,0,L|316:356,1,56
150,377,73208,6,2,P|157:350|153:322,1,56
120,248,73685,1,2,0:0:0:0:
120,248,73922,1,2,0:0:0:0:
151,167,74161,6,2,P|144:140|148:112,1,56
181,37,74638,1,2,0:0:0:0:
181,37,74875,1,2,0:0:0:0:
76,51,75113,6,0,L|20:46,3,56
182,38,76065,1,2,0:0:0:0:
218,134,76304,1,0,1:0:0:0:
218,134,76423,2,0,P|218:79|182:38,1,112,4|0,1:0|0:0,0:0:0:0:
182,38,77018,5,4,0:1:0:0:
277,30,77256,2,2,L|357:19,2,56
139,110,77970,5,2,0:0:0:0:
306,140,78208,2,2,L|386:151,2,56
87,220,78923,5,2,0:0:0:0:
391,244,79161,2,0,B|343:222|343:222|291:252|291:252|249:233,1,140,4|0,1:2|0:0,0:0:0:0:
199,198,79875,6,2,L|194:142,1,56,0|2,0:0|0:0,0:0:0:0:
346,318,80351,2,2,L|340:393,1,56,0|2,0:0|0:0,0:0:0:0:
139,336,80827,5,0,1:0:0:0:
139,336,81066,1,0,1:0:0:0:
147,208,81304,1,0,0:0:0:0:
33,266,81542,1,0,1:0:0:0:
106,269,81780,5,0,1:0:0:0:
19,168,82018,1,0,0:0:0:0:
172,96,82256,2,0,L|205:92,2,28
31,23,82732,5,0,1:0:0:0:
276,86,82970,1,0,1:0:0:0:
135,174,83208,2,0,P|129:118|105:69,1,112,4|0,0:1|0:0,0:0:0:0:
424,108,84637,5,4,1:0:0:0:
424,108,84875,2,0,P|432:149|413:200,1,83.9999974365235,0|0,1:0|0:0,0:0:0:0:
336,234,85351,2,0,L|334:281,2,41.9999987182618,4|0|4,1:3|0:3|0:3,0:0:0:0:
244,192,85827,1,0,1:0:0:0:
256,283,86066,2,0,L|273:403,1,83.9999974365235,0|0,1:0|0:0,0:0:0:0:
147,203,86542,5,4,1:2:0:0:
147,203,86780,2,0,L|164:82,1,83.9999974365235,0|0,1:0|0:0,0:0:0:0:
165,83,87137,1,4,0:3:0:0:
127,100,87256,1,4,0:3:0:0:
86,93,87375,1,4,0:3:0:0:
56,65,87494,1,4,0:3:0:0:
118,18,87732,1,0,1:0:0:0:
40,164,87970,2,0,L|-2:155,2,41.9999987182618,4|4|4,1:3|0:3|0:3,0:0:0:0:
220,202,88447,5,4,1:0:0:0:
71,290,88685,1,0,1:0:0:0:
145,336,88923,1,0,0:0:0:0:
153,314,89042,2,0,B|156:271|156:271|128:226,1,83.9999974365235,4|4,0:3|0:3,0:0:0:0:
121,220,89399,1,0,1:0:0:0:
229,355,89637,1,0,1:0:0:0:
229,355,89875,2,0,P|286:369|337:354,1,83.9999974365235,0|0,1:0|0:0,0:0:0:0:
437,258,90351,6,0,P|357:240|284:278,1,167.999994873047,4|0,1:2|0:0,0:0:0:0:
457,351,91066,1,4,1:3:0:0:
495,334,91185,1,4,0:3:0:0:
512,301,91304,1,4,1:3:0:0:
433,176,91542,2,0,P|430:228|448:281,1,83.9999974365235,0|0,1:0|0:0,0:0:0:0:
496,108,92018,5,0,1:0:0:0:
346,161,92256,1,4,1:0:0:0:
375,4,92494,1,0,1:0:0:0:
405,90,92732,1,0,1:0:0:0:
241,95,92970,6,0,L|232:44,2,41.9999987182618,4|4|4,1:3|0:3|0:3,0:0:0:0:
267,247,93447,1,0,1:0:0:0:
209,177,93685,2,0,P|167:165|111:171,1,83.9999974365235,0|0,1:0|0:0,0:0:0:0:
325,317,94161,2,0,P|367:329|423:323,1,83.9999974365235,0|0,1:0|0:0,0:0:0:0:
267,247,94637,5,0,1:0:0:0:
209,316,94875,1,4,1:3:0:0:
185,281,94994,1,4,0:3:0:0:
148,262,95113,1,4,0:3:0:0:
84,95,95351,5,4,0:3:0:0:
46,112,95470,1,4,0:3:0:0:
33,150,95589,1,4,0:3:0:0:
52,187,95708,1,4,0:3:0:0:
91,198,95827,1,4,0:3:0:0:
126,178,95946,1,4,0:3:0:0:
168,179,96066,5,4,1:0:0:0:
406,119,96304,1,4,1:2:0:0:
168,179,97018,5,4,1:0:0:0:
318,66,97256,1,4,1:2:0:0:
168,179,97970,5,4,1:0:0:0:
220,92,98208,1,0,1:0:0:0:
318,66,98447,1,0,1:0:0:0:
406,119,98685,1,0,1:0:0:0:
432,217,98923,6,0,L|424:316,1,84,0|0,1:0|0:0,0:0:0:0:
476,361,99399,6,0,P|449:376|400:373,1,56,0|4,1:0|1:2,0:0:0:0:
315,285,99637,1,0,1:0:0:0:
315,285,99756,1,0,1:0:0:0:
315,285,99875,6,0,L|331:193,1,62.9999980773926,4|0,1:0|0:0,0:0:0:0:
236,137,100113,2,0,L|328:123,1,62.9999980773926,0|0,1:0|0:0,0:0:0:0:
352,17,100351,2,0,L|393:100,1,62.9999980773926,4|0,1:2|0:0,0:0:0:0:
503,90,100589,2,0,L|435:155,1,62.9999980773926,0|0,1:0|0:0,0:0:0:0:
307,287,100827,6,0,L|323:195,1,70,4|0,1:0|0:0,0:0:0:0:
231,130,101065,2,0,L|323:116,1,70,0|0,1:0|0:0,0:0:0:0:
357,10,101303,2,0,L|398:93,1,70,4|0,1:2|0:0,0:0:0:0:
511,92,101541,2,0,L|443:157,1,70,0|0,1:0|0:0,0:0:0:0:
419,231,101780,5,2,1:2:0:0:
420,238,102018,1,0,1:0:0:0:
421,244,102256,1,2,1:2:0:0:
422,250,102494,1,0,1:0:0:0:
423,256,102732,6,0,P|363:274|292:237,1,112,4|0,1:2|0:0,0:0:0:0:
211,263,103089,2,0,P|271:245|342:282,1,112,4|0,1:2|0:0,0:0:0:0:
316,259,103447,1,0,1:0:0:0:
227,96,103685,6,0,L|212:35,1,62.9999980773926,4|0,1:0|0:0,0:0:0:0:
143,218,103923,2,0,L|118:277,1,62.9999980773926,0|0,1:0|0:0,0:0:0:0:
280,167,104161,2,0,L|335:133,1,62.9999980773926,4|0,1:2|0:0,0:0:0:0:
140,127,104399,2,0,L|75:121,1,62.9999980773926,0|0,1:3|0:3,0:3:0:0:
219,245,104637,6,0,L|279:297,1,70,4|0,1:0|0:0,0:0:0:0:
233,96,104875,2,0,L|214:17,1,70,0|0,1:0|0:0,0:0:0:0:
137,211,105113,2,0,L|106:285,1,70,4|0,1:2|0:0,0:0:0:0:
279,173,105351,2,0,L|347:131,1,70,0|0,1:0|0:0,0:0:0:0:
3,110,105589,6,0,L|142:121,1,140,4|0,1:2|0:0,0:0:0:0:
203,173,105947,1,0,1:0:0:0:
20,191,106066,6,0,L|135:200,1,112,4|0,1:2|0:0,0:0:0:0:
192,251,106423,1,0,1:0:0:0:
36,271,106542,6,0,L|120:277,3,83.9999974365235,4|0|0|0,1:2|1:0|1:0|1:0,0:0:0:0:
217,354,107494,5,4,1:0:0:0:
142,121,107732,1,0,1:0:0:0:
217,354,107970,6,0,P|290:326|328:233,1,168,4|0,1:2|0:0,0:0:0:0:
239,38,108447,2,0,P|226:115|288:194,1,168,4|0,1:2|0:0,0:0:0:0:
501,215,108923,2,0,P|440:165|340:179,1,168,4|0,1:2|0:0,0:0:0:0:
328,248,109399,5,4,1:0:0:0:
397,77,109637,1,0,1:0:0:0:
395,305,109875,5,4,1:2:0:0:
331,24,110113,1,0,1:0:0:0:
304,15,110232,1,0,1:0:0:0:
277,7,110351,1,0,1:0:0:0:
277,7,110827,6,0,L|191:28,1,84,4|0,1:2|0:0,0:0:0:0:
111,17,111304,6,0,P|116:57|141:90,1,56,4|0,1:0|0:0,0:0:0:0:
322,116,111542,2,0,P|284:100|243:105,1,56,0|0,1:0|0:0,0:0:0:0:
133,244,111780,2,0,P|165:219|181:181,1,56,0|0,1:0|0:0,0:0:0:0:
187,124,112018,5,4,1:3:0:0:
187,124,112137,1,4,0:3:0:0:
187,124,112256,1,4,0:3:0:0:
224,280,112494,1,4,0:3:0:0:
187,124,112732,6,0,P|188:218|242:296,1,168,4|0,1:0|0:0,0:0:0:0:
359,301,113208,5,4,1:2:0:0:
331,297,113327,1,4,0:3:0:0:
303,294,113446,1,4,0:3:0:0:
73,228,113685,5,4,1:2:0:0:
113,221,113804,1,4,0:3:0:0:
155,217,113923,1,4,0:3:0:0:
438,101,114161,5,4,1:2:0:0:
382,93,114280,1,8,0:3:0:0:
326,87,114399,1,8,0:3:0:0:
31,48,114637,6,0,P|85:30|133:35,1,84,4|0,1:0|0:0,0:0:0:0:
176,101,115113,6,0,L|253:118,1,62.9999980773926,4|0,1:0|0:0,0:0:0:0:
326,87,115351,2,0,L|333:165,1,62.9999980773926,0|0,1:0|0:0,0:0:0:0:
385,224,115589,2,0,L|312:255,1,62.9999980773926,4|0,1:2|0:0,0:0:0:0:
273,324,115827,2,0,L|220:264,1,62.9999980773926,0|0,1:0|0:0,0:0:0:0:
175,93,116066,6,0,L|252:110,1,70,4|0,1:0|0:0,0:0:0:0:
333,83,116304,2,0,L|340:161,1,70,0|0,1:0|0:0,0:0:0:0:
391,230,116542,2,0,L|318:261,1,70,4|0,1:2|0:0,0:0:0:0:
269,331,116780,2,0,L|216:271,1,70,0|0,1:0|0:0,0:0:0:0:
135,247,117018,5,2,1:2:0:0:
132,240,117256,1,0,1:0:0:0:
130,233,117494,1,2,1:2:0:0:
128,226,117732,1,0,1:0:0:0:
126,219,117970,6,0,L|143:107,1,112,4|0,1:0|0:0,0:0:0:0:
137,86,118327,1,0,0:0:0:0:
131,64,118447,1,4,1:2:0:0:
208,273,118685,1,0,1:0:0:0:
324,66,118923,6,0,P|271:36|196:62,1,112,4|0,1:0|0:0,0:0:0:0:
336,150,119280,2,0,P|388:119|403:41,1,112,4|0,1:2|0:0,0:0:0:0:
256,120,119637,2,0,P|249:152|276:204,1,56,4|0,1:2|0:0,0:0:0:0:
350,251,119875,6,0,L|477:216,1,112,4|0,1:0|0:0,0:0:0:0:
440,310,120232,2,0,L|333:340,1,112,4|0,1:2|0:0,0:0:0:0:
222,300,120589,2,0,L|285:282,1,56,4|0,1:2|0:0,0:0:0:0:
108,363,120827,6,0,P|66:339|71:252,1,125.999996154785,4|0,1:0|0:0,0:0:0:0:
103,366,121185,2,0,P|61:342|66:255,1,125.999996154785,4|0,1:2|0:0,0:0:0:0:
49,333,121542,2,0,P|42:303|49:273,1,62.9999980773926,4|0,1:2|0:0,0:0:0:0:
171,48,121780,6,0,L|191:189,1,125.999996154785,4|0,1:0|0:0,0:0:0:0:
176,47,122137,2,0,L|196:188,1,125.999996154785,4|0,1:2|0:0,0:0:0:0:
189,108,122494,2,0,L|198:170,1,62.9999980773926,4|0,1:2|0:0,0:0:0:0:
449,163,122732,6,0,P|391:193|375:278,1,112,4|0,1:0|0:0,0:0:0:0:
431,281,123089,2,0,L|297:291,1,112,4|0,1:2|0:0,0:0:0:0:
262,234,123447,1,4,1:2:0:0:
57,246,123685,6,0,P|115:276|131:361,1,112,4|0,1:0|0:0,0:0:0:0:
75,364,124042,2,0,L|209:374,1,112,4|0,1:2|0:0,0:0:0:0:
244,317,124400,1,4,1:2:0:0:
462,356,124637,6,0,P|430:308|442:235,1,112,4|0,1:0|0:0,0:0:0:0:
381,184,124994,1,0,1:0:0:0:
504,213,125113,2,0,P|507:139|426:61,1,168,4|0,1:2|0:0,0:0:0:0:
373,40,125589,1,0,1:0:0:0:
373,40,126066,6,0,P|369:88|395:132,1,84,4|0,1:0|0:0,0:0:0:0:
451,160,126542,5,4,1:2:0:0:
181,163,126780,1,0,1:0:0:0:
426,247,127018,5,4,1:2:0:0:
206,76,127256,1,0,1:0:0:0:
512,228,127494,5,4,1:2:0:0:
120,95,127732,1,0,1:0:0:0:
332,350,127970,6,0,P|328:306|316:276,1,56,4|0,1:0|0:0,0:0:0:0:
181,163,128447,1,4,1:3:0:0:
181,163,128566,1,4,0:3:0:0:
181,163,128685,2,0,P|185:207|197:237,1,56,8|8,0:3|0:3,0:0:0:0:
256,259,128923,5,8,1:3:0:0:
409,49,129160,1,4,0:3:0:0:
440,97,129279,1,4,0:3:0:0:
437,153,129398,1,4,0:3:0:0:
401,194,129517,1,4,0:3:0:0:
347,208,129636,1,4,0:3:0:0:
296,187,129755,1,4,0:3:0:0:
267,141,129875,1,4,0:3:0:0:
238,95,129994,1,4,0:3:0:0:
187,74,130113,1,4,0:3:0:0:
133,88,130232,1,4,0:3:0:0:
98,130,130351,6,0,L|54:116,5,37.3333333333333,4|0|0|0|0|0,1:0|0:0|0:0|0:0|0:0|0:0,0:0:0:0:
181,163,130827,1,4,1:2:0:0:
115,321,131066,1,4,1:3:0:0:
115,321,131185,1,4,0:3:0:0:
115,321,131304,2,0,P|95:262|110:208,1,112,0|0,1:0|0:0,0:0:0:0:
326,251,131780,6,0,L|384:232,5,41.9999987182618,0|0|0|0|0|0,1:2|0:0|0:0|0:0|0:0|0:0,0:0:0:0:
263,314,132256,5,4,1:0:0:0:
425,182,132494,1,0,1:0:0:0:
278,167,132732,1,4,1:2:0:0:
410,329,132970,1,4,1:3:0:0:
410,329,133089,1,4,0:3:0:0:
410,329,133208,6,0,L|428:384,5,51.3333348999024,4|0|0|0|0|0,1:0|0:0|0:0|0:0|0:0|0:0,0:0:0:0:
278,167,133685,2,0,L|297:108,5,55.9999982910157,4|0|0|0|0|0,1:2|0:0|0:0|0:0|0:0|0:0,0:0:0:0:
146,299,134161,6,0,L|81:312,5,60.6666638895672,4|0|0|0|0|0,1:0|0:0|0:0|0:0|0:0|0:0,0:0:0:0:
67,233,134637,2,0,L|178:210,1,70,4|0,1:2|0:0,0:0:0:0:
372,193,134875,6,0,L|437:206,5,65.3333313395183,4|0|0|0|0|0,1:0|0:0|0:0|0:0|0:0|0:0,0:0:0:0:
453,127,135351,2,0,L|380:112,1,70,0|0,1:0|0:0,0:0:0:0:
64,44,135589,6,0,L|-1:57,5,60.6666638895672,4|0|0|0|0|0,1:2|0:0|0:0|0:0|0:0|0:0,0:0:0:0:
135,103,136066,6,0,P|222:85|294:132,1,140,4|0,1:0|0:0,0:0:0:0:
282,127,136423,1,4,0:3:0:0:
292,153,136542,1,4,1:3:0:0:
446,249,136780,5,4,1:3:0:0:
405,217,136899,1,4,0:3:0:0:
354,216,137018,1,4,0:3:0:0:
312,247,137137,1,4,0:3:0:0:
296,296,137256,1,4,1:3:0:0:
292,153,137494,1,4,1:2:0:0:
380,296,137732,1,4,0:3:0:0:
384,300,137851,1,4,0:3:0:0:
388,304,137970,1,4,1:0:0:0:
231,351,138208,6,0,P|216:321|236:239,1,97.9999970092774,4|0,1:2|0:0,0:0:0:0:
225,356,138566,6,0,P|210:326|225:241,1,112,4|0,1:2|0:0,0:0:0:0:
219,361,138923,6,0,P|203:329|219:238,1,125.999996154785,4|0,1:2|0:0,0:0:0:0:
213,366,139280,6,0,P|198:336|215:229,1,140,4|0,1:2|0:0,0:0:0:0:
394,164,139637,5,0,1:0:0:0:
205,113,139875,1,0,1:0:0:0:
328,266,140113,1,4,1:0:0:0:
319,70,140351,1,4,1:2:0:0:
211,234,140589,1,0,1:0:0:0:
293,169,140827,5,4,1:3:0:0:
293,169,140947,1,4,0:3:0:0:
293,169,141066,1,4,0:3:0:0:
6,221,141304,2,0,B|94:262|112:181|224:240,1,210,4|0,1:0|0:0,0:0:0:0:
276,296,141780,6,0,P|261:229|292:168,1,140,4|0,1:2|0:0,0:0:0:0:
477,248,142137,2,0,P|492:314|461:376,1,140,4|0,1:2|0:0,0:0:0:0:
379,275,142494,6,0,L|363:118,1,140,4|0,1:2|0:0,0:0:0:0:
378,111,142851,1,4,0:3:0:0:
392,87,142970,1,4,0:3:0:0:
477,248,143208,5,0,1:0:0:0:
303,57,143447,1,0,0:0:0:0:
214,248,143685,5,0,1:0:0:0:
224,115,143923,1,4,1:2:0:0:
90,368,144161,5,4,1:0:0:0:
17,64,144399,1,4,0:3:0:0:
44,57,144518,1,4,0:3:0:0:
71,50,144637,1,4,1:3:0:0:
135,186,144875,6,0,L|133:304,1,112,4|0,1:0|0:0,0:0:0:0:
133,297,145589,1,8,0:3:0:0:
166,127,160827,6,0,L|160:168,1,35,4|0,0:1|0:0,0:0:0:0:
104,223,161304,2,0,L|141:240,1,35,2|0,0:0|0:0,0:0:0:0:
176,311,161780,2,0,L|204:280,1,35
282,269,162256,2,0,L|261:232,1,35,2|0,0:0|0:0,0:0:0:0:
240,160,162732,5,4,0:1:0:0:
240,160,163208,2,0,L|306:153,1,56,2|0,0:0|0:0,0:0:0:0:
484,206,163685,2,0,L|361:203,1,112,4|2,0:2|0:0,0:0:0:0:
372,203,164399,1,0,0:0:0:0:
383,322,164637,6,0,L|375:238,2,84,2|2|2,0:0|0:0|0:0,0:0:0:0:
301,107,165589,2,0,L|293:190,2,84,2|2|2,0:0|0:0|0:0,0:0:0:0:
191,352,166542,6,0,L|179:226,2,105,4|2|2,0:1|0:0|0:0,0:0:0:0:
54,25,167494,2,0,L|42:150,2,105,4|2|2,0:1|0:0|0:0,0:0:0:0:
154,127,168447,5,4,0:3:0:0:
167,57,168685,1,4,0:3:0:0:
237,49,168923,1,4,0:3:0:0:
267,113,169161,1,4,0:3:0:0:
215,160,169399,5,4,0:3:0:0:
144,227,169637,1,4,0:3:0:0:
185,316,169875,1,4,0:3:0:0:
282,304,170113,1,4,0:3:0:0:
301,208,170351,5,4,0:3:0:0:
375,106,170589,1,4,0:3:0:0:
494,144,170827,1,4,0:2:0:0:
494,270,171066,1,0,0:0:0:0:
375,309,171304,5,2,0:3:0:0:
408,207,171542,1,2,0:3:0:0:
375,309,171780,6,0,P|337:303|298:309,1,62.9999980773926,4|0,0:2|0:0,0:0:0:0:
299,314,172256,5,4,0:1:0:0:
299,314,173208,1,2,0:0:0:0:
152,359,173685,2,0,L|158:270,1,70,2|0,0:0|0:0,0:0:0:0:
222,224,174161,2,0,P|167:240|66:222,2,140,4|4|4,0:1|0:2|0:2,0:0:0:0:
77,209,177018,5,4,1:2:0:0:
88,175,177137,1,4,0:3:0:0:
272,49,177375,1,4,0:3:0:0:
272,49,177494,5,4,1:2:0:0:
261,83,177613,1,4,0:3:0:0:
0,153,177851,1,4,0:3:0:0:
0,153,177970,5,4,1:3:0:0:
29,105,178089,1,4,0:3:0:0:
79,82,178208,1,4,0:3:0:0:
133,91,178327,1,4,0:3:0:0:
174,129,178446,1,4,0:3:0:0:
215,166,178565,1,4,0:3:0:0:
269,175,178684,1,4,0:3:0:0:
319,152,178803,1,4,0:3:0:0:
348,105,178922,6,0,P|345:139|371:195,1,62.9999980773926,4|0,1:0|0:0,0:0:0:0:
496,177,179160,2,0,P|462:184|417:226,1,62.9999980773926,0|0,1:0|0:0,0:0:0:0:
474,340,179398,2,0,P|456:310|402:280,1,62.9999980773926,4|0,1:2|0:0,0:0:0:0:
312,368,179637,2,0,P|334:342|346:281,1,62.9999980773926,0|0,1:0|0:0,0:0:0:0:
339,102,179875,6,0,P|336:136|362:192,1,70,4|0,1:0|0:0,0:0:0:0:
496,167,180113,2,0,P|462:174|417:216,1,70,0|0,1:0|0:0,0:0:0:0:
483,336,180351,2,0,P|465:306|411:276,1,70,4|0,1:2|0:0,0:0:0:0:
317,376,180590,2,0,P|339:350|351:289,1,70,0|0,1:0|0:0,0:0:0:0:
295,246,180827,5,4,1:0:0:0:
295,246,181303,2,0,L|219:240,1,77.0000023498536,4|0,1:2|0:0,0:0:0:0:
7,154,181541,2,0,L|83:160,1,77.0000023498536,4|0,1:2|0:0,0:0:0:0:
151,200,181779,5,2,1:2:0:0:
155,193,182018,1,0,1:0:0:0:
159,186,182256,1,2,1:2:0:0:
163,179,182494,1,0,1:0:0:0:
167,172,182732,6,0,P|162:137|175:85,1,62.9999980773926,4|0,1:0|0:0,0:0:0:0:
138,328,182970,2,0,P|121:359|80:393,1,62.9999980773926,0|0,1:0|0:0,0:0:0:0:
253,219,183208,2,0,P|284:203|338:199,1,62.9999980773926,4|0,1:2|0:0,0:0:0:0:
95,239,183446,2,0,P|60:232|14:204,1,62.9999980773926,0|0,1:0|0:0,0:0:0:0:
239,305,183684,6,0,P|263:330|283:380,1,70,4|0,1:0|0:0,0:0:0:0:
159,176,183922,2,0,P|154:141|167:89,1,70,0|0,1:0|0:0,0:0:0:0:
147,329,184160,2,0,P|130:360|89:394,1,70,4|0,1:2|0:0,0:0:0:0:
247,212,184398,2,0,P|278:196|332:192,1,70,0|0,1:0|0:0,0:0:0:0:
21,347,184637,6,0,P|38:281|97:247,1,140,4|0,1:2|0:0,0:0:0:0:
176,252,184994,1,0,1:0:0:0:
16,317,185114,6,0,P|42:268|91:244,1,112,4|0,1:2|0:0,0:0:0:0:
176,252,185470,1,0,1:0:0:0:
19,289,185589,6,0,P|46:257|85:241,3,83.9999974365235,4|0|0|0,1:2|1:0|1:0|1:0,0:0:0:0:
154,106,186541,5,4,1:0:0:0:
99,325,186779,1,0,1:0:0:0:
154,106,187018,6,0,P|99:76|-7:99,1,168,4|0,1:2|0:0,0:0:0:0:
217,38,187494,2,0,P|272:68|378:45,1,168,4|0,1:2|0:0,0:0:0:0:
512,129,187970,2,0,P|452:114|383:146,1,112,4|0,1:2|1:0,0:0:0:0:
338,252,188446,5,4,1:0:0:0:
170,176,188684,1,0,1:0:0:0:
405,128,188922,5,4,1:2:0:0:
107,236,189160,1,0,1:0:0:0:
90,214,189279,1,0,1:0:0:0:
85,187,189398,1,0,1:0:0:0:
85,187,189875,6,0,L|90:92,1,84,4|0,1:2|0:0,0:0:0:0:
60,30,190351,6,0,P|97:25|154:60,1,56,4|0,1:0|0:0,0:0:0:0:
291,17,190589,2,0,P|276:51|218:83,1,56,0|0,1:0|0:0,0:0:0:0:
187,224,190827,2,0,P|164:194|165:127,1,56,0|0,1:0|0:0,0:0:0:0:
179,90,191065,5,4,1:3:0:0:
179,90,191184,1,4,0:3:0:0:
179,90,191303,1,4,0:3:0:0:
333,125,191541,1,4,0:3:0:0:
179,90,191779,6,0,P|254:83|344:138,1,168,4|0,1:0|0:0,0:0:0:0:
269,183,192256,5,4,1:0:0:0:
427,141,192494,1,4,0:3:0:0:
406,192,192613,1,4,0:3:0:0:
354,213,192732,1,4,0:3:0:0:
332,265,192851,1,4,0:3:0:0:
354,316,192970,1,4,0:3:0:0:
406,338,193089,1,4,0:3:0:0:
457,316,193208,1,4,0:3:0:0:
479,265,193327,1,4,0:3:0:0:
457,213,193446,1,4,0:3:0:0:
406,192,193565,1,4,0:3:0:0:
327,187,193684,5,4,1:2:0:0:
249,182,193803,1,4,0:3:0:0:
171,177,193922,1,4,0:3:0:0:
92,172,194041,1,4,0:3:0:0:
14,167,194160,6,0,P|34:119|78:96,1,62.9999980773926,4|0,1:0|0:0,0:0:0:0:
130,16,194398,2,0,P|181:20|217:54,1,62.9999980773926,0|0,1:0|0:0,0:0:0:0:
309,81,194637,2,0,P|321:131|298:176,1,62.9999980773926,4|0,1:2|0:0,0:0:0:0:
303,271,194874,2,0,P|258:298|209:290,1,62.9999980773926,0|0,1:0|0:0,0:0:0:0:
6,166,195113,6,0,P|26:118|66:89,1,70,4|0,1:0|0:0,0:0:0:0:
128,9,195351,2,0,P|179:13|219:42,1,70,0|0,1:0|0:0,0:0:0:0:
315,76,195589,2,0,P|327:126|311:173,1,70,4|0,1:2|0:0,0:0:0:0:
308,275,195827,2,0,P|263:302|214:302,1,70,0|0,1:0|0:0,0:0:0:0:
117,330,196065,5,4,1:0:0:0:
117,330,196541,2,0,L|132:226,1,77.0000023498536,4|0,1:2|0:0,0:0:0:0:
280,94,196779,2,0,L|269:170,1,77.0000023498536,4|0,1:2|0:0,0:0:0:0:
350,358,197018,6,0,P|420:332|497:344,2,125.999996154785,4|8|8,1:0|1:3|1:3,0:0:0:0:
240,384,197970,6,0,L|217:208,1,140,4|0,1:0|0:0,0:0:0:0:
420,271,198327,2,0,L|443:95,1,140,4|0,1:2|0:0,0:0:0:0:
270,52,198684,2,0,L|282:149,1,70,4|0,1:2|0:0,0:0:0:0:
140,275,198922,6,0,P|58:257|12:193,1,140,4|0,1:0|0:0,0:0:0:0:
303,215,199279,2,0,P|384:232|430:296,1,140,4|0,1:2|0:0,0:0:0:0:
190,168,199637,2,0,P|186:139|206:87,1,70,4|0,1:2|0:0,0:0:0:0:
354,93,199875,5,4,1:0:0:0:
204,317,200113,1,4,0:3:0:0:
152,337,200232,1,4,0:3:0:0:
99,324,200351,1,4,0:3:0:0:
63,282,200470,1,4,0:3:0:0:
58,227,200589,1,4,0:3:0:0:
85,180,200708,1,4,0:3:0:0:
136,157,200827,1,4,0:3:0:0:
190,168,200946,1,4,0:3:0:0:
227,208,201065,1,4,0:3:0:0:
281,218,201184,1,4,0:3:0:0:
331,196,201303,1,4,0:3:0:0:
359,148,201422,1,4,0:3:0:0:
354,93,201541,1,4,0:3:0:0:
318,51,201660,1,4,0:3:0:0:
264,38,201779,6,0,L|106:49,1,112,4|0,1:0|0:0,0:0:0:0:
63,9,202137,2,0,P|8:51|14:131,1,112,4|0,1:2|0:0,0:0:0:0:
65,153,202494,1,4,1:2:0:0:
242,169,202732,6,0,L|400:180,1,112,4|0,1:0|0:0,0:0:0:0:
443,140,203089,2,0,P|498:182|492:262,1,112,4|0,1:2|0:0,0:0:0:0:
441,284,203447,1,4,1:2:0:0:
264,300,203684,6,0,L|106:311,1,112,4|0,1:0|0:0,0:0:0:0:
150,229,204041,1,0,1:0:0:0:
86,351,204160,2,0,P|46:293|88:194,1,168,4|0,1:2|0:0,0:0:0:0:
49,129,204637,1,0,1:0:0:0:
49,129,205113,6,0,L|159:139,1,84,4|0,1:0|0:0,0:0:0:0:
178,71,205589,5,4,1:2:0:0:
211,383,205827,1,0,1:0:0:0:
251,106,206065,5,4,1:2:0:0:
273,327,206303,1,0,1:0:0:0:
329,117,206541,5,4,1:2:0:0:
349,298,206780,1,0,1:0:0:0:
405,87,207018,5,4,1:2:0:0:
427,309,207256,1,0,1:0:0:0:
467,32,207494,5,4,1:2:0:0:
418,6,207613,1,4,0:3:0:0:
363,17,207732,1,4,0:3:0:0:
328,61,207851,1,4,0:3:0:0:
329,117,207970,1,4,0:3:0:0:
365,159,208089,1,4,0:3:0:0:
367,214,208208,1,4,0:3:0:0:
332,257,208327,1,4,0:3:0:0:
277,269,208446,1,4,0:3:0:0:
227,242,208565,1,4,0:3:0:0:
208,189,208684,1,4,0:3:0:0:
226,136,208803,1,4,0:3:0:0:
213,81,208922,5,4,1:0:0:0:
213,81,209398,5,4,1:2:0:0:
29,53,209637,1,0,1:0:0:0:
213,81,210351,5,4,1:2:0:0:
29,53,210590,1,0,1:0:0:0:
213,81,211303,5,4,1:2:0:0:
29,53,211541,1,4,0:3:0:0:
77,77,211660,1,4,0:3:0:0:
93,129,211779,1,4,0:3:0:0:
68,178,211898,1,4,0:3:0:0:
40,225,212018,1,4,0:3:0:0:
47,279,212137,1,4,0:3:0:0:
87,317,212256,1,4,0:3:0:0:
142,320,212375,1,4,0:3:0:0:
187,289,212494,1,4,0:3:0:0:
202,236,212613,1,4,0:3:0:0:
216,183,212732,1,4,0:3:0:0:
261,151,212851,1,4,0:3:0:0:
316,155,212970,1,4,0:3:0:0:
356,192,213089,1,4,0:3:0:0:
364,247,213208,5,4,1:0:0:0:
501,164,213446,2,0,L|426:152,1,56,0|0,1:0|0:0,0:0:0:0:
292,78,213684,5,0,1:0:0:0:
333,323,213922,1,4,0:3:0:0:
292,287,214041,1,4,0:3:0:0:
282,233,214160,1,4,1:3:0:0:
364,247,214398,5,0,1:0:0:0:
323,2,214637,1,4,1:3:0:0:
364,37,214756,1,4,0:3:0:0:
373,92,214875,1,4,0:3:0:0:
181,93,215113,6,0,L|298:77,1,112,4|0,1:2|1:0,0:0:0:0:
106,29,215589,1,4,1:3:0:0:
106,29,215708,1,4,0:3:0:0:
106,29,215827,1,4,0:3:0:0:
161,183,216065,5,0,1:0:0:0:
0,232,216303,1,0,1:0:0:0:
124,345,216541,1,4,1:3:0:0:
94,299,216660,1,4,0:3:0:0:
93,244,216779,1,4,0:3:0:0:
235,281,217018,5,4,1:3:0:0:
235,281,217137,1,4,0:3:0:0:
235,281,217256,2,0,L|158:276,1,56,4|0,0:3|0:0,0:0:0:0:
344,226,217494,5,4,1:3:0:0:
344,226,217613,1,4,0:3:0:0:
344,226,217732,2,0,L|421:221,1,56,4|0,0:3|0:0,0:0:0:0:
169,158,217970,5,4,1:3:0:0:
169,158,218089,1,4,0:3:0:0:
169,158,218208,2,0,L|92:153,1,56,4|0,0:3|0:0,0:0:0:0:
358,108,218446,5,4,1:3:0:0:
369,54,218565,1,4,0:3:0:0:
410,18,218684,1,4,0:3:0:0:
465,14,218803,1,4,0:3:0:0:
511,43,218922,5,4,1:2:0:0:
429,284,219160,1,0,1:0:0:0:
445,98,219398,5,4,1:2:0:0:
499,339,219637,1,0,1:0:0:0:
358,108,219875,5,4,1:2:0:0:
295,341,220113,1,0,1:0:0:0:
272,79,220351,5,4,1:0:0:0:
341,269,220589,1,4,0:3:0:0:
341,269,220708,1,4,0:3:0:0:
341,269,220827,6,0,P|279:257|226:287,1,112,4|0,1:0|0:0,0:0:0:0:
183,212,221184,1,0,1:0:0:0:
225,310,221303,2,0,P|163:322|110:292,1,112,4|0,1:2|0:0,0:0:0:0:
21,304,221660,1,0,1:0:0:0:
104,276,221779,6,0,L|112:150,1,112,4|0,1:0|0:0,0:0:0:0:
186,122,222137,1,0,1:0:0:0:
85,171,222256,2,0,L|77:45,1,112,4|0,1:2|0:0,0:0:0:0:
0,103,222613,1,0,1:0:0:0:
68,31,222732,6,0,P|129:12|208:38,1,112,4|0,1:0|0:0,0:0:0:0:
224,46,223089,1,0,1:0:0:0:
279,38,223208,1,4,1:2:0:0:
267,131,223446,5,4,0:3:0:0:
267,131,223565,1,4,0:3:0:0:
267,131,223684,2,0,P|271:172|286:198,1,56,0|0,1:0|0:0,0:0:0:0:
210,326,223922,2,0,P|191:328|145:362,1,56,0|0,1:0|0:0,0:0:0:0:
194,226,224160,2,0,P|125:193|4:231,1,168,4|0,1:0|0:0,0:0:0:0:
13,287,224637,5,4,1:2:0:0:
468,301,224875,1,0,1:0:0:0:
37,206,225113,5,4,1:2:0:0:
446,219,225351,1,0,1:0:0:0:
48,125,225589,5,4,1:2:0:0:
457,138,225827,1,0,1:0:0:0:
26,43,226065,5,4,1:2:0:0:
481,57,226303,1,0,1:0:0:0:
403,44,236065,6,2,L|399:123,2,56
403,44,236779,1,0,0:0:0:0:
283,171,237017,2,2,L|279:92,2,56
283,171,237732,1,0,0:0:0:0:
261,32,237969,6,2,P|218:57|206:77,3,56
340,56,238922,2,0,P|340:6|329:-14,1,56,2|0,0:0|0:0,0:0:0:0:
280,112,239398,2,0,P|324:136|347:137,1,56,2|0,0:0|0:0,0:0:0:0:
454,187,239874,6,2,P|427:180|399:184,1,56
325,217,240351,1,2,0:0:0:0:
325,217,240588,1,2,0:0:0:0:
244,186,240827,6,2,P|217:193|189:189,1,56
114,156,241304,1,2,0:0:0:0:
114,156,241541,1,2,0:0:0:0:
95,293,241779,6,2,L|89:225,3,56
164,345,242731,1,2,0:0:0:0:
164,345,242969,1,2,0:0:0:0:
242,333,243207,1,2,0:0:0:0:
242,333,243445,1,2,0:0:0:0:
293,272,243684,6,2,P|329:263|367:263,1,56
393,329,244184,2,2,P|357:338|319:338,1,56
381,185,244684,6,2,P|417:176|455:176,1,56
481,242,245239,2,2,P|445:251|407:251,1,56
458,101,245795,6,2,P|494:92|532:92,2,56
458,101,247060,1,0,0:0:0:0:
342,55,248260,6,2,L|346:12,3,35
278,117,249655,6,2,L|281:151,3,35
204,65,251155,6,2,L|207:30,3,35
133,130,253105,6,2,L|134:145,2,8.75
