osu file format v14

[General]
AudioFilename: audio.mp3
AudioLeadIn: 0
PreviewTime: 52939
Countdown: 0
SampleSet: Soft
StackLeniency: 0.4
Mode: 0
LetterboxInBreaks: 0
WidescreenStoryboard: 1

[Editor]
DistanceSpacing: 0.8
BeatDivisor: 4
GridSize: 4
TimelineZoom: 1.4

[Metadata]
Title:Koukai no Uta (TV Size)
TitleUnicode:航海の唄 (TV Size)
Artist:Sayuri
ArtistUnicode:さユり
Creator:dkblaze
Version:Plus Ultra
Source:僕のヒーローアカデミア
Tags:Asuka_- season fourth 4 Boku no Hero Academia my Ending theme ed anime j pop jpop japanese
BeatmapID:2202526
BeatmapSetID:1054062

[Difficulty]
HPDrainRate:6
CircleSize:4
OverallDifficulty:9
ApproachRate:9.2
SliderMultiplier:1.8
SliderTickRate:1

[Events]
//Background and Video events
Video,-40,"video.mp4"
0,0,"BG.jpg",0,0
//Break Periods
//Storyboard Layer 0 (Background)
//Storyboard Layer 1 (Fail)
//Storyboard Layer 2 (Pass)
//Storyboard Layer 3 (Foreground)
//Storyboard Layer 4 (Overlay)
//Storyboard Sound Samples

[TimingPoints]
106,333.333333333333,4,2,3,75,1,0
106,-100,4,2,3,75,0,0
4772,-83.3333333333333,4,2,3,75,0,0
5022,-83.3333333333333,4,2,3,5,0,0
5105,-100,4,2,3,75,0,0
8105,-500,4,2,1,75,0,0
8189,-100,4,2,3,75,0,0
8355,-500,4,2,3,5,0,0
8439,-62.5,4,2,3,75,0,0
8689,-62.5,4,2,3,5,0,0
8772,-125,4,2,1,75,0,0
8855,-100,4,2,3,75,0,0
10772,-250,4,2,3,60,0,0
20939,-500,4,2,3,60,0,0
21105,-100,4,2,3,60,0,0
21355,-100,4,2,3,5,0,0
21439,-125,4,2,3,65,0,0
27022,-125,4,2,3,5,0,0
27105,-125,4,2,3,65,0,0
27689,-125,4,2,3,5,0,0
27772,-125,4,2,3,65,0,0
28355,-125,4,2,3,5,0,0
28439,-125,4,2,3,65,0,0
29689,-125,4,2,3,5,0,0
29772,-125,4,2,3,65,0,0
30689,-125,4,2,3,5,0,0
30772,-111.111111111111,4,2,3,65,0,0
31022,-111.111111111111,4,2,3,5,0,0
31105,-111.111111111111,4,2,3,65,0,0
31439,-333.333333333333,4,2,3,65,0,0
31689,-333.333333333333,4,2,3,5,0,0
31772,-76.9230769230769,4,2,3,65,0,0
32022,-76.9230769230769,4,2,3,5,0,0
32105,-100,4,2,3,70,0,0
33272,-100,4,2,1,70,0,0
33355,-100,4,2,3,70,0,0
34772,-100,4,2,1,70,0,0
34855,-100,4,2,3,70,0,0
35939,-100,4,2,1,70,0,0
36022,-100,4,2,3,70,0,0
37022,-100,4,2,3,5,0,0
37105,-100,4,2,3,70,0,0
37439,-100,4,2,1,70,0,0
37522,-100,4,2,3,70,0,0
37689,-100,4,2,3,5,0,0
37772,-100,4,2,3,70,0,0
38355,-100,4,2,3,5,0,0
38439,-100,4,2,3,70,0,0
38605,-100,4,2,1,70,0,0
38689,-100,4,2,3,70,0,0
39022,-100,4,2,3,5,0,0
39105,-100,4,2,3,70,0,0
40105,-100,4,2,1,70,0,0
40189,-100,4,2,3,70,0,0
41272,-100,4,2,1,70,0,0
41355,-100,4,2,3,70,0,0
42439,-83.3333333333333,4,2,3,70,0,0
42689,-83.3333333333333,4,2,3,5,0,0
42772,-100,4,2,3,70,0,0
43689,-100,4,2,3,5,0,0
43772,-100,4,2,3,70,0,0
43939,-100,4,2,1,70,0,0
44022,-100,4,2,3,70,0,0
45439,-100,4,2,1,70,0,0
45522,-100,4,2,3,70,0,0
45689,-100,4,2,3,5,0,0
45772,-100,4,2,3,70,0,0
47355,-100,4,2,3,5,0,0
47439,-100,4,2,3,70,0,0
48105,-125,4,2,3,70,0,0
53439,-83.3333333333333,4,2,3,80,0,1
55022,-83.3333333333333,4,2,3,5,0,1
55105,-83.3333333333333,4,2,3,80,0,1
57022,-83.3333333333333,4,2,3,5,0,1
57105,-83.3333333333333,4,2,3,80,0,1
59022,-83.3333333333333,4,2,3,5,0,1
59105,-83.3333333333333,4,2,3,80,0,1
68355,-83.3333333333333,4,2,3,5,0,1
68439,-83.3333333333333,4,2,3,80,0,1
68855,-83.3333333333333,4,2,3,5,0,1
68939,-83.3333333333333,4,2,3,80,0,1
69689,-83.3333333333333,4,2,3,5,0,1
69772,-83.3333333333333,4,2,3,80,0,1
72355,-83.3333333333333,4,2,3,5,0,1
72439,-83.3333333333333,4,2,3,80,0,1
73022,-83.3333333333333,4,2,3,5,0,1
73105,-83.3333333333333,4,2,3,80,0,1
73605,-83.3333333333333,4,2,3,5,0,1
73689,-83.3333333333333,4,2,3,80,0,1
74772,-83.3333333333333,4,2,3,80,0,0
75022,-83.3333333333333,4,2,3,5,0,0
75105,-83.3333333333333,4,2,3,80,0,0
77772,-100,4,2,3,70,0,0
79022,-100,4,2,3,80,0,0
80105,-83.3333333333333,4,2,3,80,0,1
80355,-83.3333333333333,4,2,3,5,0,1
80439,-83.3333333333333,4,2,3,80,0,1
83022,-83.3333333333333,4,2,3,5,0,1
83105,-83.3333333333333,4,2,3,80,0,1
85689,-83.3333333333333,4,2,3,5,0,1
85772,-83.3333333333333,4,2,3,80,0,1
86022,-83.3333333333333,4,2,3,5,0,1
86105,-83.3333333333333,4,2,3,80,0,1
86605,-100,4,2,3,80,0,1
88439,-100,4,2,3,5,0,0

[Colours]
Combo1 : 176,209,249
Combo2 : 27,122,105
Combo3 : 130,227,210
Combo4 : 88,125,222

[HitObjects]
20,99,106,6,0,P|58:75|102:79,1,90,6|0,3:2|3:0,0:0:0:0:
211,164,439,1,10,0:0:0:0:
305,88,605,1,0,0:0:0:0:
449,182,772,2,0,L|464:82,1,90,2|0,3:2|3:0,0:0:0:0:
376,230,1105,1,10,0:0:0:0:
499,258,1272,1,2,0:0:0:0:
358,362,1439,6,0,P|314:356|288:321,1,90,2|0,3:2|3:0,0:0:0:0:
109,293,1772,2,0,P|128:253|170:241,1,90,10|0,0:0|0:0,0:0:0:0:
263,96,2105,2,0,P|293:127|290:171,1,90,2|0,3:2|3:0,0:0:0:0:
185,124,2439,1,10,0:0:0:0:
185,124,2605,1,2,0:0:0:0:
376,71,2772,6,0,L|481:95,1,90,2|0,3:2|3:0,0:0:0:0:
278,15,3105,1,10,0:0:0:0:
263,96,3272,1,2,0:0:0:0:
476,87,3439,2,0,P|480:131|459:170,1,90,2|2,3:2|3:2,0:0:0:0:
292,257,3772,1,10,0:0:0:0:
307,176,3939,1,2,0:0:0:0:
270,378,4105,6,0,P|313:384|355:365,1,90,2|0,3:2|3:0,0:0:0:0:
307,176,4439,2,0,P|262:174|226:201,1,90,10|0,0:0|0:0,0:0:0:0:
74,350,4772,2,0,B|42:303|42:303|92:237|92:237|85:195,1,161.999995056153,2|0,3:2|0:0,0:0:0:0:
96,137,5105,2,0,L|113:247,1,90,10|0,0:0|0:0,0:0:0:0:
305,337,5439,6,0,P|349:336|387:313,1,90,2|0,3:2|3:0,0:0:0:0:
298,144,5772,1,10,0:0:0:0:
313,223,5939,1,0,0:0:0:0:
473,195,6105,2,0,L|485:96,1,90,2|2,3:2|3:2,0:0:0:0:
283,65,6439,1,10,0:0:0:0:
298,144,6606,1,2,0:0:0:0:
479,0,6772,6,0,L|468:89,1,90,2|0,3:2|3:0,0:0:0:0:
325,221,7105,2,0,P|281:224|242:204,1,90,10|0,0:0|0:0,0:0:0:0:
392,65,7439,2,0,L|381:154,1,90,2|2,3:2|3:2,0:0:0:0:
357,371,7772,1,10,0:0:0:0:
417,316,7939,1,2,0:0:0:0:
242,204,8105,6,0,L|212:209,1,27,2|0,3:2|0:0,0:0:0:0:
110,184,8439,6,0,B|68:152|71:41|187:18|203:76|184:103|163:101,1,216,14|0,0:0|0:0,0:0:0:0:
108,210,8772,6,0,P|80:183|73:134,1,72,2|2,3:2|3:2,0:0:0:0:
348,141,9105,1,8,0:0:0:0:
342,190,9189,1,8,0:0:0:0:
336,239,9272,1,8,0:0:0:0:
330,288,9356,1,8,0:0:0:0:
324,337,9439,5,14,0:1:0:0:
409,88,9605,1,14,0:1:0:0:
194,371,10105,5,14,0:1:0:0:
179,87,10271,1,14,0:1:0:0:
490,366,10772,6,0,L|497:315,1,36,6|2,3:2|0:0,0:0:0:0:
456,258,11105,2,0,L|416:250,1,36,2|2,0:0|0:0,0:0:0:0:
318,319,11439,1,2,0:0:0:0:
194,209,11772,1,2,0:0:0:0:
58,304,12105,6,0,L|64:257,1,36,2|2,0:0|0:0,0:0:0:0:
33,190,12439,2,0,L|26:143,1,36,2|2,0:0|0:0,0:0:0:0:
59,50,12772,1,2,0:0:0:0:
209,123,13105,2,0,L|256:130,1,36,2|0,0:0|0:0,0:0:0:0:
354,39,13439,6,0,L|348:119,1,72,2|0,0:0|0:0,0:0:0:0:
340,239,13939,1,2,0:0:0:0:
415,295,14105,2,0,P|367:278|333:322,1,108,2|2,0:0|0:0,0:0:0:0:
195,341,14772,6,0,L|233:347,1,36,2|2,0:0|0:0,0:0:0:0:
210,237,15105,1,2,0:0:0:0:
210,237,15272,1,2,0:0:0:0:
69,316,15439,2,0,L|76:361,1,36,2|0,0:0|0:0,0:0:0:0:
218,196,15772,2,0,L|223:160,1,36,10|0,0:0|0:0,0:0:0:0:
32,31,16105,5,2,3:2:0:0:
32,31,16272,2,0,P|59:53|94:56,1,72,0|0,3:0|0:0,0:0:0:0:
260,0,16772,2,0,L|256:43,1,36,2|0,0:0|0:0,0:0:0:0:
323,148,17105,2,0,L|319:112,1,36,2|0,0:0|0:0,0:0:0:0:
486,2,17439,6,0,L|478:78,1,72,2|0,0:0|0:0,0:0:0:0:
284,228,18105,1,2,0:0:0:0:
346,80,18439,1,2,0:0:0:0:
489,265,18772,6,0,P|448:233|396:242,1,108,2|0,0:0|0:0,0:0:0:0:
265,384,19439,2,0,L|248:275,1,108,2|0,0:0|0:0,0:0:0:0:
121,189,20105,5,2,3:2:0:0:
120,173,20272,1,0,3:0:0:0:
132,179,20439,1,0,3:0:0:0:
0,331,20605,1,10,0:0:0:0:
44,22,20939,6,0,L|37:73,1,45,10|0,0:1|0:0,0:0:0:0:
30,116,21439,6,0,P|61:100|97:102,1,72,6|2,3:2|0:0,0:0:0:0:
205,197,21772,1,2,3:2:0:0:
279,170,21939,1,2,0:0:0:0:
314,98,22105,2,0,P|281:88|246:95,1,72,2|0,3:2|0:0,0:0:0:0:
265,247,22439,1,2,3:2:0:0:
279,170,22606,1,2,0:0:0:0:
81,269,22772,5,2,3:2:0:0:
136,324,22939,2,0,P|155:294|157:258,1,72,2|2,0:0|3:2,0:0:0:0:
55,107,23272,1,2,0:0:0:0:
2,166,23439,2,0,P|30:185|69:186,1,72,2|0,3:2|0:0,0:0:0:0:
165,101,23772,1,2,3:2:0:0:
274,244,23939,1,8,0:0:0:0:
136,324,24105,6,0,L|158:158,1,144,2|0,3:2|3:0,0:0:0:0:
287,114,24605,1,2,0:0:0:0:
393,215,24772,2,0,P|428:218|460:204,1,72,2|0,3:2|0:0,0:0:0:0:
441,103,25105,2,0,P|405:99|373:113,1,72,0|2,3:0|0:0,0:0:0:0:
268,206,25439,5,2,3:2:0:0:
195,95,25605,1,2,0:0:0:0:
287,114,25772,1,2,3:2:0:0:
176,187,25939,1,2,0:0:0:0:
346,164,26105,2,0,P|361:132|361:97,1,72,2|0,3:2|0:0,0:0:0:0:
268,206,26439,1,2,3:2:0:0:
152,27,26605,1,10,0:0:0:0:
8,136,26772,6,0,L|27:249,1,108,2|0,3:2|0:0,0:0:0:0:
37,295,27105,2,0,L|53:194,1,72,0|0,3:0|0:0,0:0:0:0:
218,123,27439,2,0,P|271:123|306:162,1,108,2|0,3:2|0:0,0:0:0:0:
305,202,27772,1,2,3:2:0:0:
208,238,27939,1,2,0:0:0:0:
391,136,28105,6,0,L|377:266,1,108,2|0,3:2|0:0,0:0:0:0:
408,288,28439,2,0,L|399:207,1,72,0|0,3:0|0:0,0:0:0:0:
468,33,28772,2,0,P|440:55|404:57,1,72,2|0,3:2|0:0,0:0:0:0:
260,0,29105,2,0,L|251:80,1,72,10|0,0:0|0:0,0:0:0:0:
68,158,29439,6,0,P|120:150|163:186,1,108,2|0,3:2|0:0,0:0:0:0:
165,221,29772,1,0,3:0:0:0:
351,153,29939,1,8,0:0:0:0:
242,96,30105,2,0,L|252:176,1,72,0|2,3:0|0:0,0:0:0:0:
431,384,30439,2,0,L|445:266,1,108,8|0,3:2|0:0,0:0:0:0:
494,230,30772,6,0,B|462:255|462:255|373:238,1,121.499996292114,10|0,3:2|0:0,0:0:0:0:
339,230,31105,1,0,3:0:0:0:
217,56,31272,1,8,0:0:0:0:
99,148,31439,6,0,L|106:192,1,40.4999987640381,0|0,3:0|0:0,0:0:0:0:
198,230,31772,6,0,L|219:33,1,175.499991966248,14|0,0:0|0:0,0:0:0:0:
223,6,32105,5,6,3:2:0:0:
310,97,32272,1,2,0:0:0:0:
405,9,32439,2,0,P|449:8|483:35,1,90,10|2,0:0|0:0,0:0:0:0:
320,186,32772,2,0,L|309:89,1,90,2|0,3:2|3:0,0:0:0:0:
436,228,33105,2,0,L|447:131,1,90,10|2,0:0|3:2,0:0:0:0:
333,316,33439,5,2,0:0:0:0:
320,186,33605,1,2,3:2:0:0:
436,228,33772,1,10,0:0:0:0:
312,173,33939,1,2,0:0:0:0:
413,303,34105,2,0,P|457:307|494:281,1,90,2|0,3:2|3:0,0:0:0:0:
304,160,34439,2,0,L|291:260,1,90,10|0,0:0|0:0,0:0:0:0:
92,326,34772,5,2,3:2:0:0:
59,186,34939,1,2,0:0:0:0:
97,341,35105,2,0,B|147:351|147:351|196:322,1,90,10|2,0:0|0:0,0:0:0:0:
306,139,35439,1,2,3:2:0:0:
373,254,35605,1,2,3:2:0:0:
297,124,35772,2,0,L|200:111,1,90,10|2,0:0|3:2,0:0:0:0:
17,33,36105,5,2,0:0:0:0:
92,164,36272,1,2,3:2:0:0:
265,31,36439,2,0,P|309:25|349:44,1,90,10|0,0:0|0:0,0:0:0:0:
464,223,36772,2,0,L|477:67,1,135,2|0,3:2|0:0,0:0:0:0:
479,39,37105,1,8,0:0:0:0:
379,132,37272,1,2,0:0:0:0:
184,0,37439,6,0,B|149:40|149:40|172:142,1,135,2|0,3:2|0:0,0:0:0:0:
180,167,37772,1,8,0:0:0:0:
323,86,37939,1,2,0:0:0:0:
77,129,38105,2,0,P|69:194|104:250,1,135,2|0,3:2|0:0,0:0:0:0:
152,272,38439,1,8,0:0:0:0:
282,160,38605,1,2,3:2:0:0:
337,384,38772,6,0,B|371:347|371:347|352:237,1,135,2|0,0:0|0:0,0:0:0:0:
347,215,39105,1,8,0:0:0:0:
218,104,39272,1,2,0:0:0:0:
448,30,39439,2,0,L|436:145,1,90,2|0,3:2|3:0,0:0:0:0:
414,294,39772,1,10,0:0:0:0:
358,114,39939,1,2,0:0:0:0:
489,335,40105,6,0,P|460:369|416:377,1,90,2|0,3:2|3:0,0:0:0:0:
226,202,40439,1,8,0:0:0:0:
172,286,40605,1,2,0:0:0:0:
301,268,40772,1,0,3:0:0:0:
135,117,40939,1,10,0:0:0:0:
198,14,41105,1,2,3:2:0:0:
226,202,41272,1,10,0:0:0:0:
79,61,41439,5,2,3:2:0:0:
49,265,41605,1,10,0:3:0:0:
49,265,41689,1,8,0:3:0:0:
49,265,41772,1,2,3:2:0:0:
226,202,41939,1,6,3:3:0:0:
226,202,42022,1,6,3:3:0:0:
226,202,42105,1,10,0:0:0:0:
135,117,42272,1,0,3:0:0:0:
413,53,42439,6,0,L|390:233,1,161.999995056153,14|0,0:1|0:0,0:0:0:0:
386,263,42772,5,6,3:2:0:0:
506,213,42939,1,2,0:0:0:0:
311,232,43105,2,0,P|303:274|335:327,1,90,10|2,0:0|0:0,0:0:0:0:
512,130,43439,2,0,B|474:118|441:142|457:147|427:171|386:162,1,135,2|0,3:2|0:0,0:0:0:0:
339,149,43772,1,10,0:0:0:0:
501,0,43939,1,2,3:2:0:0:
501,209,44105,5,2,0:0:0:0:
349,68,44272,1,2,3:2:0:0:
512,220,44439,2,0,L|503:313,1,90,10|2,0:0|0:0,0:0:0:0:
313,159,44772,1,2,3:2:0:0:
410,145,44939,1,2,3:2:0:0:
374,236,45105,1,10,0:0:0:0:
349,68,45272,1,2,0:0:0:0:
258,290,45439,6,0,B|244:324|244:324|211:222,1,135,2|0,3:2|0:0,0:0:0:0:
200,185,45772,1,10,0:0:0:0:
3,259,45939,2,0,B|37:210|97:222|116:271|105:270|122:298|167:299,1,180,2|0,0:0|3:0,0:0:0:0:
128,38,46439,1,10,0:0:0:0:
62,203,46605,1,6,3:2:0:0:
238,24,46772,6,0,P|283:19|322:40,1,90,2|0,0:0|3:0,0:0:0:0:
314,307,47105,2,0,L|297:154,1,135,12|0,0:1|0:0,0:0:0:0:
293,120,47439,1,6,3:1:0:0:
496,165,47605,1,8,0:3:0:0:
496,165,47689,2,0,L|443:173,1,45,10|4,0:3|0:3,0:0:0:0:
388,225,47939,1,2,0:0:0:0:
512,0,48105,5,6,3:2:0:0:
499,11,48439,1,0,3:0:0:0:
493,28,48772,1,0,3:0:0:0:
497,44,49105,1,2,3:2:0:0:
346,103,49273,1,12,0:1:0:0:
508,55,49439,6,0,L|494:142,1,72,2|0,3:2|0:0,0:0:0:0:
405,244,49772,2,0,L|391:157,1,72,2|0,3:2|0:0,0:0:0:0:
278,23,50105,2,0,L|264:110,1,72,2|0,3:2|0:0,0:0:0:0:
112,208,50439,1,2,3:2:0:0:
13,54,50605,1,2,0:0:0:0:
286,93,50772,5,2,3:2:0:0:
115,191,50939,1,0,3:0:0:0:
325,348,51105,1,10,0:0:0:0:
295,74,51272,1,0,3:0:0:0:
185,323,51439,1,2,3:2:0:0:
304,55,51605,1,0,3:0:0:0:
478,301,51772,2,0,L|475:375,1,72,10|0,0:0|3:0,0:0:0:0:
195,152,52105,5,10,0:0:0:0:
497,63,52272,1,10,0:0:0:0:
130,383,52772,5,10,0:0:0:0:
75,58,52939,1,10,0:0:0:0:
293,226,53439,6,0,P|348:236|399:209,1,107.999996704102,6|0,3:2|0:0,0:0:0:0:
216,45,53772,2,0,L|206:160,1,107.999996704102,10|0,0:0|0:0,0:0:0:0:
448,130,54105,2,0,L|411:16,1,107.999996704102,2|0,3:2|3:0,0:0:0:0:
206,152,54439,2,0,L|196:267,1,107.999996704102,10|0,0:0|0:0,0:0:0:0:
0,23,54772,6,0,P|76:11|131:67,1,161.999995056153,2|0,3:2|0:0,0:0:0:0:
122,175,55105,2,0,L|131:67,1,107.999996704102,10|0,0:0|0:0,0:0:0:0:
304,0,55439,2,0,P|355:7|393:51,1,107.999996704102,2|0,3:2|3:0,0:0:0:0:
405,231,55772,1,10,0:0:0:0:
512,90,55939,1,2,0:0:0:0:
250,126,56105,6,0,L|259:233,1,107.999996704102,2|0,3:2|3:0,0:0:0:0:
485,258,56439,2,0,P|488:208|438:154,1,107.999996704102,10|0,0:0|0:0,0:0:0:0:
263,305,56772,2,0,B|217:338|217:338|237:211,1,161.999995056153,2|0,3:2|0:0,0:0:0:0:
250,126,57105,2,0,L|229:252,1,107.999996704102,10|0,0:0|0:0,0:0:0:0:
102,37,57439,6,0,P|156:26|201:52,1,107.999996704102,2|0,3:2|3:0,0:0:0:0:
25,254,57772,2,0,L|12:132,1,107.999996704102,10|0,0:0|0:0,0:0:0:0:
233,237,58105,1,2,3:2:0:0:
137,326,58272,1,0,3:0:0:0:
341,384,58439,2,0,L|352:276,1,107.999996704102,10|0,0:0|0:0,0:0:0:0:
512,25,58772,6,0,B|461:13|426:42|445:50|408:88|329:59,1,161.999995056153,2|0,3:2|0:0,0:0:0:0:
318,9,59105,2,0,L|329:117,1,107.999996704102,8|0,0:0|0:0,0:0:0:0:
460,339,59439,2,0,P|441:289|394:265,1,107.999996704102,2|0,3:2|3:0,0:0:0:0:
244,128,59772,2,0,P|208:167|208:220,1,107.999996704102,10|0,0:0|0:0,0:0:0:0:
417,184,60105,6,0,L|406:76,1,107.999996704102,2|0,3:2|3:0,0:0:0:0:
296,272,60439,2,0,L|307:380,1,107.999996704102,10|0,0:0|0:0,0:0:0:0:
157,230,60772,1,2,3:2:0:0:
283,161,60939,1,0,3:0:0:0:
178,352,61105,2,0,P|126:357|81:329,1,107.999996704102,10|0,0:0|0:0,0:0:0:0:
49,63,61439,6,0,L|155:79,1,107.999996704102,2|0,3:2|3:0,0:0:0:0:
310,271,61772,2,0,L|416:254,1,107.999996704102,10|0,0:0|0:0,0:0:0:0:
284,62,62105,2,0,P|252:103|254:156,1,107.999996704102,2|0,3:2|3:0,0:0:0:0:
500,309,62439,2,0,P|517:258|501:207,1,107.999996704102,10|0,0:0|0:0,0:0:0:0:
178,83,62772,5,10,0:0:0:0:
247,352,62939,1,0,3:0:0:0:
436,38,63105,1,10,0:0:0:0:
404,321,63272,1,0,3:0:0:0:
194,160,63439,1,10,0:0:0:0:
493,192,63605,1,0,3:0:0:0:
218,246,63772,2,0,B|155:261|155:261|102:210,1,107.999996704102,14|0,0:2|0:0,0:0:0:0:
353,0,64105,6,0,L|341:140,1,107.999996704102,6|0,3:1|3:0,0:0:0:0:
204,349,64439,2,0,P|261:347|301:306,1,107.999996704102,10|0,0:0|0:0,0:0:0:0:
24,168,64772,2,0,L|36:308,1,107.999996704102,2|0,3:2|3:0,0:0:0:0:
229,127,65105,2,0,L|241:-13,1,107.999996704102,10|0,0:0|0:0,0:0:0:0:
140,232,65439,5,2,3:2:0:0:
140,232,65605,1,0,3:0:0:0:
363,190,65772,2,0,P|416:199|451:245,1,107.999996704102,10|0,0:0|0:0,0:0:0:0:
251,377,66105,2,0,L|235:258,1,107.999996704102,2|0,3:2|3:0,0:0:0:0:
464,133,66439,2,0,L|448:252,1,107.999996704102,10|0,0:0|0:0,0:0:0:0:
170,213,66772,6,0,L|155:93,1,107.999996704102,2|0,3:2|3:0,0:0:0:0:
386,46,67105,1,10,0:0:0:0:
304,145,67272,1,0,0:0:0:0:
178,24,67439,2,0,P|125:22|84:58,1,107.999996704102,2|0,3:2|3:2,0:0:0:0:
290,252,67772,2,0,L|305:132,1,107.999996704102,10|0,0:0|0:0,0:0:0:0:
53,318,68105,6,0,B|106:295|132:331|122:335|151:368|204:356,1,161.999995056153,2|0,3:2|0:0,0:0:0:0:
265,326,68439,1,8,0:0:0:0:
94,136,68605,2,0,B|167:88|167:88|176:189,1,161.999995056153,2|0,0:0|0:0,0:0:0:0:
182,233,68939,1,0,3:0:0:0:
344,61,69105,2,0,P|301:99|314:154,1,107.999996704102,10|0,0:0|0:0,0:0:0:0:
487,352,69439,6,0,B|439:368|405:337|424:323|387:290|322:311,1,161.999995056153,2|0,3:2|0:0,0:0:0:0:
294,359,69772,2,0,L|305:251,1,107.999996704102,10|0,0:0|0:0,0:0:0:0:
447,133,70105,1,2,3:2:0:0:
472,266,70272,1,0,3:0:0:0:
261,164,70439,2,0,P|208:158|164:188,1,107.999996704102,10|0,0:0|0:0,0:0:0:0:
29,384,70772,6,0,L|18:276,1,107.999996704102,2|0,3:2|3:0,0:0:0:0:
114,61,71105,1,10,0:0:0:0:
9,199,71272,2,0,B|65:225|112:179|93:169|137:116|212:147,1,215.999993408203,2|0,0:0|3:0,0:0:0:0:
224,340,71772,1,10,0:0:0:0:
171,213,71939,1,2,0:0:0:0:
406,75,72105,6,0,L|383:250,1,161.999995056153,2|0,3:2|0:0,0:0:0:0:
376,305,72439,2,0,L|358:173,1,107.999996704102,10|0,0:0|0:0,0:0:0:0:
121,107,72772,2,0,P|198:93|263:139,1,161.999995056153,2|0,3:2|0:0,0:0:0:0:
285,214,73105,1,10,0:0:0:0:
307,54,73272,1,2,0:0:0:0:
162,235,73439,6,0,P|148:288|176:343,1,107.999996704102,6|0,3:1|3:0,0:0:0:0:
238,374,73689,1,8,0:0:0:0:
238,374,73772,1,10,0:0:0:0:
362,303,73939,1,4,0:3:0:0:
189,139,74105,1,10,3:2:0:0:
456,12,74272,1,8,0:0:0:0:
451,54,74355,1,8,0:0:0:0:
446,96,74438,1,8,0:0:0:0:
441,138,74522,1,8,0:0:0:0:
436,180,74605,1,8,0:0:0:0:
431,222,74688,1,8,0:0:0:0:
426,264,74772,6,0,L|286:282,1,107.999996704102,6|0,3:2|3:0,0:0:0:0:
266,328,75105,2,0,B|291:291|291:291|275:227,1,107.999996704102,10|0,0:0|0:0,0:0:0:0:
100,87,75439,1,2,3:2:0:0:
131,193,75605,1,0,3:0:0:0:
253,33,75772,2,0,P|301:17|354:45,1,107.999996704102,10|0,0:0|0:0,0:0:0:0:
319,261,76105,5,10,0:0:0:0:
429,166,76272,1,0,3:0:0:0:
293,118,76439,1,2,3:2:0:0:
203,313,76605,5,10,0:0:0:0:
167,119,76772,1,0,3:0:0:0:
350,184,76939,1,0,3:0:0:0:
86,361,77105,6,0,L|71:253,1,107.999996704102,14|0,0:1|0:0,0:0:0:0:
246,46,77439,6,0,P|273:91|267:144,1,107.999996704102,2|0,3:2|0:0,0:0:0:0:
32,118,77772,1,2,3:2:0:0:
33,126,77855,1,0,3:0:0:0:
34,135,77938,1,0,3:0:0:0:
35,144,78021,1,0,3:0:0:0:
37,153,78105,1,2,3:2:0:0:
38,162,78188,1,0,3:0:0:0:
39,171,78271,1,0,3:0:0:0:
40,180,78355,1,0,3:0:0:0:
42,189,78438,1,0,3:2:0:0:
43,198,78521,1,0,3:0:0:0:
44,207,78605,1,0,3:0:0:0:
46,215,78688,1,0,3:0:0:0:
47,224,78771,5,10,3:2:0:0:
70,257,78855,1,8,0:0:0:0:
106,275,78939,1,8,0:0:0:0:
146,278,79022,1,8,0:0:0:0:
191,259,79105,1,8,3:2:0:0:
225,217,79189,1,8,0:0:0:0:
252,170,79272,1,8,0:0:0:0:
296,136,79355,1,8,0:0:0:0:
345,117,79439,1,8,3:2:0:0:
398,116,79522,1,8,0:0:0:0:
444,141,79605,1,8,0:0:0:0:
477,179,79689,1,8,0:0:0:0:
496,227,79772,1,10,3:2:0:0:
497,278,79855,1,8,0:0:0:0:
480,324,79939,1,8,0:0:0:0:
447,361,80022,1,8,0:0:0:0:
403,384,80106,6,0,B|335:376|335:376|317:358|317:358|249:351,1,161.999995056153,6|0,3:2|0:0,0:0:0:0:
187,384,80439,2,0,P|219:342|219:289,1,107.999996704102,10|0,0:0|0:0,0:0:0:0:
106,121,80772,1,2,3:2:0:0:
145,314,80939,1,0,3:0:0:0:
341,255,81105,2,0,B|306:278|306:278|219:256,1,107.999996704102,10|0,0:0|0:0,0:0:0:0:
22,129,81439,6,0,L|31:249,1,107.999996704102,2|0,3:2|0:0,0:0:0:0:
283,185,81772,2,0,P|289:132|260:88,1,107.999996704102,10|0,0:0|0:0,0:0:0:0:
107,270,82105,1,2,3:2:0:0:
210,150,82272,1,0,3:0:0:0:
350,327,82439,2,0,B|425:343|425:343|461:304,1,107.999996704102,10|0,0:0|0:0,0:0:0:0:
436,37,82772,6,0,B|441:12|362:-12|329:66|390:126,1,161.999995056153,2|0,3:2|0:0,0:0:0:0:
453,136,83105,2,0,B|378:120|378:120|342:159,1,107.999996704102,10|0,0:0|0:0,0:0:0:0:
446,319,83439,1,2,3:2:0:0:
512,193,83605,1,0,3:0:0:0:
306,249,83772,2,0,L|183:226,1,107.999996704102,10|2,0:0|0:0,0:0:0:0:
43,18,84105,6,0,P|95:11|135:46,1,107.999996704102,2|0,3:2|0:0,0:0:0:0:
12,308,84439,2,0,L|-3:179,1,107.999996704102,8|0,0:0|0:0,0:0:0:0:
134,45,84772,1,2,3:2:0:0:
208,155,84939,1,0,3:0:0:0:
393,0,85105,2,0,L|378:129,1,107.999996704102,8|0,0:0|0:0,0:0:0:0:
492,329,85439,6,0,B|438:336|410:302|426:299|397:260|315:280,1,161.999995056153,2|0,3:2|0:0,0:0:0:0:
271,339,85772,2,0,B|240:371|240:371|369:353,1,161.999995056153,8|0,0:0|0:0,0:0:0:0:
476,251,86105,2,0,L|483:197,1,53.9999983520508,2|0,3:2|0:0,0:0:0:0:
320,94,86272,1,8,0:0:0:0:
320,94,86355,1,8,0:0:0:0:
319,93,86439,2,0,L|326:146,1,53.9999983520508,8|8,0:3|0:0,0:0:0:0:
356,354,86605,1,6,3:2:0:0:
256,192,86689,12,0,88439,0:0:0:0:
