osu file format v14

[General]
AudioFilename: audio.mp3
AudioLeadIn: 0
PreviewTime: 52939
Countdown: 0
SampleSet: Soft
StackLeniency: 0.7
Mode: 0
LetterboxInBreaks: 0
WidescreenStoryboard: 1

[Editor]
DistanceSpacing: 1.1
BeatDivisor: 4
GridSize: 32
TimelineZoom: 1

[Metadata]
Title:Koukai no Uta (TV Size)
TitleUnicode:航海の唄 (TV Size)
Artist:Sayuri
ArtistUnicode:さユり
Creator:dkblaze
Version:Asuka_-'s Insane
Source:僕のヒーローアカデミア
Tags:Asuka_- season fourth 4 Boku no Hero Academia my Ending theme ed anime j pop jpop japanese
BeatmapID:2202701
BeatmapSetID:1054062

[Difficulty]
HPDrainRate:5.5
CircleSize:4
OverallDifficulty:7
ApproachRate:9
SliderMultiplier:1.7
SliderTickRate:1

[Events]
//Background and Video events
Video,-40,"video.mp4"
0,0,"BG.jpg",0,0
//Break Periods
//Storyboard Layer 0 (Background)
//Storyboard Layer 1 (Fail)
//Storyboard Layer 2 (Pass)
//Storyboard Layer 3 (Foreground)
//Storyboard Layer 4 (Overlay)
//Storyboard Sound Samples

[TimingPoints]
106,333.333333333333,4,2,3,75,1,0
106,-111.111111111111,4,2,3,75,0,0
8105,-111.111111111111,4,2,1,75,0,0
8189,-111.111111111111,4,2,3,75,0,0
8772,-100,4,2,1,75,0,0
8855,-100,4,2,3,75,0,0
10772,-166.666666666667,4,2,3,60,0,0
21105,-100,4,2,3,60,0,0
21439,-125,4,2,3,65,0,0
32105,-125,4,2,3,70,0,0
33272,-125,4,2,1,70,0,0
33355,-125,4,2,3,70,0,0
34772,-125,4,2,1,70,0,0
34855,-125,4,2,3,70,0,0
35939,-125,4,2,1,70,0,0
36022,-125,4,2,3,70,0,0
37439,-125,4,2,1,70,0,0
37522,-125,4,2,3,70,0,0
38605,-125,4,2,1,70,0,0
38689,-125,4,2,3,70,0,0
40105,-125,4,2,1,70,0,0
40189,-125,4,2,3,70,0,0
41272,-125,4,2,1,70,0,0
41355,-125,4,2,3,70,0,0
43939,-125,4,2,1,70,0,0
44022,-125,4,2,3,70,0,0
45439,-125,4,2,1,70,0,0
45522,-125,4,2,3,70,0,0
53439,-100,4,2,3,80,0,1
74772,-100,4,2,3,80,0,0
77772,-100,4,2,3,70,0,0
79022,-100,4,2,3,80,0,0
80105,-100,4,2,3,80,0,1
86605,-100,4,2,3,80,0,0
88439,-100,4,2,3,5,0,0

[Colours]
Combo1 : 176,209,249
Combo2 : 27,122,105
Combo3 : 130,227,210
Combo4 : 88,125,222

[HitObjects]
94,18,106,6,0,L|80:112,1,76.4999976654053,6|0,3:2|3:0,0:0:0:0:
201,154,439,2,0,L|189:66,1,76.4999976654053,10|0,0:0|0:0,0:0:0:0:
24,203,772,2,0,B|111:185|111:185|153:249,1,152.999995330811,2|10,3:2|0:0,0:0:0:0:
297,184,1272,1,2,0:0:0:0:
219,302,1439,6,0,L|300:286,1,76.4999976654053,2|0,3:2|3:0,0:0:0:0:
371,200,1772,2,0,L|290:182,1,76.4999976654053,10|0,0:0|0:0,0:0:0:0:
457,352,2105,2,0,B|494:318|494:318|388:297,1,152.999995330811,2|10,3:2|0:0,0:0:0:0:
492,211,2605,1,2,0:0:0:0:
413,42,2772,6,0,L|394:129,1,76.4999976654053,2|0,3:2|3:0,0:0:0:0:
296,183,3105,2,0,L|280:86,1,76.4999976654053,10|2,0:0|0:0,0:0:0:0:
128,44,3439,2,0,P|187:-10|258:14,1,152.999995330811,2|10,3:2|0:0,0:0:0:0:
201,166,3939,1,2,0:0:0:0:
76,150,4105,6,0,L|-10:136,1,76.4999976654053,2|0,3:2|3:0,0:0:0:0:
78,297,4439,2,0,L|165:278,1,76.4999976654053,10|0,0:0|0:0,0:0:0:0:
201,166,4772,1,2,3:2:0:0:
267,262,4939,1,0,3:0:0:0:
217,366,5105,1,10,0:0:0:0:
480,30,5439,6,0,L|399:48,1,76.4999976654053,2|0,3:2|3:0,0:0:0:0:
307,128,5772,2,0,L|289:48,1,76.4999976654053,10|0,0:0|0:0,0:0:0:0:
471,143,6105,2,0,B|425:185|425:185|441:282,1,152.999995330811,2|10,3:2|0:0,0:0:0:0:
405,46,6605,1,2,0:0:0:0:
325,231,6772,5,2,3:2:0:0:
317,216,6939,1,0,3:0:0:0:
195,188,7105,1,10,0:0:0:0:
307,128,7272,1,0,0:0:0:0:
214,290,7439,2,0,L|120:279,1,76.4999976654053,2|2,3:2|3:2,0:0:0:0:
307,128,7772,2,0,L|396:121,1,76.4999976654053,10|2,0:0|0:0,0:0:0:0:
113,17,8105,6,0,B|68:64|68:64|96:177,1,152.999995330811,2|14,3:2|0:0,0:0:0:0:
196,99,8605,1,0,0:0:0:0:
297,54,8772,2,0,P|312:91|305:143,1,85,2|2,3:2|3:2,0:0:0:0:
204,221,9105,1,8,0:0:0:0:
204,221,9189,1,8,0:0:0:0:
204,221,9272,1,8,0:0:0:0:
204,221,9355,1,8,0:0:0:0:
204,221,9439,5,14,0:1:0:0:
493,75,9605,1,14,0:1:0:0:
311,220,10105,5,14,0:1:0:0:
31,88,10272,1,14,0:1:0:0:
31,88,10772,6,0,P|88:81|149:71,1,101.999996887207,6|2,3:2|0:0,0:0:0:0:
229,77,11272,1,2,0:0:0:0:
229,77,11439,2,0,P|215:46|211:23,1,50.9999984436036,2|0,0:0|0:0,0:0:0:0:
175,155,11772,1,2,0:0:0:0:
455,35,12105,6,0,L|443:148,1,101.999996887207,2|2,0:0|0:0,0:0:0:0:
374,211,12605,1,2,0:0:0:0:
374,211,12772,2,0,P|366:185|350:154,1,50.9999984436036,2|0,0:0|0:0,0:0:0:0:
469,229,13105,1,2,0:0:0:0:
134,363,13439,5,2,0:0:0:0:
346,314,13772,1,0,0:0:0:0:
355,324,13939,1,2,0:0:0:0:
252,355,14105,2,0,L|261:239,1,101.999996887207,2|0,0:0|0:0,0:0:0:0:
192,190,14605,1,2,0:0:0:0:
192,190,14772,6,0,P|217:178|245:154,1,50.9999984436036,2|2,0:0|0:0,0:0:0:0:
347,213,15105,2,0,P|333:198|317:157,1,50.9999984436036,2|2,0:0|0:0,0:0:0:0:
281,94,15439,1,2,0:0:0:0:
478,279,15772,1,10,0:0:0:0:
485,30,16105,5,2,3:2:0:0:
485,30,16272,2,0,P|435:63|388:53,1,101.999996887207,0|0,3:0|0:0,0:0:0:0:
324,15,16772,1,2,0:0:0:0:
432,166,17105,1,2,0:0:0:0:
252,321,17439,6,0,L|240:207,1,101.999996887207,2|0,0:0|0:0,0:0:0:0:
365,259,18105,1,2,0:0:0:0:
139,375,18439,1,2,0:0:0:0:
0,205,18772,6,0,P|52:234|106:211,1,101.999996887207,2|0,0:0|0:0,0:0:0:0:
184,261,19272,1,0,0:0:0:0:
184,261,19439,2,0,L|165:154,1,101.999996887207,2|0,0:0|0:0,0:0:0:0:
265,219,19939,1,0,0:0:0:0:
77,41,20105,5,2,3:2:0:0:
163,69,20272,1,0,3:0:0:0:
241,21,20439,1,0,3:0:0:0:
326,59,20605,1,10,0:0:0:0:
479,348,20939,5,10,0:1:0:0:
396,303,21105,1,2,0:0:0:0:
79,347,21439,6,0,L|65:259,1,68,6|2,3:2|0:0,0:0:0:0:
156,304,21772,2,0,L|235:289,1,68,2|2,3:2|0:0,0:0:0:0:
68,279,22105,2,0,L|-3:288,1,68,2|0,3:2|0:0,0:0:0:0:
131,219,22439,1,2,3:2:0:0:
131,219,22605,1,2,0:0:0:0:
114,118,22772,6,0,P|83:134|36:141,1,68,2|2,3:2|0:0,0:0:0:0:
197,56,23105,2,0,P|167:45|130:22,1,68,2|2,3:2|0:0,0:0:0:0:
294,107,23439,2,0,P|260:128|205:133,1,68,2|0,3:2|0:0,0:0:0:0:
350,39,23772,1,2,3:2:0:0:
370,55,23939,1,8,0:0:0:0:
440,157,24105,6,0,L|460:9,1,136,2|0,3:2|3:0,0:0:0:0:
403,250,24605,1,2,0:0:0:0:
346,173,24772,2,0,L|280:187,2,68,2|0|0,3:2|0:0|3:0,0:0:0:0:
403,250,25272,1,2,0:0:0:0:
347,327,25439,6,0,P|316:288|310:249,1,68,2|2,3:2|0:0,0:0:0:0:
232,341,25772,2,0,L|153:333,1,68,2|2,3:2|0:0,0:0:0:0:
341,329,26105,1,2,3:2:0:0:
440,370,26272,1,0,0:0:0:0:
356,315,26439,1,2,3:2:0:0:
451,357,26605,1,10,0:0:0:0:
477,161,26772,6,0,P|432:193|437:273,1,136,2|0,3:2|3:0,0:0:0:0:
443,61,27272,1,0,0:0:0:0:
356,113,27439,2,0,L|269:98,1,68,2|0,3:2|0:0,0:0:0:0:
178,30,27772,2,0,L|260:14,1,68,2|2,3:2|0:0,0:0:0:0:
103,146,28105,6,0,L|72:-11,1,136,2|0,3:2|3:0,0:0:0:0:
179,203,28605,1,0,0:0:0:0:
103,146,28772,1,2,3:2:0:0:
71,254,28939,1,0,0:0:0:0:
179,203,29105,1,10,0:0:0:0:
282,144,29272,1,0,0:0:0:0:
390,267,29439,6,0,P|323:289|276:252,1,136,2|0,3:2|3:0,0:0:0:0:
433,175,29939,2,0,L|512:164,1,68,8|0,0:0|3:0,0:0:0:0:
265,78,30272,2,0,L|182:65,1,68,2|8,0:0|3:2,0:0:0:0:
433,175,30605,1,0,0:0:0:0:
265,78,30772,6,0,L|117:55,1,136,10|0,3:2|3:0,0:0:0:0:
249,174,31272,1,8,0:0:0:0:
249,174,31355,1,0,0:0:0:0:
249,174,31439,1,0,3:0:0:0:
130,57,31605,1,0,0:0:0:0:
54,266,31772,1,14,0:0:0:0:
54,266,32105,5,6,3:2:0:0:
136,193,32272,1,2,0:0:0:0:
198,346,32439,2,0,L|207:265,1,68,10|2,0:0|0:0,0:0:0:0:
307,201,32772,2,0,P|275:177|219:182,1,68,2|0,3:2|3:0,0:0:0:0:
205,278,33105,2,0,P|240:302|284:301,1,68,10|2,0:0|3:2,0:0:0:0:
481,185,33439,5,2,0:0:0:0:
307,201,33605,1,2,3:2:0:0:
386,138,33772,1,10,0:0:0:0:
398,240,33939,1,2,0:0:0:0:
411,349,34105,2,0,L|331:336,1,68,2|0,3:2|3:0,0:0:0:0:
205,278,34439,2,0,L|302:268,1,68,10|0,0:0|0:0,0:0:0:0:
61,202,34772,5,2,3:2:0:0:
61,202,34939,1,2,0:0:0:0:
81,293,35105,2,0,L|94:370,1,68,10|2,0:0|0:0,0:0:0:0:
297,112,35439,5,2,3:2:0:0:
297,112,35605,1,2,3:2:0:0:
279,202,35772,2,0,L|267:302,1,68,10|2,0:0|3:2,0:0:0:0:
19,58,36105,5,2,0:0:0:0:
175,134,36272,1,2,3:2:0:0:
61,202,36439,1,10,0:0:0:0:
149,32,36605,1,0,0:0:0:0:
280,203,36772,2,0,P|322:143|299:73,1,136,2|8,3:2|0:0,0:0:0:0:
200,250,37272,1,2,0:0:0:0:
377,233,37439,6,0,L|539:214,1,136,2|8,3:2|0:0,0:0:0:0:
309,85,37939,1,2,0:0:0:0:
309,85,38105,2,0,L|159:69,1,136,2|8,3:2|0:0,0:0:0:0:
78,227,38605,1,2,3:2:0:0:
78,227,38772,6,0,P|114:189|203:200,1,136,2|8,0:0|0:0,0:0:0:0:
49,100,39272,1,2,0:0:0:0:
78,227,39439,2,0,L|94:322,1,68,2|0,3:2|3:0,0:0:0:0:
274,363,39772,1,10,0:0:0:0:
190,303,39939,1,2,0:0:0:0:
322,182,40105,6,0,P|369:229|345:313,2,136,2|8|0,3:2|0:0|3:0,0:0:0:0:
287,260,40939,1,10,0:0:0:0:
442,183,41105,1,2,3:2:0:0:
448,338,41272,6,0,L|456:271,1,68,10|2,0:0|3:2,0:0:0:0:
383,47,41605,1,10,0:3:0:0:
383,47,41689,1,8,0:3:0:0:
383,47,41772,2,0,L|373:135,1,68,2|6,3:2|3:3,0:0:0:0:
442,183,42105,1,10,0:0:0:0:
376,115,42272,1,0,3:0:0:0:
287,259,42439,1,14,0:1:0:0:
56,39,42772,5,6,3:2:0:0:
126,137,42939,1,2,0:0:0:0:
56,39,43105,2,0,L|39:129,1,68,10|2,0:0|0:0,0:0:0:0:
213,105,43439,2,0,P|189:70|151:57,1,68,2|0,3:2|3:0,0:0:0:0:
43,105,43772,1,10,0:0:0:0:
167,224,43939,1,2,3:2:0:0:
88,281,44105,6,0,L|70:195,1,68,2|2,0:0|3:2,0:0:0:0:
238,335,44439,2,0,L|255:254,1,68,10|2,0:0|0:0,0:0:0:0:
276,141,44772,1,2,3:2:0:0:
167,224,44939,1,2,3:2:0:0:
251,268,45105,1,10,0:0:0:0:
335,228,45272,1,2,0:0:0:0:
502,274,45439,6,0,P|454:317|376:292,1,136,2|10,3:2|0:0,0:0:0:0:
335,228,45939,2,0,L|348:78,1,136,2|0,0:0|3:0,0:0:0:0:
473,162,46439,1,10,0:0:0:0:
465,178,46605,1,6,3:2:0:0:
504,62,46772,6,0,L|418:77,1,68,2|0,0:0|3:0,0:0:0:0:
335,228,47105,2,0,L|427:244,1,68,12|0,0:1|0:0,0:0:0:0:
189,30,47439,6,0,P|157:70|168:127,2,102,6|10|2,3:1|0:3|0:0,0:0:0:0:
210,195,48105,6,0,P|152:149|79:179,1,136,6|0,3:2|3:0,0:0:0:0:
254,283,48605,1,0,0:0:0:0:
210,195,48772,2,0,L|291:180,1,68,0|0,3:0|0:0,0:0:0:0:
116,275,49105,1,2,3:2:0:0:
127,294,49272,1,12,0:1:0:0:
241,352,49439,6,0,L|329:333,1,68,2|0,3:2|0:0,0:0:0:0:
469,269,49772,2,0,L|383:259,1,68,2|0,3:2|0:0,0:0:0:0:
210,195,50105,2,0,L|291:180,1,68,2|0,3:2|0:0,0:0:0:0:
436,111,50439,1,2,3:2:0:0:
444,128,50605,1,2,0:0:0:0:
349,16,50772,5,2,3:2:0:0:
331,118,50939,1,0,3:0:0:0:
225,94,51105,1,10,0:0:0:0:
57,259,51272,5,0,3:0:0:0:
88,154,51439,1,2,3:2:0:0:
200,185,51605,1,0,3:0:0:0:
359,338,51772,5,10,0:0:0:0:
387,229,51939,1,0,3:0:0:0:
359,338,52105,5,10,0:0:0:0:
416,122,52272,1,10,0:0:0:0:
443,21,52772,5,10,0:0:0:0:
359,338,52939,1,10,0:0:0:0:
56,55,53439,6,0,B|118:38|198:23,1,127.5,6|0,3:2|0:0,0:0:0:0:
181,30,53772,2,0,P|202:62|198:113,1,85,10|0,0:0|0:0,0:0:0:0:
102,200,54105,1,2,3:2:0:0:
320,73,54272,1,0,3:0:0:0:
346,224,54439,2,0,L|249:207,1,85,10|0,0:0|0:0,0:0:0:0:
47,124,54772,6,0,P|13:149|20:245,1,127.5,2|0,3:2|0:0,0:0:0:0:
7,228,55105,2,0,P|55:219|106:211,1,85,10|0,0:0|0:0,0:0:0:0:
240,331,55439,1,2,3:2:0:0:
165,141,55605,1,0,3:0:0:0:
268,214,55772,1,10,0:0:0:0:
268,214,55939,1,2,0:0:0:0:
440,101,56105,6,0,P|376:80|320:129,1,127.5,2|0,3:2|0:0,0:0:0:0:
329,110,56439,2,0,P|316:56|307:0,1,85,10|0,0:0|0:0,0:0:0:0:
362,307,56772,1,2,3:2:0:0:
208,111,56939,1,0,3:0:0:0:
184,230,57105,2,0,P|238:220|291:207,1,85,10|0,0:0|0:0,0:0:0:0:
512,178,57439,5,2,3:2:0:0:
328,134,57605,1,0,3:0:0:0:
432,117,57772,5,10,0:0:0:0:
267,213,57939,1,0,0:0:0:0:
328,134,58105,5,2,3:2:0:0:
289,311,58272,1,0,3:0:0:0:
267,213,58439,5,10,0:0:0:0:
377,363,58605,1,0,0:0:0:0:
147,206,58772,6,0,P|132:277|119:358,1,127.5,2|0,3:2|0:0,0:0:0:0:
122,331,59105,2,0,P|75:335|31:298,1,85,8|0,0:0|0:0,0:0:0:0:
267,213,59439,1,2,3:2:0:0:
101,83,59605,1,0,3:0:0:0:
206,44,59772,2,0,L|193:147,1,85,10|0,0:0|0:0,0:0:0:0:
423,123,60105,6,0,P|347:149|298:113,1,127.5,2|0,3:2|0:0,0:0:0:0:
309,128,60439,2,0,L|324:21,1,85,10|0,0:0|0:0,0:0:0:0:
327,305,60772,1,2,3:2:0:0:
196,128,60939,1,0,3:0:0:0:
116,244,61105,2,0,L|221:229,1,85,10|0,0:0|0:0,0:0:0:0:
27,83,61439,5,2,3:2:0:0:
103,155,61605,1,0,3:0:0:0:
124,48,61772,1,10,0:0:0:0:
124,48,61939,1,0,0:0:0:0:
323,83,62105,5,2,3:2:0:0:
200,231,62272,1,0,3:0:0:0:
124,48,62439,1,10,0:0:0:0:
124,48,62605,1,0,0:0:0:0:
290,234,62772,5,10,0:0:0:0:
323,83,62939,1,0,3:0:0:0:
394,227,63105,5,10,0:0:0:0:
415,131,63272,1,0,3:0:0:0:
497,219,63439,5,10,0:0:0:0:
504,176,63605,1,0,3:0:0:0:
306,160,63772,5,14,0:2:0:0:
408,332,63939,1,0,0:0:0:0:
506,93,64105,6,0,P|438:77|389:136,1,127.5,6|0,3:1|0:0,0:0:0:0:
397,110,64439,2,0,L|381:15,1,85,10|0,0:0|0:0,0:0:0:0:
298,241,64772,1,2,3:2:0:0:
172,74,64939,1,0,3:0:0:0:
144,174,65105,2,0,L|246:157,1,85,10|0,0:0|0:0,0:0:0:0:
448,356,65439,6,0,L|463:191,1,127.5,2|0,3:2|0:0,0:0:0:0:
459,229,65772,2,0,P|412:208|365:220,1,85,10|0,0:0|0:0,0:0:0:0:
298,240,66105,1,2,3:2:0:0:
474,101,66272,1,0,3:0:0:0:
384,36,66439,2,0,L|370:127,1,85,10|0,0:0|0:0,0:0:0:0:
133,107,66772,6,0,P|199:120|252:63,1,127.5,2|0,3:2|0:0,0:0:0:0:
243,85,67105,2,0,L|260:-19,1,85,10|0,0:0|0:0,0:0:0:0:
77,255,67439,2,0,P|132:211|197:240,1,127.5,2|0,3:2|0:0,0:0:0:0:
182,224,67772,2,0,L|164:332,1,85,10|0,0:0|0:0,0:0:0:0:
30,131,68105,5,2,3:2:0:0:
266,180,68272,1,0,3:0:0:0:
182,224,68439,1,8,0:0:0:0:
126,26,68605,6,0,L|135:135,1,85,2|0,0:0|3:0,0:0:0:0:
374,216,68939,1,0,3:0:0:0:
374,216,69105,2,0,L|388:125,1,85,10|0,0:0|0:0,0:0:0:0:
408,35,69439,6,0,P|338:-3|272:36,1,127.5,2|0,3:2|0:0,0:0:0:0:
296,10,69772,2,0,L|276:127,1,85,10|0,0:0|0:0,0:0:0:0:
219,319,70105,2,0,L|199:188,1,127.5,2|0,3:2|0:0,0:0:0:0:
199,192,70439,2,0,P|155:212|115:202,1,85,10|0,0:0|0:0,0:0:0:0:
374,216,70772,6,0,L|465:201,1,85,2|0,3:2|3:0,0:0:0:0:
343,301,71105,1,10,0:0:0:0:
410,126,71272,1,2,0:0:0:0:
285,229,71439,1,0,3:0:0:0:
374,216,71605,1,0,3:0:0:0:
316,141,71772,1,10,0:0:0:0:
434,292,71939,1,2,0:0:0:0:
208,367,72105,6,0,P|159:310|197:216,1,170,2|10,3:2|0:0,0:0:0:0:
92,381,72605,1,0,0:0:0:0:
183,225,72772,2,0,P|232:254|249:304,1,85,2|0,3:2|3:0,0:0:0:0:
69,37,73105,1,10,0:0:0:0:
241,127,73272,1,2,0:0:0:0:
164,46,73439,6,0,L|144:159,1,85,6|0,3:1|3:0,0:0:0:0:
417,216,73772,2,0,L|401:112,1,85,10|4,0:0|0:3,0:0:0:0:
74,288,74105,1,10,3:2:0:0:
93,283,74189,1,8,0:0:0:0:
111,278,74272,1,8,0:0:0:0:
130,273,74355,1,8,0:0:0:0:
145,267,74439,2,0,L|198:278,1,42.5,8|8,0:0|0:0,0:0:0:0:
278,200,74605,2,0,L|307:270,1,42.5,8|8,0:0|0:0,0:0:0:0:
417,216,74772,6,0,L|398:322,1,85,6|0,3:2|3:0,0:0:0:0:
111,182,75105,2,0,L|128:84,1,85,10|0,0:0|0:0,0:0:0:0:
435,81,75439,2,0,P|391:23|299:45,1,170,2|10,3:2|0:0,0:0:0:0:
464,166,75939,1,0,0:0:0:0:
304,39,76105,5,10,0:0:0:0:
290,213,76272,1,0,3:0:0:0:
300,125,76439,1,2,3:2:0:0:
430,355,76605,5,10,0:0:0:0:
404,185,76772,1,0,3:0:0:0:
416,268,76939,1,0,3:0:0:0:
173,181,77105,5,14,0:1:0:0:
155,348,77272,1,0,0:0:0:0:
167,268,77439,5,2,3:2:0:0:
167,268,77605,1,0,0:0:0:0:
252,196,77772,5,2,3:2:0:0:
265,185,77855,1,0,3:0:0:0:
281,180,77939,1,0,3:0:0:0:
297,184,78022,1,0,3:0:0:0:
309,195,78105,2,0,L|290:249,3,42.5,2|0|0|0,3:2|3:0|3:0|3:0,0:0:0:0:
415,232,78439,5,0,3:2:0:0:
412,202,78522,1,0,3:0:0:0:
409,172,78605,1,0,3:0:0:0:
406,142,78689,1,0,3:0:0:0:
405,112,78772,2,0,L|462:98,3,42.5,10|8|8|8,3:2|0:0|0:0|0:0,0:0:0:0:
278,95,79105,5,8,3:2:0:0:
304,60,79189,1,8,0:0:0:0:
350,50,79272,1,8,0:0:0:0:
387,68,79355,1,8,0:0:0:0:
405,112,79439,2,0,L|397:168,1,42.5,8|8,3:2|0:0,0:0:0:0:
328,252,79605,2,0,L|307:180,1,42.5,8|8,0:0|0:0,0:0:0:0:
238,161,79772,2,0,L|178:181,1,42.5,10|8,3:2|0:0,0:0:0:0:
126,231,79939,2,0,L|77:222,1,42.5,8|8,0:0|0:0,0:0:0:0:
25,38,80105,6,0,L|-2:214,1,170,6|10,3:2|0:0,0:0:0:0:
129,318,80605,1,0,0:0:0:0:
129,318,80772,2,0,L|34:304,1,85,2|0,3:2|3:0,0:0:0:0:
238,367,81105,2,0,P|263:320|257:271,1,85,10|0,0:0|0:0,0:0:0:0:
393,134,81439,6,0,P|298:125|263:209,1,170,2|10,3:2|0:0,0:0:0:0:
435,248,81939,1,0,0:0:0:0:
435,248,82105,2,0,L|335:230,1,85,2|0,3:2|3:0,0:0:0:0:
255,51,82439,2,0,L|347:34,1,85,10|0,0:0|0:0,0:0:0:0:
492,0,82772,6,0,L|465:187,1,170,2|10,3:2|0:0,0:0:0:0:
339,317,83272,1,0,0:0:0:0:
339,317,83439,2,0,L|354:213,1,85,2|0,3:2|3:0,0:0:0:0:
510,346,83772,2,0,P|477:368|422:370,1,85,10|2,0:0|0:0,0:0:0:0:
260,199,84105,6,0,P|339:132|420:172,1,170,2|8,3:2|0:0,0:0:0:0:
244,297,84605,1,0,0:0:0:0:
244,297,84772,2,0,L|150:281,1,85,2|0,3:2|3:0,0:0:0:0:
7,131,85105,2,0,L|109:112,1,85,8|0,0:0|0:0,0:0:0:0:
87,205,85439,5,2,3:2:0:0:
182,74,85605,1,0,3:0:0:0:
90,115,85772,1,8,0:0:0:0:
176,170,85939,1,0,0:0:0:0:
100,26,86105,1,2,3:2:0:0:
272,138,86272,5,8,0:0:0:0:
272,138,86355,1,8,0:0:0:0:
272,138,86439,1,8,0:3:0:0:
272,138,86522,1,8,0:0:0:0:
272,138,86605,1,6,3:2:0:0:
256,192,86772,12,0,88439,0:0:0:0:
