osu file format v14

[General]
AudioFilename: audio.mp3
AudioLeadIn: 0
PreviewTime: 52939
Countdown: 0
SampleSet: Soft
StackLeniency: 0.7
Mode: 0
LetterboxInBreaks: 0
WidescreenStoryboard: 1

[Editor]
DistanceSpacing: 0.7
BeatDivisor: 4
GridSize: 32
TimelineZoom: 1

[Metadata]
Title:Koukai no Uta (TV Size)
TitleUnicode:航海の唄 (TV Size)
Artist:Sayuri
ArtistUnicode:さユり
Creator:dkblaze
Version:Asuka_-'s Hard
Source:僕のヒーローアカデミア
Tags:Asuka_- season fourth 4 Boku no Hero Academia my Ending theme ed anime j pop jpop japanese
BeatmapID:2204227
BeatmapSetID:1054062

[Difficulty]
HPDrainRate:4.5
CircleSize:4
OverallDifficulty:6
ApproachRate:7.9
SliderMultiplier:1.3
SliderTickRate:1

[Events]
//Background and Video events
Video,-40,"video.mp4"
0,0,"BG.jpg",0,0
//Break Periods
//Storyboard Layer 0 (Background)
//Storyboard Layer 1 (Fail)
//Storyboard Layer 2 (Pass)
//Storyboard Layer 3 (Foreground)
//Storyboard Layer 4 (Overlay)
//Storyboard Sound Samples

[TimingPoints]
106,333.333333333333,4,2,3,75,1,0
8105,-100,4,2,1,75,0,0
8189,-100,4,2,3,75,0,0
8772,-100,4,2,1,75,0,0
8855,-100,4,2,3,75,0,0
10772,-125,4,2,3,60,0,0
21105,-100,4,2,3,60,0,0
21439,-125,4,2,3,65,0,0
32105,-125,4,2,3,70,0,0
33272,-125,4,2,1,70,0,0
33355,-125,4,2,3,70,0,0
34772,-125,4,2,1,70,0,0
34855,-125,4,2,3,70,0,0
35939,-125,4,2,1,70,0,0
36022,-125,4,2,3,70,0,0
37439,-125,4,2,1,70,0,0
37522,-125,4,2,3,70,0,0
38605,-125,4,2,1,70,0,0
38689,-125,4,2,3,70,0,0
40105,-125,4,2,1,70,0,0
40189,-125,4,2,3,70,0,0
41272,-125,4,2,1,70,0,0
41355,-125,4,2,3,70,0,0
43939,-125,4,2,1,70,0,0
44022,-125,4,2,3,70,0,0
45439,-125,4,2,1,70,0,0
45522,-125,4,2,3,70,0,0
53439,-100,4,2,3,80,0,1
74772,-100,4,2,3,80,0,0
77772,-100,4,2,3,70,0,0
79022,-100,4,2,3,80,0,0
80105,-100,4,2,3,80,0,1
86605,-100,4,2,3,80,0,0
88439,-100,4,2,3,5,0,0

[Colours]
Combo1 : 176,209,249
Combo2 : 27,122,105
Combo3 : 130,227,210
Combo4 : 88,125,222

[HitObjects]
450,361,106,6,0,P|443:305|434:213,1,130,6|10,3:2|0:0,0:0:0:0:
475,161,605,1,0,0:0:0:0:
475,161,772,2,0,P|423:203|347:180,1,130,2|10,3:2|0:0,0:0:0:0:
259,61,1439,6,0,L|240:196,1,130,2|10,3:2|0:0,0:0:0:0:
288,261,1939,1,0,0:0:0:0:
288,261,2105,2,0,P|257:273|216:268,1,65,2|0,3:2|3:0,0:0:0:0:
157,218,2439,1,10,0:0:0:0:
43,352,2772,6,0,P|36:293|24:208,1,130,2|10,3:2|0:0,0:0:0:0:
8,139,3272,1,2,0:0:0:0:
8,139,3439,2,0,P|74:100|134:128,1,130,2|10,3:2|0:0,0:0:0:0:
411,36,4105,6,0,L|395:112,1,65,2|0,3:2|3:0,0:0:0:0:
395,188,4439,2,0,P|365:181|327:144,1,65,10|0,0:0|0:0,0:0:0:0:
318,77,4772,2,0,P|266:66|210:123,1,130,2|10,3:2|0:0,0:0:0:0:
176,190,5272,1,0,0:0:0:0:
176,190,5439,6,0,L|188:328,1,130,2|10,3:2|0:0,0:0:0:0:
281,336,5939,1,0,0:0:0:0:
281,336,6105,2,0,L|265:185,1,130,2|10,3:2|0:0,0:0:0:0:
500,102,6772,6,0,P|447:140|380:116,1,130,2|10,3:2|0:0,0:0:0:0:
324,66,7272,1,0,0:0:0:0:
324,66,7439,2,0,P|283:69|257:88,1,65,2|2,3:2|3:2,0:0:0:0:
202,135,7772,2,0,P|168:135|134:113,1,65,10|2,0:0|0:0,0:0:0:0:
62,81,8105,6,0,L|72:219,1,130,2|14,3:2|0:0,0:0:0:0:
25,287,8605,1,0,0:0:0:0:
25,287,8772,2,0,P|52:298|95:295,1,65,2|2,3:2|3:2,0:0:0:0:
174,280,9105,2,0,L|165:335,3,32.5,8|8|8|8,0:0|0:0|0:0|0:0,0:0:0:0:
166,353,9439,5,14,0:1:0:0:
166,353,9605,1,14,0:1:0:0:
365,210,10105,5,14,0:1:0:0:
365,210,10272,1,14,0:1:0:0:
52,95,10772,6,0,P|110:104|155:71,1,104,6|2,3:2|0:0,0:0:0:0:
212,36,11272,1,2,0:0:0:0:
212,36,11439,2,0,L|198:163,1,104,2|2,0:0|0:0,0:0:0:0:
117,300,12105,6,0,L|103:175,1,104,2|2,0:0|0:0,0:0:0:0:
151,128,12605,1,2,0:0:0:0:
151,128,12772,2,0,P|181:129|208:145,1,52,2|0,0:0|0:0,0:0:0:0:
249,204,13105,1,2,0:0:0:0:
393,25,13439,6,0,L|377:139,1,104,2|0,0:0|0:0,0:0:0:0:
431,189,13939,1,2,0:0:0:0:
431,189,14105,2,0,L|413:314,1,104,2|0,0:0|0:0,0:0:0:0:
450,368,14605,1,2,0:0:0:0:
450,368,14772,6,0,P|408:339|336:354,1,104,2|2,0:0|0:0,0:0:0:0:
291,381,15272,1,2,0:0:0:0:
291,381,15439,1,2,0:0:0:0:
337,219,15772,1,10,0:0:0:0:
270,34,16105,5,2,3:2:0:0:
270,34,16272,1,0,3:0:0:0:
70,211,16772,2,0,L|58:98,2,104,2|2|2,0:0|0:0|0:0,0:0:0:0:
469,339,18105,1,2,0:0:0:0:
329,271,18439,1,2,0:0:0:0:
177,356,18772,6,0,P|150:291|173:243,1,104,2|0,0:0|0:0,0:0:0:0:
342,167,19439,2,0,L|327:286,1,104,2|0,0:0|0:0,0:0:0:0:
258,34,20105,1,2,3:2:0:0:
258,34,20272,2,0,L|331:21,1,52,0|0,3:0|3:0,0:0:0:0:
194,89,20605,1,10,0:0:0:0:
446,209,20939,1,10,0:1:0:0:
72,355,21439,6,0,L|64:239,1,104,6|2,3:2|3:2,0:0:0:0:
24,186,21939,1,2,0:0:0:0:
24,186,22105,2,0,P|73:211|128:191,1,104,2|2,3:2|3:2,0:0:0:0:
183,147,22605,1,2,0:0:0:0:
183,147,22772,6,0,B|196:96|196:96|159:44,2,104,2|2|2,3:2|3:2|3:2,0:0:0:0:
258,329,23772,1,2,3:2:0:0:
258,329,23939,1,8,0:0:0:0:
258,329,24105,6,0,L|383:315,1,104,2|0,3:2|3:0,0:0:0:0:
390,236,24605,1,2,0:0:0:0:
390,236,24772,2,0,L|274:225,1,104,2|0,3:2|3:0,0:0:0:0:
248,138,25272,1,2,0:0:0:0:
248,138,25439,6,0,L|371:121,2,104,2|2|2,3:2|3:2|3:2,0:0:0:0:
157,121,26272,1,0,0:0:0:0:
85,170,26439,2,0,P|71:137|75:101,1,52,2|10,3:2|0:0,0:0:0:0:
58,239,26772,6,0,P|118:208|154:219,1,104,2|0,3:2|3:0,0:0:0:0:
213,279,27272,1,0,0:0:0:0:
213,279,27439,2,0,L|199:353,1,52,2|0,3:2|0:0,0:0:0:0:
294,271,27772,2,0,L|283:341,1,52,2|2,3:2|0:0,0:0:0:0:
374,261,28105,6,0,L|359:380,1,104,2|0,3:2|3:0,0:0:0:0:
511,167,28772,1,2,3:2:0:0:
340,26,29105,1,10,0:0:0:0:
511,167,29439,6,0,P|464:191|401:167,1,104,2|0,3:2|3:0,0:0:0:0:
341,137,29939,2,0,P|309:142|281:155,1,52,8|0,0:0|3:0,0:0:0:0:
208,189,30272,2,0,L|222:78,1,104,2|0,0:0|0:0,0:0:0:0:
132,145,30772,6,0,L|115:256,1,104,10|0,3:2|3:0,0:0:0:0:
208,189,31272,1,8,0:0:0:0:
293,159,31439,2,0,L|278:280,1,104,0|14,3:0|0:0,0:0:0:0:
493,334,32105,6,0,P|463:347|423:351,1,52,6|2,3:2|0:0,0:0:0:0:
360,350,32439,2,0,L|366:286,1,52,10|2,0:0|0:0,0:0:0:0:
439,265,32772,1,2,3:2:0:0:
209,369,33105,1,10,0:0:0:0:
9,202,33439,6,0,L|16:265,1,52,2|2,0:0|3:2,0:0:0:0:
98,292,33772,2,0,P|129:288|157:268,1,52,10|2,0:0|0:0,0:0:0:0:
94,208,34105,1,2,3:2:0:0:
307,322,34439,1,10,0:0:0:0:
493,120,34772,6,0,L|434:133,1,52,2|2,3:2|0:0,0:0:0:0:
359,145,35105,1,10,0:0:0:0:
138,34,35439,6,0,L|211:42,1,52,2|2,3:2|3:2,0:0:0:0:
282,50,35772,1,10,0:0:0:0:
117,213,36105,6,0,L|107:148,1,52,2|2,0:0|3:2,0:0:0:0:
22,132,36439,2,0,L|33:202,1,52,10|0,0:0|0:0,0:0:0:0:
42,50,36772,2,0,P|118:49|147:20,1,104,2|8,3:2|0:0,0:0:0:0:
198,107,37272,1,2,0:0:0:0:
198,107,37439,6,0,P|252:75|307:92,1,104,2|8,3:2|0:0,0:0:0:0:
380,61,37939,1,2,0:0:0:0:
380,61,38105,2,0,L|367:174,1,104,2|8,3:2|0:0,0:0:0:0:
253,381,38772,6,0,L|239:255,1,104,2|8,0:0|0:0,0:0:0:0:
240,195,39272,1,2,0:0:0:0:
240,195,39439,2,0,P|275:199|301:218,1,52,2|0,3:2|3:0,0:0:0:0:
366,251,39772,2,0,P|397:247|416:235,1,52,10|2,0:0|0:0,0:0:0:0:
241,277,40105,6,0,L|124:266,1,104,2|8,3:2|0:0,0:0:0:0:
56,309,40605,1,2,0:0:0:0:
56,309,40772,2,0,P|46:276|51:238,1,52,0|10,3:0|0:0,0:0:0:0:
104,196,41105,1,2,3:2:0:0:
64,121,41272,1,10,0:0:0:0:
102,34,41439,6,0,L|-12:52,2,104,2|2|10,3:2|3:2|0:0,0:0:0:0:
64,121,42272,1,0,3:0:0:0:
104,196,42439,1,14,0:1:0:0:
444,76,42772,6,0,P|419:60|386:52,1,52,6|2,3:2|0:0,0:0:0:0:
310,28,43105,2,0,L|321:88,1,52,10|2,0:0|0:0,0:0:0:0:
381,140,43439,2,0,L|366:255,1,104,2|10,3:2|0:0,0:0:0:0:
419,320,43939,1,2,3:2:0:0:
419,320,44105,6,0,P|395:334|357:330,1,52,2|2,0:0|3:2,0:0:0:0:
288,358,44439,2,0,P|272:327|269:305,1,52,10|2,0:0|0:0,0:0:0:0:
217,244,44772,2,0,L|160:233,2,52,2|2|10,3:2|3:2|0:0,0:0:0:0:
180,324,45272,1,2,0:0:0:0:
180,324,45439,6,0,L|75:304,1,104,2|10,3:2|0:0,0:0:0:0:
4,356,45939,2,0,P|-14:296|19:244,1,104,2|0,0:0|3:0,0:0:0:0:
76,210,46439,1,10,0:0:0:0:
0,51,46772,6,0,L|117:32,1,104,2|12,0:0|0:1,0:0:0:0:
275,116,47439,6,0,B|240:98|240:98|187:111,2,78,6|10|2,3:1|0:3|0:0,0:0:0:0:
340,56,48105,6,0,P|364:99|349:168,1,104,6|0,3:2|3:0,0:0:0:0:
455,351,48772,1,0,3:0:0:0:
243,246,49105,1,2,3:2:0:0:
243,246,49272,1,12,0:1:0:0:
243,246,49439,6,0,P|269:241|308:228,1,52,2|0,3:2|0:0,0:0:0:0:
358,151,49772,2,0,L|237:136,2,104,2|2|2,3:2|3:2|3:2,0:0:0:0:
425,234,50605,1,2,0:0:0:0:
488,162,50772,6,0,L|475:93,1,52,2|0,3:2|3:0,0:0:0:0:
425,234,51105,2,0,L|414:305,1,52,10|0,0:0|3:0,0:0:0:0:
358,151,51439,2,0,L|343:85,1,52,2|0,3:2|3:0,0:0:0:0:
293,233,51772,2,0,L|281:299,1,52,10|0,0:0|3:0,0:0:0:0:
223,155,52105,5,10,0:0:0:0:
223,155,52272,1,10,0:0:0:0:
48,347,52772,5,10,0:0:0:0:
48,347,52939,1,10,0:0:0:0:
6,99,53439,6,0,P|77:92|149:81,1,130,6|10,3:2|0:0,0:0:0:0:
219,26,53939,1,0,0:0:0:0:
219,26,54105,2,0,P|237:60|231:113,1,65,2|0,3:2|3:0,0:0:0:0:
149,146,54439,2,0,L|133:77,1,65,10|0,0:0|0:0,0:0:0:0:
238,183,54772,6,0,P|309:172|389:159,1,130,2|10,3:2|0:0,0:0:0:0:
451,106,55272,1,0,0:0:0:0:
451,106,55438,2,0,P|469:140|463:193,1,65,2|0,3:2|3:0,0:0:0:0:
409,253,55772,1,10,0:0:0:0:
366,162,55939,1,2,0:0:0:0:
304,249,56105,6,0,P|238:256|194:195,1,130,2|10,3:2|0:0,0:0:0:0:
141,303,56605,1,0,0:0:0:0:
141,303,56772,2,0,L|60:311,1,65,2|0,3:2|3:0,0:0:0:0:
197,212,57105,2,0,L|284:201,1,65,10|0,0:0|0:0,0:0:0:0:
96,102,57439,6,0,B|73:157|73:157|102:239,2,130,2|10|2,3:2|0:0|3:2,0:0:0:0:
161,34,58272,1,0,3:0:0:0:
241,91,58439,2,0,P|260:58|260:18,1,65,10|0,0:0|0:0,0:0:0:0:
187,145,58772,6,0,L|340:124,1,130,2|8,3:2|0:0,0:0:0:0:
390,189,59272,1,0,0:0:0:0:
459,116,59439,2,0,P|450:80|417:43,1,65,2|0,3:2|3:0,0:0:0:0:
390,189,59772,2,0,L|383:271,1,65,10|0,0:0|0:0,0:0:0:0:
451,330,60105,6,0,B|407:360|407:360|321:345,2,130,2|10|2,3:2|0:0|3:2,0:0:0:0:
384,253,60939,1,0,3:0:0:0:
278,280,61105,2,0,L|261:196,1,65,10|0,0:0|0:0,0:0:0:0:
356,99,61439,6,0,L|342:180,1,65,2|0,3:2|3:0,0:0:0:0:
265,216,61772,2,0,L|246:127,1,65,10|0,0:0|0:0,0:0:0:0:
166,89,62105,2,0,L|152:170,1,65,2|0,3:2|3:0,0:0:0:0:
75,206,62438,2,0,L|52:113,1,65,10|0,0:0|0:0,0:0:0:0:
154,153,62772,5,10,0:0:0:0:
75,206,62939,1,0,3:0:0:0:
136,276,63105,2,0,L|118:346,1,65,10|0,0:0|3:0,0:0:0:0:
218,328,63439,1,10,0:0:0:0:
136,276,63605,1,0,3:0:0:0:
231,228,63772,2,0,L|319:241,1,65,14|0,0:2|0:0,0:0:0:0:
377,313,64105,6,0,B|398:235|398:235|370:166,1,130,6|10,3:1|0:0,0:0:0:0:
409,88,64605,1,0,0:0:0:0:
311,123,64772,2,0,L|227:113,1,65,2|0,3:2|3:0,0:0:0:0:
409,88,65105,2,0,L|494:79,1,65,10|0,0:0|0:0,0:0:0:0:
316,26,65439,6,0,L|183:13,1,130,2|10,3:2|0:0,0:0:0:0:
116,86,65939,1,0,0:0:0:0:
41,19,66105,2,0,P|24:47|19:92,1,65,2|0,3:2|3:0,0:0:0:0:
0,183,66439,2,0,L|88:161,1,65,10|0,0:0|0:0,0:0:0:0:
116,86,66772,6,0,L|210:104,1,65,2|0,3:2|3:0,0:0:0:0:
287,166,67105,2,0,L|153:201,2,130,10|2|10,0:0|3:2|0:0,0:0:0:0:
291,265,67939,1,0,0:0:0:0:
348,335,68105,6,0,P|383:287|368:211,1,130,2|8,3:2|0:0,0:0:0:0:
287,166,68605,2,0,L|299:89,1,65,2|0,0:0|3:0,0:0:0:0:
404,49,68939,1,0,3:0:0:0:
404,49,69105,2,0,L|390:131,1,65,10|0,0:0|0:0,0:0:0:0:
478,195,69439,6,0,L|493:104,1,65,2|0,3:2|3:0,0:0:0:0:
512,286,69772,2,0,P|468:295|439:284,1,65,10|0,0:0|0:0,0:0:0:0:
359,270,70105,2,0,L|346:344,1,65,2|0,3:2|3:0,0:0:0:0:
324,187,70439,2,0,P|368:177|407:193,1,65,10|0,0:0|0:0,0:0:0:0:
347,334,70772,6,0,P|296:343|235:278,1,130,2|10,3:2|0:0,0:0:0:0:
210,212,71272,1,2,0:0:0:0:
210,212,71439,2,0,P|172:220|130:226,1,65,0|0,3:0|3:0,0:0:0:0:
144,326,71772,1,10,0:0:0:0:
57,276,71939,1,2,0:0:0:0:
15,357,72105,6,0,L|-1:226,1,130,2|10,3:2|0:0,0:0:0:0:
26,133,72605,1,0,0:0:0:0:
26,133,72772,2,0,P|68:137|102:167,1,65,2|0,3:2|3:0,0:0:0:0:
146,224,73105,1,10,0:0:0:0:
208,153,73272,1,2,0:0:0:0:
265,232,73439,6,0,L|256:317,1,65,6|0,3:1|3:0,0:0:0:0:
208,153,73772,2,0,L|197:88,1,65,10|4,0:0|0:3,0:0:0:0:
261,13,74105,1,10,3:2:0:0:
339,82,74272,1,8,0:0:0:0:
339,82,74355,1,8,0:0:0:0:
339,82,74439,2,0,L|383:71,3,32.5,8|8|8|8,0:0|0:0|0:0|0:0,0:0:0:0:
405,64,74772,6,0,L|389:198,1,130,6|10,3:2|0:0,0:0:0:0:
451,251,75272,2,0,P|378:228|329:279,1,130,2|0,0:0|3:0,0:0:0:0:
280,329,75772,1,10,0:0:0:0:
368,357,75939,1,0,0:0:0:0:
341,253,76105,6,0,L|336:178,1,65,10|0,0:0|3:0,0:0:0:0:
330,96,76439,1,2,3:2:0:0:
239,199,76605,2,0,L|233:119,1,65,10|0,0:0|3:0,0:0:0:0:
228,43,76939,1,0,3:0:0:0:
138,151,77105,2,0,L|132:70,1,65,14|0,0:1|0:0,0:0:0:0:
239,199,77439,6,0,L|243:284,1,65,2|0,3:2|0:0,0:0:0:0:
171,338,77772,2,0,L|123:323,3,32.5,2|0|0|0,3:2|3:0|3:0|3:0,0:0:0:0:
98,333,78105,2,0,L|112:282,3,32.5,2|0|0|0,3:2|3:0|3:0|3:0,0:0:0:0:
94,260,78439,2,0,L|132:272,3,32.5,0|0|0|0,3:2|3:0|3:0|3:0,0:0:0:0:
180,264,78772,6,0,L|170:310,7,32.5,10|8|8|8|8|8|8|8,3:2|0:0|0:0|0:0|3:2|0:0|0:0|0:0,0:0:0:0:
214,313,79439,2,0,L|205:352,7,32.5,8|8|8|8|10|8|8|8,3:2|0:0|0:0|0:0|3:2|0:0|0:0|0:0,0:0:0:0:
248,349,80105,6,0,B|334:340|334:340|374:369,1,130,6|10,3:2|0:0,0:0:0:0:
415,284,80605,1,0,0:0:0:0:
485,356,80772,2,0,P|504:328|512:269,1,65,2|0,3:2|3:0,0:0:0:0:
483,202,81105,1,10,0:0:0:0:
415,284,81272,1,0,0:0:0:0:
373,184,81439,6,0,L|361:37,1,130,2|10,3:2|0:0,0:0:0:0:
285,138,81939,1,0,0:0:0:0:
285,138,82105,2,0,P|248:135|209:115,1,65,2|0,3:2|3:0,0:0:0:0:
161,49,82439,2,0,L|243:33,1,65,10|0,0:0|0:0,0:0:0:0:
80,10,82772,6,0,L|62:148,1,130,2|10,3:2|0:0,0:0:0:0:
0,210,83272,1,0,0:0:0:0:
28,296,83439,2,0,P|68:293|102:263,1,65,2|0,3:2|3:0,0:0:0:0:
131,194,83772,1,10,0:0:0:0:
63,138,83939,1,2,0:0:0:0:
88,280,84105,6,0,B|103:371|103:371|149:327,2,130,2|8|2,3:2|0:0|3:2,0:0:0:0:
131,194,84939,1,0,3:0:0:0:
201,256,85105,2,0,P|234:265|272:261,1,65,8|0,0:0|0:0,0:0:0:0:
347,214,85439,5,2,3:2:0:0:
410,287,85605,1,0,3:0:0:0:
347,214,85772,2,0,L|361:130,1,65,8|0,0:0|0:0,0:0:0:0:
433,80,86105,1,2,3:2:0:0:
337,25,86272,2,0,L|343:69,3,32.5,8|8|8|8,0:0|0:0|0:3|0:0,0:0:0:0:
320,14,86605,5,6,3:2:0:0:
256,192,86772,12,0,88439,0:0:0:0:
