osu file format v14

[General]
AudioFilename: audio.mp3
AudioLeadIn: 0
PreviewTime: 53349
Countdown: 0
SampleSet: Soft
StackLeniency: 0.7
Mode: 0
LetterboxInBreaks: 0
WidescreenStoryboard: 0

[Editor]
DistanceSpacing: 1
BeatDivisor: 4
GridSize: 32
TimelineZoom: 0.9000002

[Metadata]
Title:Koukai no Uta (TV Size)
TitleUnicode:航海の唄 (TV Size)
Artist:Sayuri
ArtistUnicode:さユり
Creator:Sotarks
Version:Plus Ultra
Source:僕のヒーローアカデミア
Tags:boku no my hero academia heroaca season four 4 ending ed japanese female vocalist reform kujinn kowari ren derandom otaku anime
BeatmapID:2216530
BeatmapSetID:1058293

[Difficulty]
HPDrainRate:6.2
CircleSize:3.8
OverallDifficulty:9
ApproachRate:9.2
SliderMultiplier:1.82
SliderTickRate:1

[Events]
//Background and Video events
0,0,"bg.jpg",0,0
Video,-40,"video.mp4"
//Break Periods
//Storyboard Layer 0 (Background)
//Storyboard Layer 1 (Fail)
//Storyboard Layer 2 (Pass)
//Storyboard Layer 3 (Foreground)
//Storyboard Layer 4 (Overlay)
//Storyboard Sound Samples

[TimingPoints]
100,333.333333333333,4,2,22,82,1,0
100,-98.0392156862745,4,2,22,82,0,0
10266,-312.5,4,2,22,82,0,0
10682,-312.5,4,2,22,5,0,0
10683,-312.5,4,2,22,5,0,0
10766,-121.951219512195,4,2,22,62,0,0
15766,-238.095238095238,4,2,22,62,0,0
16015,-238.095238095238,4,2,22,5,0,0
16016,-238.095238095238,4,2,22,5,0,0
16099,-121.951219512195,4,2,22,62,0,0
20933,-238.095238095238,4,2,22,62,0,0
21349,-238.095238095238,4,2,22,5,0,0
21433,-121.951219512195,4,2,22,72,0,0
32099,-108.695652173913,4,2,22,82,0,0
52933,-312.5,4,2,22,82,0,0
53349,-312.5,4,2,22,5,0,0
53433,-89.2857142857143,4,2,22,92,0,0
64349,-89.2857142857143,4,2,22,5,0,0
64433,-89.2857142857143,4,2,22,92,0,0
65683,-89.2857142857143,4,2,22,5,0,0
65766,-89.2857142857143,4,2,22,92,0,0
65767,-89.2857142857143,4,2,22,92,0,0
67016,-89.2857142857143,4,2,22,5,0,0
67099,-89.2857142857143,4,2,22,92,0,0
67100,-89.2857142857143,4,2,22,92,0,0
71016,-89.2857142857143,4,2,22,5,0,0
71099,-89.2857142857143,4,2,22,92,0,0
71100,-89.2857142857143,4,2,22,92,0,0
75349,-89.2857142857143,4,2,22,5,0,0
75433,-89.2857142857143,4,2,22,92,0,0
77683,-89.2857142857143,4,2,22,5,0,0
77766,-89.2857142857143,4,2,22,92,0,0
77767,-89.2857142857143,4,2,22,92,0,0
86599,-192.307692307692,4,2,22,92,0,0
88432,-192.307692307692,4,2,22,5,0,0
88433,-161.290322580645,4,2,22,5,0,0

[Colours]
Combo1 : 180,50,50
Combo2 : 92,169,119
Combo3 : 116,128,146

[HitObjects]
207,53,100,6,0,P|200:165|190:258,1,186.011281133057,6|8,1:2|0:0,2:0:0:0:
283,109,599,1,2,2:0:0:0:
132,191,766,1,2,1:2:0:0:
292,310,933,1,0,1:2:0:0:
236,194,1099,1,8,2:0:0:0:
151,346,1266,1,2,2:0:0:0:
335,231,1433,6,0,P|321:167|302:121,1,93.0056405665281,2|0,1:2|1:0,2:0:0:0:
211,278,1766,1,8,2:0:0:0:
403,171,1933,1,0,2:0:0:0:
233,73,2099,2,0,P|218:116|209:162,1,93.0056405665281,2|0,1:2|1:2,2:0:0:0:
152,39,2433,1,8,2:0:0:0:
290,238,2599,1,0,0:0:0:0:
444,46,2766,6,0,B|292:38|436:104|243:91,1,185.640001133057,2|8,1:2|0:0,2:0:0:0:
102,44,3266,1,2,2:0:0:0:
242,174,3433,1,2,1:2:0:0:
85,256,3599,1,0,1:0:0:0:
162,129,3766,1,8,2:0:0:0:
261,297,3933,1,2,2:0:0:0:
83,172,4099,6,0,P|69:103|80:62,1,93.0056405665281,2|0,1:2|1:0,2:0:0:0:
268,190,4433,1,8,2:0:0:0:
183,37,4599,1,0,2:0:0:0:
283,219,4766,2,0,P|286:265|272:309,1,93.0056405665281,2|0,1:2|1:0,2:0:0:0:
98,179,5099,2,0,P|84:110|95:69,1,93.0056405665281,8|0,2:0|0:0,2:0:0:0:
327,297,5433,6,0,P|379:250|354:131,1,186.011281133057,6|10,1:2|0:0,2:0:0:0:
210,244,5933,1,0,2:0:0:0:
319,61,6099,1,2,1:2:0:0:
201,124,6266,1,0,1:0:0:0:
327,297,6433,1,8,2:0:0:0:
274,180,6599,1,2,2:0:0:0:
169,335,6766,6,0,P|100:312|81:285,1,93.0056405665281,2|0,1:2|1:0,2:0:0:0:
298,273,7099,1,10,2:0:0:0:
179,137,7266,1,0,2:0:0:0:
314,247,7433,2,0,P|318:189|330:126,1,93.0056405665281,2|0,1:2|1:0,2:0:0:0:
200,230,7766,1,8,2:0:0:0:
403,173,7933,1,2,2:0:0:0:
206,60,8099,6,0,P|108:81|91:178,1,186.011281133057,2|8,1:2|0:0,2:0:0:0:
212,319,8599,1,0,2:0:0:0:
284,153,8766,1,2,1:2:0:0:
115,244,8933,1,0,1:0:0:0:
352,201,9099,1,8,2:0:0:0:
368,158,9183,1,8,2:0:0:0:
359,113,9266,1,8,2:0:0:0:
329,79,9349,1,8,2:0:0:0:
285,65,9433,5,8,2:0:0:0:
332,319,9599,1,8,2:0:0:0:
179,18,10099,5,8,2:0:0:0:
86,359,10266,2,0,L|78:285,1,72.8,8|0,0:0|0:0,0:0:0:0:
50,265,10766,6,0,P|100:253|136:250,1,74.7692411386107,6|0,1:2|1:0,2:0:0:0:
202,225,11099,2,0,P|252:237|288:240,1,74.7692411386107,2|0,2:0|2:0,2:0:0:0:
319,318,11433,2,0,P|374:255|438:249,1,149.538482277222,2|2,2:0|2:0,2:0:0:0:
449,242,12099,2,0,P|437:183|435:144,1,74.7692411386107,2|0,2:0|2:0,2:0:0:0:
349,157,12433,2,0,P|361:98|363:59,1,74.7692411386107,2|0,2:0|2:0,2:0:0:0:
419,11,12766,2,0,P|339:48|263:55,1,149.538482277222,2|2,2:0|2:0,2:0:0:0:
247,84,13433,6,0,P|167:47|91:40,1,149.538482277222,2|0,2:0|2:0,2:0:0:0:
24,77,13933,1,2,2:0:0:0:
150,127,14099,2,0,P|76:138|10:171,1,149.538482277222,2|0,2:0|2:0,2:0:0:0:
119,209,14599,1,2,2:0:0:0:
63,272,14766,2,0,P|82:324|88:360,1,74.7692411386107,2|0,2:0|2:0,2:0:0:0:
163,381,15099,2,0,P|171:344|185:310,1,74.7692411386107,2|0,2:0|2:0,2:0:0:0:
257,365,15433,1,2,2:0:0:0:
145,76,15766,2,0,L|137:143,1,57.3299982504273,10|0,0:0|0:0,0:0:0:0:
166,150,16099,5,2,1:2:0:0:
166,150,16266,2,0,B|269:138|200:200|339:186,1,149.538482277222,0|0,1:0|2:0,2:0:0:0:
367,122,16766,2,0,P|380:186|384:210,1,74.7692411386107,2|0,2:0|2:0,2:0:0:0:
466,212,17099,2,0,P|453:276|449:300,1,74.7692411386107,2|0,2:0|2:0,2:0:0:0:
389,352,17433,2,0,P|336:297|252:329,1,149.538482277222,2|0,2:0|2:0,2:0:0:0:
212,367,17933,1,0,2:0:0:0:
134,327,18099,2,0,P|143:280|161:240,1,74.7692411386107,2|0,2:0|2:0,2:0:0:0:
245,232,18433,2,0,P|236:185|218:145,1,74.7692411386107,2|0,2:0|2:0,2:0:0:0:
149,87,18766,6,0,P|200:124|289:112,1,149.538482277222,2|0,2:0|2:0,2:0:0:0:
342,52,19266,1,0,2:0:0:0:
258,195,19433,2,0,P|309:158|398:170,1,149.538482277222,2|0,2:0|2:0,2:0:0:0:
462,234,19933,1,0,2:0:0:0:
286,325,20099,1,2,1:2:0:0:
366,246,20266,1,0,1:0:0:0:
405,349,20433,1,0,1:0:0:0:
258,195,20599,1,8,2:0:0:0:
243,214,20933,6,0,L|137:229,1,95.5499970840455,8|0,0:0|0:0,0:0:0:0:
137,183,21433,6,0,P|100:176|64:164,1,74.7692411386107,6|0,1:2|2:0,2:0:0:0:
157,75,21766,2,0,P|214:58|245:55,1,74.7692411386107,2|0,1:2|2:0,2:0:0:0:
311,140,22099,2,0,P|368:157|399:160,1,74.7692411386107,2|0,1:2|2:0,2:0:0:0:
465,80,22433,1,2,1:2:0:0:
465,80,22599,1,0,1:0:0:0:
397,235,22766,1,2,1:2:0:0:
347,70,22933,1,0,2:0:0:0:
463,174,23099,1,2,1:2:0:0:
340,297,23266,1,2,2:0:0:0:
224,193,23433,2,0,P|150:207|64:241,1,149.538482277222,2|2,1:2|1:2,2:0:0:0:
257,273,23933,1,8,2:0:0:0:
87,133,24099,6,0,P|151:57|218:73,1,149.538482277222,2|0,1:2|1:0,2:0:0:0:
303,134,24599,1,2,2:0:0:0:
203,226,24766,2,0,P|192:164|183:124,1,74.7692411386107,2|0,1:2|2:0,2:0:0:0:
354,221,25099,2,0,P|346:257|340:294,1,74.7692411386107,0|0,1:0|2:0,2:0:0:0:
171,344,25433,1,2,1:2:0:0:
210,189,25599,1,2,2:0:0:0:
354,221,25766,1,2,1:2:0:0:
315,376,25933,1,0,2:0:0:0:
263,271,26099,2,0,B|138:270|254:321|103:318,1,149.240002277222,2|2,1:2|1:2,2:0:0:0:
298,151,26599,1,8,2:0:0:0:
79,229,26766,6,0,P|60:126|99:90,2,149.314622277222,2|0|2,1:2|1:0|1:2,2:0:0:0:
209,291,27599,1,0,2:0:0:0:
230,151,27766,2,0,P|163:159|134:181,1,74.7692411386107,2|0,1:2|2:0,2:0:0:0:
313,251,28099,2,0,P|401:289|464:281,2,149.314622277222,2|0|2,1:2|1:0|1:2,2:0:0:0:
253,135,28933,1,0,2:0:0:0:
439,221,29099,1,10,2:0:0:0:
366,124,29266,1,0,2:0:0:0:
244,255,29433,6,0,B|123:264|222:210|77:217,1,149.240002277222,2|0,1:2|1:0,2:0:0:0:
228,341,29933,1,8,2:0:0:0:
149,141,30099,1,0,1:0:0:0:
49,285,30266,1,2,2:0:0:0:
103,73,30433,2,0,P|166:44|199:47,1,74.7692411386107,8|0,2:0|2:0,2:0:0:0:
298,264,30766,2,0,P|261:255|231:234,1,74.7692411386107,10|0,1:2|1:2,2:0:0:0:
333,89,31099,1,0,1:0:0:0:
417,315,31266,1,8,2:0:0:0:
244,140,31433,2,0,P|207:148|177:169,1,74.7692411386107,0|0,1:0|2:0,2:0:0:0:
102,368,31766,1,12,2:0:0:0:
90,351,32099,6,0,P|77:293|79:266,1,83.7218171895751,6|0,1:2|2:0,2:0:0:0:
247,353,32433,1,10,2:0:0:0:
163,165,32599,1,0,2:0:0:0:
345,284,32766,2,0,P|356:243|356:202,1,83.7218171895751,2|0,1:2|1:0,2:0:0:0:
201,250,33099,2,0,P|200:291|212:331,1,83.7218171895751,10|0,2:0|2:0,2:0:0:0:
273,160,33433,1,2,2:0:0:0:
119,235,33599,1,2,1:2:0:0:
186,384,33766,1,10,2:0:0:0:
340,309,33933,1,0,2:0:0:0:
201,250,34099,2,0,P|113:282|51:334,1,167.60743437915,2|10,1:2|2:0,2:0:0:0:
39,312,34766,6,0,P|34:255|24:216,1,83.7218171895751,6|2,1:2|2:0,2:0:0:0:
184,57,35099,2,0,P|172:144|172:256,1,167.498234379151,10|2,2:0|1:2,2:0:0:0:
94,72,35599,1,2,1:2:0:0:
245,213,35766,2,0,P|234:159|231:113,1,83.7218171895751,10|0,2:0|2:0,2:0:0:0:
105,273,36099,1,2,2:0:0:0:
298,339,36266,1,0,1:0:0:0:
120,182,36433,2,0,P|59:204|38:227,1,83.7218171895751,10|0,2:0|2:0,2:0:0:0:
236,308,36766,2,0,P|297:286|318:263,1,83.7218171895751,2|0,1:2|1:0,2:0:0:0:
314,83,37099,1,8,2:0:0:0:
245,213,37266,1,2,2:0:0:0:
406,83,37433,6,0,P|345:10|254:28,1,167.498234379151,4|8,1:2|2:0,2:0:0:0:
365,215,37933,1,2,2:0:0:0:
218,100,38099,2,0,B|92:101|200:154|55:158,1,167.439994379151,2|8,1:2|0:0,2:0:0:0:
192,257,38599,1,0,2:0:0:0:
45,70,38766,2,0,P|41:154|21:256,1,167.498234379151,0|8,1:2|0:0,2:0:0:0:
138,95,39266,1,2,2:0:0:0:
86,284,39433,2,0,P|64:211|61:174,1,83.7218171895751,2|0,1:2|1:0,2:0:0:0:
203,279,39766,1,10,2:0:0:0:
274,144,39933,1,2,2:0:0:0:
151,219,40099,5,6,1:2:0:0:
287,295,40266,1,0,1:0:0:0:
191,152,40433,1,8,2:0:0:0:
147,336,40599,1,0,1:0:0:0:
314,222,40766,1,0,1:0:0:0:
112,153,40933,1,8,2:0:0:0:
274,335,41099,1,2,1:2:0:0:
226,83,41266,1,12,2:0:0:0:
100,274,41433,5,0,1:0:0:0:
286,177,41599,2,4,L|332:167,2,41.9691985947876,4|4|4,1:3|1:3|1:3,2:3:0:0:
115,52,41933,1,4,1:3:0:0:
115,52,42016,1,4,2:3:0:0:
115,52,42099,2,0,P|52:74|20:82,1,83.7218171895751,8|0,2:0|1:0,2:0:0:0:
251,259,42433,2,0,P|188:237|156:229,1,83.7218171895751,8|0,2:0|2:0,2:0:0:0:
342,85,42766,5,4,1:2:0:0:
397,258,42933,1,2,2:0:0:0:
239,161,43099,1,10,2:0:0:0:
184,334,43266,1,0,2:0:0:0:
374,180,43433,2,0,P|460:202|479:302,1,167.498234379151,2|8,1:2|0:0,2:0:0:0:
449,109,43933,1,4,2:0:0:0:
283,274,44099,1,2,1:2:0:0:
208,64,44266,1,0,1:0:0:0:
369,175,44433,1,10,2:0:0:0:
155,257,44599,1,0,2:0:0:0:
320,98,44766,1,2,1:2:0:0:
361,319,44933,1,2,1:2:0:0:
195,184,45099,1,10,2:0:0:0:
400,129,45266,1,2,2:0:0:0:
168,334,45433,6,0,P|88:320|68:230,1,167.498234379151,6|10,1:2|2:0,2:0:0:0:
195,47,45933,2,0,P|212:107|213:163,1,83.7218171895751,2|0,1:2|1:0,2:0:0:0:
155,257,46266,1,0,1:0:0:0:
365,144,46433,1,8,2:0:0:0:
107,192,46599,1,12,2:0:0:0:
279,81,46766,2,0,P|265:120|260:162,1,83.7218171895751,2|0,0:2|1:0,2:0:0:0:
370,257,47099,2,0,P|364:215|351:175,1,83.7218171895751,8|0,0:2|0:0,2:0:0:0:
297,360,47433,1,6,1:2:0:0:
446,314,47599,1,0,1:0:0:0:
446,314,47683,1,0,1:0:0:0:
446,314,47766,1,4,1:3:0:0:
282,220,47933,1,2,2:0:0:0:
435,163,48099,6,0,P|366:103|267:128,1,167.498234379151,6|0,1:2|1:0,2:0:0:0:
182,195,48599,1,0,2:0:0:0:
94,131,48766,2,0,P|86:79|94:39,1,83.7218171895751,0|0,1:0|2:0,2:0:0:0:
185,103,49099,1,2,1:2:0:0:
90,222,49266,1,12,2:0:0:0:
225,309,49433,2,0,P|306:292|413:266,1,167.498234379151,2|2,1:2|1:2,2:0:0:0:
240,207,49933,1,0,2:0:0:0:
366,75,50099,2,0,P|373:141|380:188,1,83.7218171895751,2|0,1:2|2:0,2:0:0:0:
159,108,50433,2,0,P|164:66|168:24,1,83.7218171895751,2|2,1:2|2:0,2:0:0:0:
294,141,50766,5,8,1:3:0:0:
134,262,50933,1,4,1:3:0:0:
239,74,51099,1,8,2:0:0:0:
282,302,51266,1,0,1:0:0:0:
94,197,51433,1,8,1:3:0:0:
320,68,51599,1,4,1:3:0:0:
178,323,51766,1,8,2:0:0:0:
168,24,51933,1,0,1:0:0:0:
389,220,52099,5,10,2:0:0:0:
32,336,52266,1,10,2:0:0:0:
466,253,52766,5,10,2:0:0:0:
43,131,52933,2,0,L|37:206,1,72.8,8|0,0:0|0:0,0:0:0:0:
50,234,53433,6,0,P|119:211|168:204,1,102.123841244141,6|0,1:2|2:0,2:0:0:0:
322,51,53766,2,0,P|272:40|224:23,1,102.123841244141,10|0,2:0|2:0,2:0:0:0:
296,257,54099,1,2,1:2:0:0:
212,119,54266,1,0,1:0:0:0:
97,294,54433,2,0,P|47:283|0:266,1,102.123841244141,10|0,2:0|2:0,2:0:0:0:
214,205,54766,5,2,1:2:0:0:
143,369,54933,1,0,1:0:0:0:
287,169,55099,1,10,2:0:0:0:
348,330,55266,1,0,2:0:0:0:
212,119,55433,1,2,1:2:0:0:
149,291,55599,1,0,1:0:0:0:
312,72,55766,1,8,2:0:0:0:
377,244,55933,1,2,2:0:0:0:
181,35,56099,6,0,P|138:18|75:23,1,102.123841244141,2|0,1:2|1:0,2:0:0:0:
211,219,56433,2,0,P|261:222|308:204,1,102.123841244141,10|0,2:0|2:0,2:0:0:0:
401,43,56766,1,2,1:2:0:0:
252,137,56933,1,0,1:0:0:0:
406,262,57099,2,0,P|428:196|424:149,1,102.123841244141,10|0,2:0|2:0,2:0:0:0:
262,57,57433,5,2,1:2:0:0:
322,232,57599,1,0,1:0:0:0:
172,119,57766,1,10,2:0:0:0:
112,294,57933,1,0,2:0:0:0:
271,145,58099,1,2,1:2:0:0:
331,320,58266,1,0,1:0:0:0:
176,206,58433,1,10,2:0:0:0:
116,381,58599,1,0,2:0:0:0:
322,232,58766,6,0,B|489:224|339:295|525:287,1,204.247682488281,2|8,1:2|0:0,2:0:0:0:
391,140,59266,1,0,2:0:0:0:
428,323,59433,1,2,1:2:0:0:
487,128,59599,1,0,1:0:0:0:
331,320,59766,2,0,P|274:314|238:280,1,102.123841244141,8|0,2:0|2:0,2:0:0:0:
173,57,60099,6,0,P|116:63|80:97,1,102.123841244141,2|0,1:2|1:2,2:0:0:0:
314,229,60433,2,0,P|322:154|337:96,1,102.123841244141,8|0,2:0|2:0,2:0:0:0:
122,184,60766,2,0,P|131:234|135:284,1,102.123841244141,2|0,1:2|1:0,2:0:0:0:
313,48,61099,2,0,P|370:54|406:88,1,102.123841244141,10|0,2:0|2:0,2:0:0:0:
420,309,61433,6,0,P|407:238|405:187,1,102.123841244141,2|0,1:2|1:0,2:0:0:0:
180,116,61766,2,0,P|175:166|165:216,1,102.123841244141,10|0,2:0|2:0,2:0:0:0:
343,161,62099,2,0,P|382:129|432:126,1,102.123841244141,2|0,1:2|1:0,2:0:0:0:
187,291,62433,2,0,P|136:288|97:256,1,102.123841244141,10|0,2:0|2:0,2:0:0:0:
313,48,62766,5,8,2:0:0:0:
355,331,62933,1,0,1:0:0:0:
69,100,63099,1,8,2:0:0:0:
111,383,63266,1,0,1:0:0:0:
295,32,63433,5,8,2:0:0:0:
337,315,63599,1,0,1:0:0:0:
93,367,63766,1,8,2:3:0:0:
51,84,63933,1,4,2:3:0:0:
300,232,64099,6,0,P|296:313|213:347,1,152.880001866211,4|0,1:2|0:0,2:0:0:0:
218,337,64433,2,0,P|201:281|215:228,1,102.123841244141,8|0,2:0|2:0,2:0:0:0:
332,101,64766,1,2,1:2:0:0:
162,166,64933,1,0,1:0:0:0:
395,160,65099,2,0,P|412:104|398:51,1,102.123841244141,10|0,2:0|2:0,2:0:0:0:
117,100,65433,6,0,P|79:165|110:243,1,152.880001866211,2|0,1:2|0:0,2:0:0:0:
125,252,65766,2,0,P|196:221|231:221,1,102.123841244141,10|0,2:0|2:0,2:0:0:0:
374,320,66099,1,2,1:2:0:0:
270,141,66266,1,0,1:0:0:0:
158,337,66433,2,0,P|107:329|63:305,1,102.123841244141,10|0,2:0|2:0,2:0:0:0:
368,148,66766,6,0,P|410:247|384:297,1,152.880001866211,2|0,1:2|0:0,2:0:0:0:
374,320,67099,2,0,P|359:272|359:216,1,102.123841244141,8|0,2:0|2:0,2:0:0:0:
395,60,67433,1,2,1:2:0:0:
271,225,67599,1,0,1:0:0:0:
473,117,67766,2,0,P|472:66|457:17,1,102.123841244141,10|0,2:0|2:0,2:0:0:0:
271,123,68099,6,0,B|108:115|251:195|66:180,1,204.247682488281,2|8,1:2|0:0,2:0:0:0:
245,47,68599,2,0,P|326:27|351:27,1,102.123841244141,2|0,2:0|1:0,2:0:0:0:
251,211,68933,1,0,1:0:0:0:
111,105,69099,2,0,P|30:85|5:85,1,102.123841244141,10|0,2:0|2:0,2:0:0:0:
209,281,69433,5,2,1:2:0:0:
190,127,69599,1,0,1:0:0:0:
122,323,69766,1,10,2:0:0:0:
251,211,69933,1,0,1:0:0:0:
265,366,70099,1,2,1:2:0:0:
134,243,70266,1,0,1:0:0:0:
312,298,70433,1,10,2:0:0:0:
206,314,70599,1,0,1:0:0:0:
350,205,70766,6,0,P|427:245|426:341,1,152.880001866211,2|0,1:2|0:0,2:0:0:0:
429,330,71099,1,10,2:0:0:0:
266,210,71266,1,2,2:0:0:0:
411,96,71433,2,0,P|435:165|435:215,1,102.123841244141,0|0,1:0|1:0,2:0:0:0:
229,133,71766,2,0,P|235:82|254:35,1,102.123841244141,10|0,2:0|2:0,2:0:0:0:
346,241,72099,5,2,1:2:0:0:
173,191,72266,1,0,1:0:0:0:
315,102,72433,1,8,2:0:0:0:
188,264,72599,1,0,1:0:0:0:
395,307,72766,1,0,1:0:0:0:
255,208,72933,1,0,1:0:0:0:
228,380,73099,1,10,2:0:0:0:
331,175,73266,1,2,1:2:0:0:
168,325,73433,6,0,P|98:313|28:307,1,102.123841244141,4|0,1:2|1:0,2:0:0:0:
2,269,73683,1,0,1:0:0:0:
2,269,73766,2,0,P|52:262|102:253,1,102.123841244141,8|0,1:2|1:0,2:0:0:0:
331,175,74099,1,8,2:0:0:0:
296,145,74183,1,8,2:0:0:0:
253,131,74266,1,8,2:0:0:0:
207,136,74349,1,8,2:0:0:0:
168,159,74433,1,10,2:0:0:0:
133,188,74516,1,8,2:0:0:0:
90,202,74599,1,8,2:0:0:0:
44,197,74683,1,8,2:0:0:0:
5,174,74766,6,0,P|3:125|-7:68,1,102.123841244141,6|0,1:2|1:0,2:0:0:0:
214,166,75099,2,0,P|201:268|202:335,1,152.880001866211,8|0,2:0|2:0,2:0:0:0:
212,347,75433,2,0,P|276:323|325:319,1,102.123841244141,0|0,1:0|1:0,2:0:0:0:
419,167,75766,2,0,P|368:158|321:139,1,102.123841244141,8|0,2:0|2:0,2:0:0:0:
426,284,76099,5,10,2:0:0:0:
377,69,76266,1,0,1:0:0:0:
241,233,76433,1,0,1:0:0:0:
476,106,76599,5,10,2:0:0:0:
269,129,76766,1,0,1:0:0:0:
443,250,76933,1,0,1:0:0:0:
261,44,77099,5,10,2:0:0:0:
228,301,77266,1,0,1:0:0:0:
448,147,77433,6,0,P|377:107|298:124,1,152.880001866211,6|0,1:2|2:0,2:0:0:0:
252,179,77766,1,2,1:2:0:0:
222,213,77849,1,0,3:0:0:0:
179,228,77933,1,0,3:0:0:0:
134,221,78016,1,0,3:0:0:0:
99,193,78099,5,2,1:2:0:0:
129,158,78183,1,0,3:0:0:0:
171,143,78266,1,0,3:0:0:0:
216,150,78349,1,0,3:0:0:0:
252,179,78433,5,2,1:2:0:0:
290,211,78516,1,0,3:0:0:0:
340,215,78599,1,0,3:0:0:0:
384,191,78683,1,0,3:0:0:0:
405,145,78766,5,2,1:2:0:0:
399,96,78849,1,0,3:0:0:0:
364,59,78933,1,0,3:0:0:0:
315,49,79016,1,0,3:2:0:0:
270,71,79099,6,0,L|256:138,1,51.3676806220701,8|8,2:0|3:2,2:0:0:0:
215,331,79266,2,0,L|225:281,1,51.3676806220701,8|8,3:2|3:2,2:0:0:0:
191,82,79433,6,0,L|177:149,1,51.3676806220701,8|8,2:0|3:2,2:0:0:0:
140,331,79599,2,0,L|150:281,1,51.3676806220701,8|8,2:0|2:0,2:0:0:0:
329,134,79766,5,10,2:0:0:0:
379,132,79849,1,8,2:0:0:0:
423,156,79933,1,10,2:0:0:0:
449,200,80016,1,8,2:0:0:0:
449,250,80099,6,0,P|369:276|334:264,1,102.123841244141,4|0,1:2|1:0,2:0:0:0:
235,137,80433,2,0,P|155:111|120:123,1,102.123841244141,8|0,2:0|2:0,2:0:0:0:
270,305,80766,1,0,1:0:0:0:
344,95,80933,1,0,1:0:0:0:
178,233,81099,1,10,2:0:0:0:
437,183,81266,1,2,2:0:0:0:
238,52,81433,5,0,1:0:0:0:
303,228,81599,1,0,1:0:0:0:
413,29,81766,1,8,2:0:0:0:
247,157,81933,1,0,2:0:0:0:
465,254,82099,1,0,1:0:0:0:
359,129,82266,1,0,1:0:0:0:
252,316,82433,2,0,P|180:306|151:268,1,102.123841244141,8|0,2:0|2:0,2:0:0:0:
232,51,82766,5,2,1:2:0:0:
338,207,82933,1,0,1:0:0:0:
148,159,83099,1,8,2:0:0:0:
330,55,83266,1,0,2:0:0:0:
185,229,83433,1,0,1:0:0:0:
236,18,83599,1,0,1:0:0:0:
354,230,83766,1,10,2:0:0:0:
165,83,83933,1,2,2:0:0:0:
146,317,84099,5,0,1:0:0:0:
329,154,84266,1,0,1:0:0:0:
75,279,84433,1,8,2:0:0:0:
350,353,84599,1,0,2:0:0:0:
113,189,84766,1,2,1:2:0:0:
375,91,84933,1,0,1:0:0:0:
219,351,85099,1,8,2:0:0:0:
245,64,85266,1,0,2:0:0:0:
350,353,85433,6,0,P|362:280|373:234,1,102.123841244141,2|0,1:2|1:0,2:0:0:0:
245,64,85766,2,0,P|255:113|263:164,1,102.123841244141,8|2,2:0|2:0,2:0:0:0:
219,351,86099,1,0,1:0:0:0:
354,70,86266,1,8,2:0:0:0:
394,40,86349,1,8,2:0:0:0:
443,46,86433,1,8,2:0:0:0:
475,84,86516,1,8,2:0:0:0:
473,133,86599,6,0,B|172:98|355:370|13:317,1,520.519996822998,12|0,2:0|2:0,2:0:0:0:
