osu file format v14

[General]
AudioFilename: audio.mp3
AudioLeadIn: 0
PreviewTime: 53149
Countdown: 0
SampleSet: Soft
StackLeniency: 0.7
Mode: 3
LetterboxInBreaks: 0
SpecialStyle: 0
WidescreenStoryboard: 1

[Editor]
DistanceSpacing: 0.8
BeatDivisor: 4
GridSize: 4
TimelineZoom: 2.5

[Metadata]
Title:Koukai no Uta (TV Size)
TitleUnicode:航海の唄 (TV Size)
Artist:Sayuri
ArtistUnicode:さユり
Creator:Onii_ue
Version:EZ
Source:僕のヒーローアカデミア
Tags:boku no my hero academia heroaca season four 4 ending ed anime j pop jpop japanese _Asha LLENN- KonGuuuu
BeatmapID:2237402
BeatmapSetID:1066763

[Difficulty]
HPDrainRate:6.5
CircleSize:4
OverallDifficulty:7
ApproachRate:5
SliderMultiplier:1.4
SliderTickRate:1

[Events]
//Background and Video events
0,0,"BG.jpg",0,0
Video,0,"video.mp4"
//Break Periods
//Storyboard Layer 0 (Background)
//Storyboard Layer 1 (Fail)
//Storyboard Layer 2 (Pass)
//Storyboard Layer 3 (Foreground)
//Storyboard Layer 4 (Overlay)
//Storyboard Sound Samples
Sample,483,0,"Ride.wav",50
Sample,816,0,"Ride.wav",50
Sample,1149,0,"Ride.wav",50
Sample,1483,0,"Ride.wav",50
Sample,1816,0,"Ride.wav",50
Sample,2149,0,"Ride.wav",50
Sample,2483,0,"Ride.wav",50
Sample,3149,0,"Ride.wav",50
Sample,3483,0,"Ride.wav",50
Sample,3816,0,"Ride.wav",50
Sample,4149,0,"Ride.wav",50
Sample,4483,0,"Ride.wav",50
Sample,4816,0,"Ride.wav",50
Sample,5149,0,"Ride.wav",50
Sample,5816,0,"Ride.wav",50
Sample,6149,0,"Ride.wav",50
Sample,6483,0,"Ride.wav",50
Sample,6816,0,"Ride.wav",50
Sample,7149,0,"Ride.wav",50
Sample,7483,0,"Ride.wav",50
Sample,7816,0,"Ride.wav",50
Sample,8816,0,"Ride.wav",50
Sample,9483,0,"Ride.wav",50
Sample,9649,0,"Ride.wav",50
Sample,10149,0,"Ride.wav",50
Sample,10316,0,"Ride.wav",50
Sample,31316,0,"Tom3.wav",40
Sample,42316,0,"Tom3.wav",40
Sample,50816,0,"Tom3.wav",40
Sample,50983,0,"Tom3.wav",40
Sample,51149,0,"Tom3.wav",40
Sample,51483,0,"Tom3.wav",40
Sample,51649,0,"Tom3.wav",40
Sample,51816,0,"Tom3.wav",40
Sample,53816,0,"Ride.wav",50
Sample,54149,0,"Ride.wav",50
Sample,54483,0,"Ride.wav",50
Sample,54816,0,"Ride.wav",50
Sample,55149,0,"Ride.wav",50
Sample,55483,0,"Ride.wav",50
Sample,55816,0,"Ride.wav",50
Sample,56149,0,"Ride.wav",50
Sample,56483,0,"Ride.wav",50
Sample,56816,0,"Ride.wav",50
Sample,57149,0,"Ride.wav",50
Sample,57483,0,"Ride.wav",50
Sample,57816,0,"Ride.wav",50
Sample,58149,0,"Ride.wav",50
Sample,58483,0,"Ride.wav",50
Sample,58816,0,"Ride.wav",50
Sample,59149,0,"Ride.wav",50
Sample,59483,0,"Ride.wav",50
Sample,59816,0,"Ride.wav",50
Sample,60149,0,"Ride.wav",50
Sample,60483,0,"Ride.wav",50
Sample,60816,0,"Ride.wav",50
Sample,61149,0,"Ride.wav",50
Sample,61483,0,"Ride.wav",50
Sample,61816,0,"Ride.wav",50
Sample,62149,0,"Ride.wav",50
Sample,62483,0,"Ride.wav",50
Sample,62816,0,"Ride.wav",50
Sample,63149,0,"Ride.wav",50
Sample,63483,0,"Ride.wav",50
Sample,64149,0,"Ride.wav",50
Sample,64483,0,"Ride.wav",50
Sample,64816,0,"Ride.wav",50
Sample,65149,0,"Ride.wav",50
Sample,65483,0,"Ride.wav",50
Sample,65816,0,"Ride.wav",50
Sample,66149,0,"Ride.wav",50
Sample,66483,0,"Ride.wav",50
Sample,66816,0,"Ride.wav",50
Sample,67149,0,"Ride.wav",50
Sample,67483,0,"Ride.wav",50
Sample,67816,0,"Ride.wav",50
Sample,68149,0,"Ride.wav",50
Sample,68483,0,"Ride.wav",50
Sample,68816,0,"Ride.wav",50
Sample,69149,0,"Ride.wav",50
Sample,69483,0,"Ride.wav",50
Sample,69816,0,"Ride.wav",50
Sample,70149,0,"Ride.wav",50
Sample,70483,0,"Ride.wav",50
Sample,70816,0,"Ride.wav",50
Sample,71149,0,"Ride.wav",50
Sample,71483,0,"Ride.wav",50
Sample,71816,0,"Ride.wav",50
Sample,72149,0,"Ride.wav",50
Sample,72483,0,"Ride.wav",50
Sample,72816,0,"Ride.wav",50
Sample,73149,0,"Ride.wav",50
Sample,73483,0,"Ride.wav",50
Sample,75149,0,"Ride.wav",50
Sample,75483,0,"Ride.wav",50
Sample,75816,0,"Ride.wav",50
Sample,76149,0,"Ride.wav",50
Sample,77149,0,"Ride.wav",50
Sample,80483,0,"Hat open.wav",50
Sample,80816,0,"Hat open.wav",50
Sample,81149,0,"Hat open.wav",50
Sample,81483,0,"Hat open.wav",50
Sample,81816,0,"Hat open.wav",50
Sample,82149,0,"Hat open.wav",50
Sample,82483,0,"Hat open.wav",50
Sample,82816,0,"Hat open.wav",50
Sample,83149,0,"Hat open.wav",50
Sample,83483,0,"Hat open.wav",50
Sample,83816,0,"Hat open.wav",50
Sample,84149,0,"Hat open.wav",50
Sample,84483,0,"Hat open.wav",50
Sample,84816,0,"Hat open.wav",50
Sample,85149,0,"Hat open.wav",50
Sample,85483,0,"Hat open.wav",50
Sample,85816,0,"Hat open.wav",50
Sample,86149,0,"Hat open.wav",50

[TimingPoints]
150,333.333333333333,4,3,1,50,1,0
53483,-100.0,4,3,1,50,0,1
77816,-100.0,4,3,1,30,0,1
78149,-100.0,4,3,1,35,0,1
78483,-100.0,4,3,1,40,0,1
78816,-100.0,4,3,1,45,0,1
79149,-100.0,4,3,1,50,0,1
86649,-100.0,4,3,1,50,0,0

[HitObjects]
320,192,150,1,2,0:0:0:0:
448,192,150,128,4,483:0:0:0:0:
64,192,483,1,8,0:0:0:0:
192,192,816,1,2,0:0:0:0:
320,192,983,1,2,0:0:0:0:
448,192,1149,1,8,0:0:0:0:
192,192,1483,1,2,0:0:0:0:
64,192,1649,1,2,0:0:0:0:
448,192,1816,1,8,0:0:0:0:
320,192,2149,1,2,0:0:0:0:
192,192,2316,1,2,0:0:0:0:
64,192,2483,1,8,0:0:0:0:
192,192,2816,1,2,0:0:0:0:
320,192,2816,128,0,3149:0:0:0:50:Ride.wav
448,192,3149,1,8,0:0:0:0:
192,192,3483,1,2,0:0:0:0:
64,192,3649,1,2,0:0:0:0:
320,192,3816,1,8,0:0:0:0:
448,192,4149,1,2,0:0:0:0:
192,192,4316,1,2,0:0:0:0:
64,192,4483,1,8,0:0:0:0:
320,192,4816,1,2,0:0:0:0:
448,192,4983,1,2,0:0:0:0:
192,192,5149,1,8,0:0:0:0:
64,192,5483,128,2,5816:0:0:0:0:
448,192,5483,1,0,0:0:0:50:Ride.wav
320,192,5816,1,8,0:0:0:0:
448,192,6149,1,2,0:0:0:0:
192,192,6316,1,2,0:0:0:0:
64,192,6483,1,8,0:0:0:0:
320,192,6816,1,2,0:0:0:0:
448,192,6983,1,2,0:0:0:0:
192,192,7149,1,8,0:0:0:0:
320,192,7483,1,2,0:0:0:0:
64,192,7649,1,2,0:0:0:0:
448,192,7816,1,8,0:0:0:0:
64,192,8149,1,2,0:0:0:0:
192,192,8149,128,0,8483:0:0:0:50:Ride.wav
320,192,8483,1,12,0:0:0:0:
448,192,8816,1,2,0:0:0:0:
64,192,8983,1,2,0:0:0:0:
320,192,9149,128,8,9483:0:0:0:0:
192,192,9483,1,8,0:0:0:0:
192,192,9649,1,8,0:0:0:0:
448,192,10149,1,8,0:0:0:0:
448,192,10316,1,8,0:0:0:0:
64,192,10816,1,4,0:0:0:0:
192,192,10816,1,2,0:0:0:0:
320,192,11149,1,0,0:0:0:0:
448,192,11483,1,0,0:0:0:0:
64,192,11816,1,0,0:0:0:0:
320,192,12149,1,0,0:0:0:0:
192,192,12483,1,0,0:0:0:0:
448,192,12816,1,0,0:0:0:0:
64,192,13149,1,0,0:0:0:0:
448,192,13483,1,0,0:0:0:0:
320,192,13816,1,0,0:0:0:0:
192,192,14149,1,0,0:0:0:0:
64,192,14483,1,0,0:0:0:0:
320,192,14816,1,0,0:0:0:0:
448,192,15149,1,0,0:0:0:0:
64,192,15483,1,0,0:0:0:0:
320,192,15816,1,8,0:0:0:0:
192,192,16149,1,2,0:0:0:0:
448,192,16316,1,2,0:0:0:0:
320,192,16816,128,0,17149:0:0:0:0:
192,192,17149,128,0,17483:0:0:0:0:
64,192,17483,128,0,17816:0:0:0:0:
192,192,18149,128,0,18483:0:0:0:0:
448,192,18483,128,0,18816:0:0:0:0:
320,192,18816,128,0,19483:0:0:0:0:
64,192,19483,128,0,20149:0:0:0:0:
448,192,20149,1,2,0:0:0:0:
192,192,20316,1,2,0:0:0:0:
320,192,20483,1,2,0:0:0:0:
64,192,20649,1,8,0:0:0:0:
448,192,20983,1,8,0:0:0:0:
64,192,21483,1,2,0:0:0:0:
192,192,21483,1,4,0:0:0:0:
320,192,21816,1,2,0:0:0:0:
64,192,22149,1,2,0:0:0:0:
448,192,22483,1,2,0:0:0:0:
320,192,22816,1,2,0:0:0:0:
192,192,23149,1,2,0:0:0:0:
64,192,23483,1,2,0:0:0:0:
448,192,23816,1,2,0:0:0:0:
192,192,23983,1,8,0:0:0:0:
320,192,24149,1,2,0:0:0:0:
64,192,24483,1,2,0:0:0:0:
192,192,24816,1,2,0:0:0:0:
448,192,25149,1,2,0:0:0:0:
320,192,25483,1,2,0:0:0:0:
64,192,25816,1,2,0:0:0:0:
448,192,26149,1,2,0:0:0:0:
192,192,26483,1,2,0:0:0:0:
320,192,26649,1,8,0:0:0:0:
64,192,26816,1,2,0:0:0:0:
448,192,27149,1,2,0:0:0:0:
192,192,27483,1,2,0:0:0:0:
320,192,27816,1,2,0:0:0:0:
64,192,28149,1,2,0:0:0:0:
448,192,28483,1,2,0:0:0:0:
192,192,28816,1,2,0:0:0:0:
64,192,29149,1,10,0:0:0:0:
320,192,29483,1,2,0:0:0:0:
448,192,29816,1,2,0:0:0:0:
192,192,29983,1,8,0:0:0:0:
64,192,30149,1,2,0:0:0:0:
320,192,30483,1,10,0:0:0:0:
64,192,30816,1,10,0:0:0:0:
192,192,30816,1,0,0:0:0:40:Tom3.wav
448,192,31149,1,2,0:0:0:0:
64,192,31316,1,8,0:0:0:0:
192,192,31483,1,2,0:0:0:0:
320,192,31816,1,8,0:0:0:0:
448,192,31816,1,4,0:0:0:0:
64,192,32149,1,2,0:0:0:0:
448,192,32149,1,4,0:0:0:0:
320,192,32483,1,8,0:0:0:0:
192,192,32816,1,2,0:0:0:0:
448,192,32983,1,2,0:0:0:0:
64,192,33149,1,8,0:0:0:0:
320,192,33316,1,2,0:0:0:0:
448,192,33316,1,4,0:0:0:0:
192,192,33649,1,2,0:0:0:0:
64,192,33816,1,8,0:0:0:0:
320,192,34149,1,2,0:0:0:0:
448,192,34316,1,2,0:0:0:0:
192,192,34483,1,8,0:0:0:0:
64,192,34816,1,2,0:0:0:0:
320,192,34816,1,4,0:0:0:0:
192,192,35149,1,8,0:0:0:0:
320,192,35483,1,2,0:0:0:0:
448,192,35649,1,2,0:0:0:0:
64,192,35816,1,8,0:0:0:0:
192,192,35983,1,2,0:0:0:0:
448,192,35983,1,4,0:0:0:0:
320,192,36316,1,2,0:0:0:0:
64,192,36483,1,8,0:0:0:0:
192,192,36816,1,2,0:0:0:0:
448,192,36983,1,2,0:0:0:0:
64,192,37149,1,8,0:0:0:0:
192,192,37483,1,2,0:0:0:0:
320,192,37483,1,4,0:0:0:0:
448,192,37816,1,8,0:0:0:0:
64,192,38149,1,2,0:0:0:0:
320,192,38316,1,2,0:0:0:0:
192,192,38483,1,8,0:0:0:0:
64,192,38649,1,2,0:0:0:0:
448,192,38649,1,4,0:0:0:0:
320,192,38983,1,2,0:0:0:0:
64,192,39149,1,8,0:0:0:0:
320,192,39483,1,2,0:0:0:0:
448,192,39649,1,2,0:0:0:0:
64,192,39816,1,8,0:0:0:0:
192,192,40149,1,6,0:0:0:0:
320,192,40316,1,2,0:0:0:0:
448,192,40483,1,8,0:0:0:0:
192,192,40816,1,2,0:0:0:0:
448,192,40983,1,8,0:0:0:0:
64,192,41149,1,2,0:0:0:0:
320,192,41316,1,8,0:0:0:0:
448,192,41316,1,4,0:0:0:0:
192,192,41816,1,2,0:0:0:0:
448,192,41983,1,0,0:0:0:40:Tom2.wav
64,192,42149,1,8,0:0:0:0:
320,192,42316,1,2,0:0:0:0:
64,192,42483,1,8,0:0:0:0:
448,192,42483,1,4,0:0:0:0:
192,192,42816,1,2,0:0:0:0:
320,192,42816,1,4,0:0:0:0:
64,192,43149,1,8,0:0:0:0:
448,192,43483,1,2,0:0:0:0:
320,192,43649,1,2,0:0:0:0:
64,192,43816,1,8,0:0:0:0:
192,192,43983,1,2,0:0:0:0:
448,192,43983,1,4,0:0:0:0:
320,192,44316,1,2,0:0:0:0:
64,192,44483,1,8,0:0:0:0:
320,192,44816,1,2,0:0:0:0:
192,192,44983,1,2,0:0:0:0:
448,192,45149,1,8,0:0:0:0:
64,192,45483,1,2,0:0:0:0:
192,192,45483,1,4,0:0:0:0:
320,192,45816,1,8,0:0:0:0:
192,192,46149,1,2,0:0:0:0:
448,192,46316,1,2,0:0:0:0:
64,192,46483,1,8,0:0:0:0:
192,192,46649,1,8,0:0:0:0:
320,192,46649,1,4,0:0:0:0:
448,192,46983,1,2,0:0:0:0:
64,192,47149,1,8,0:0:0:0:
192,192,47149,1,4,0:0:0:0:
320,192,47483,1,2,0:0:0:0:
448,192,47483,1,4,0:0:0:0:
64,192,47733,1,0,0:0:0:40:Tom3.wav
320,192,47983,1,0,0:0:0:0:
192,192,48149,1,2,0:0:0:0:
448,192,48149,1,4,0:0:0:0:
320,192,48483,1,2,0:0:0:0:
64,192,48816,1,2,0:0:0:0:
448,192,49149,1,2,0:0:0:0:
64,192,49316,1,12,0:0:0:0:
320,192,49483,1,2,0:0:0:0:
192,192,49816,1,2,0:0:0:0:
448,192,50149,1,2,0:0:0:0:
64,192,50483,1,2,0:0:0:0:
448,192,50816,1,2,0:0:0:0:
320,192,50983,1,2,0:0:0:0:
64,192,51149,1,10,0:0:0:0:
192,192,51483,1,2,0:0:0:0:
320,192,51649,1,2,0:0:0:0:
64,192,51816,1,10,0:0:0:0:
448,192,52149,1,8,0:0:0:0:
448,192,52316,1,8,0:0:0:0:
64,192,52816,1,8,0:0:0:0:
64,192,52983,1,8,0:0:0:0:
320,192,53483,128,2,53816:0:0:0:0:
448,192,53483,1,4,0:0:0:0:
192,192,53816,128,8,54149:0:0:0:0:
320,192,54149,1,2,0:0:0:0:
64,192,54316,1,2,0:0:0:0:
448,192,54483,1,8,0:0:0:0:
192,192,54816,1,2,0:0:0:0:
320,192,54983,1,2,0:0:0:0:
64,192,55149,1,8,0:0:0:0:
448,192,55483,1,2,0:0:0:0:
320,192,55649,1,2,0:0:0:0:
192,192,55816,1,8,0:0:0:0:
64,192,56149,1,2,0:0:0:0:
320,192,56316,1,2,0:0:0:0:
448,192,56483,1,8,0:0:0:0:
192,192,56816,1,2,0:0:0:0:
64,192,56983,1,2,0:0:0:0:
320,192,57149,1,8,0:0:0:0:
448,192,57483,1,2,0:0:0:0:
192,192,57649,1,2,0:0:0:0:
320,192,57816,1,8,0:0:0:0:
64,192,58149,1,2,0:0:0:0:
448,192,58316,1,2,0:0:0:0:
192,192,58483,1,8,0:0:0:0:
320,192,58816,1,2,0:0:0:0:
64,192,58983,1,2,0:0:0:0:
448,192,59149,1,8,0:0:0:0:
192,192,59483,1,2,0:0:0:0:
320,192,59649,1,2,0:0:0:0:
64,192,59816,1,8,0:0:0:0:
448,192,60149,1,2,0:0:0:0:
192,192,60316,1,2,0:0:0:0:
320,192,60483,1,8,0:0:0:0:
64,192,60816,1,2,0:0:0:0:
448,192,60983,1,2,0:0:0:0:
192,192,61149,1,8,0:0:0:0:
320,192,61483,1,2,0:0:0:0:
192,192,61649,1,2,0:0:0:0:
448,192,61816,1,8,0:0:0:0:
64,192,62149,1,2,0:0:0:0:
192,192,62316,1,2,0:0:0:0:
448,192,62483,128,8,62816:0:0:0:0:
320,192,62816,128,8,63149:0:0:0:0:
64,192,63149,1,8,0:0:0:0:
192,192,63483,128,8,63816:0:0:0:0:
64,192,63816,128,12,64149:0:0:0:0:
320,192,64149,1,2,0:0:0:0:
448,192,64316,1,2,0:0:0:0:
192,192,64483,1,8,0:0:0:0:
64,192,64816,1,2,0:0:0:0:
320,192,64983,1,2,0:0:0:0:
192,192,65149,1,8,0:0:0:0:
448,192,65483,1,2,0:0:0:0:
320,192,65649,1,2,0:0:0:0:
64,192,65816,1,8,0:0:0:0:
192,192,66149,1,2,0:0:0:0:
448,192,66316,1,2,0:0:0:0:
320,192,66483,1,8,0:0:0:0:
192,192,66816,1,2,0:0:0:0:
64,192,66983,1,2,0:0:0:0:
448,192,67149,1,8,0:0:0:0:
320,192,67483,1,2,0:0:0:0:
64,192,67649,1,2,0:0:0:0:
448,192,67816,1,8,0:0:0:0:
192,192,68149,1,2,0:0:0:0:
320,192,68316,1,2,0:0:0:0:
64,192,68483,1,8,0:0:0:0:
448,192,68816,1,2,0:0:0:0:
192,192,68983,1,2,0:0:0:0:
320,192,69149,1,8,0:0:0:0:
64,192,69483,1,2,0:0:0:0:
448,192,69649,1,2,0:0:0:0:
192,192,69816,1,8,0:0:0:0:
320,192,70149,1,2,0:0:0:0:
448,192,70316,1,2,0:0:0:0:
64,192,70483,1,8,0:0:0:0:
192,192,70816,1,2,0:0:0:0:
448,192,70983,1,2,0:0:0:0:
320,192,71149,1,8,0:0:0:0:
64,192,71483,1,2,0:0:0:0:
192,192,71649,1,2,0:0:0:0:
448,192,71816,1,8,0:0:0:0:
320,192,72149,1,2,0:0:0:0:
192,192,72316,1,2,0:0:0:0:
64,192,72483,1,8,0:0:0:0:
448,192,72816,1,2,0:0:0:0:
192,192,72983,1,2,0:0:0:0:
320,192,73149,1,8,0:0:0:0:
64,192,73483,1,2,0:0:0:0:
448,192,73649,1,2,0:0:0:0:
320,192,73816,1,8,0:0:0:0:
192,192,73983,1,2,0:0:0:0:
64,192,74149,128,8,74483:0:0:0:0:
192,192,74483,128,10,74816:0:0:0:0:
320,192,74816,1,6,0:0:0:0:
64,192,74983,1,2,0:0:0:0:
448,192,75149,1,8,0:0:0:0:
192,192,75483,1,2,0:0:0:0:
320,192,75649,1,2,0:0:0:0:
448,192,75816,1,8,0:0:0:0:
192,192,76149,1,8,0:0:0:0:
64,192,76316,1,2,0:0:0:0:
448,192,76483,1,2,0:0:0:0:
192,192,76649,1,8,0:0:0:0:
448,192,76983,1,2,0:0:0:0:
64,192,77149,1,8,0:0:0:0:
320,192,77483,128,2,77816:0:0:0:0:
192,192,77816,128,10,78149:0:0:0:0:
448,192,78149,128,10,78483:0:0:0:0:
320,192,78483,128,10,78816:0:0:0:0:
64,192,78816,128,10,79149:0:0:0:0:
192,192,79149,128,10,79483:0:0:0:0:
320,192,79483,128,10,79816:0:0:0:0:
448,192,79816,128,10,80149:0:0:0:0:
64,192,80149,1,2,0:0:0:0:
192,192,80149,1,4,0:0:0:0:
320,192,80483,1,8,0:0:0:0:
192,192,80816,1,2,0:0:0:0:
448,192,80983,1,2,0:0:0:0:
320,192,81149,1,8,0:0:0:0:
64,192,81483,1,2,0:0:0:0:
448,192,81649,1,2,0:0:0:0:
192,192,81816,1,8,0:0:0:0:
320,192,82149,1,2,0:0:0:0:
64,192,82316,1,2,0:0:0:0:
448,192,82483,1,8,0:0:0:0:
192,192,82816,1,2,0:0:0:0:
320,192,82983,1,2,0:0:0:0:
64,192,83149,1,8,0:0:0:0:
320,192,83483,1,2,0:0:0:0:
448,192,83649,1,2,0:0:0:0:
192,192,83816,1,8,0:0:0:0:
64,192,84149,1,2,0:0:0:0:
320,192,84316,1,2,0:0:0:0:
192,192,84483,1,8,0:0:0:0:
448,192,84816,1,2,0:0:0:0:
64,192,84983,1,2,0:0:0:0:
320,192,85149,1,8,0:0:0:0:
192,192,85483,1,2,0:0:0:0:
448,192,85649,1,2,0:0:0:0:
64,192,85816,1,8,0:0:0:0:
320,192,86149,1,2,0:0:0:0:
192,192,86316,128,8,86649:0:0:0:0:
64,192,86649,1,2,0:0:0:0:
448,192,86649,128,4,88483:0:0:0:0:
