osu file format v14

[General]
AudioFilename: audio.mp3
AudioLeadIn: 0
PreviewTime: 64987
Countdown: 0
SampleSet: Soft
StackLeniency: 0.7
Mode: 0
LetterboxInBreaks: 0
WidescreenStoryboard: 1

[Editor]
Bookmarks: 11820,22487,33153,43820,65153,86487,91820,102487,113153,123820,134487,145153,166487,171820,182487,185153,206487,219820,227820,249153,259820,270487
DistanceSpacing: 1
BeatDivisor: 2
GridSize: 32
TimelineZoom: 1.8

[Metadata]
Title:Koukai no Uta
TitleUnicode:航海の唄
Artist:Sayuri
ArtistUnicode:さユり
Creator:Seto Kousuke
Version:Normal Collab
Source:My Hero Academia
Tags:僕のヒーローアカデミア 4th Season 4thシーズン Boku no japanese anime full version melodic star riooo Ending payney faito
BeatmapID:2392932
BeatmapSetID:1105767

[Difficulty]
HPDrainRate:3
CircleSize:3
OverallDifficulty:4
ApproachRate:5
SliderMultiplier:1
SliderTickRate:1

[Events]
//Background and Video events
0,0,"Eri by riooo.jpg",0,0
//Break Periods
2,22712,26312
2,28212,30645
2,102487,103978
2,182712,183978
//Storyboard Layer 0 (Background)
//Storyboard Layer 1 (Fail)
//Storyboard Layer 2 (Pass)
//Storyboard Layer 3 (Foreground)
//Storyboard Layer 4 (Overlay)
//Storyboard Sound Samples

[TimingPoints]
1179,333.333333333333,4,2,1,70,1,0
22678,-100,4,2,2,45,0,0
33178,-100,4,2,2,55,0,0
42512,-100,4,2,1,60,0,0
43845,-100,4,2,1,65,0,0
59845,-100,4,2,1,55,0,0
63845,-100,4,2,1,65,0,0
65178,-100,4,2,1,75,0,1
91845,-100,4,2,1,75,0,0
105012,-100,4,2,1,65,0,0
105178,-100,4,2,2,50,0,0
113178,-100,4,3,1,65,0,0
123512,-100,4,2,1,65,0,0
145178,-100,4,2,1,75,0,1
171845,-100,4,2,1,65,0,0
226512,-100,4,2,1,75,0,0
227845,-100,4,2,1,55,0,0
228178,-100,4,2,1,80,0,1
259845,-100,4,2,1,80,0,0
279845,-100,4,2,1,50,0,0
280095,-100,4,2,1,50,0,0

[Colours]
Combo1 : 81,89,128
Combo2 : 193,125,162
Combo3 : 154,150,173
Combo4 : 248,31,106

[HitObjects]
178,38,9178,6,0,L|161:96,1,50,8|2,0:2|3:0,0:0:0:0:
310,117,9845,2,0,L|327:175,1,50,8|2,0:2|3:0,0:0:0:0:
185,222,10512,2,0,L|168:280,1,50,8|2,0:2|3:0,0:0:0:0:
294,354,11178,1,2,0:2:0:0:
462,245,11845,6,0,L|458:136,1,100,6|10,3:2|0:2,0:0:0:0:
470,96,12345,1,2,0:2:0:0:
470,96,12512,2,0,P|414:72|370:75,1,100,2|8,3:2|0:2,0:0:0:0:
299,138,13178,2,0,P|235:141|192:117,1,100,2|10,3:2|0:2,0:0:0:0:
164,95,13678,1,2,0:0:0:0:
164,95,13845,2,0,L|157:208,1,100,2|8,3:2|0:2,0:0:0:0:
134,292,14512,6,0,P|62:322|38:292,1,100,2|10,3:2|0:2,0:0:0:0:
22,276,15012,1,2,0:0:0:0:
22,276,15178,2,0,L|27:169,1,100,2|8,3:2|0:2,0:0:0:0:
53,79,15845,1,2,3:2:0:0:
142,123,16178,1,10,0:2:0:0:
227,69,16512,2,0,L|226:0,2,50,2|0|10,3:2|3:0|0:2,0:0:0:0:
301,134,17178,6,0,L|299:276,1,100,2|10,3:2|0:2,0:0:0:0:
274,277,17678,1,2,0:0:0:0:
274,277,17845,2,0,P|345:270|378:289,1,100,2|8,3:2|0:2,0:0:0:0:
461,318,18512,2,0,L|466:192,1,100,2|10,3:2|0:2,0:0:0:0:
484,171,19012,1,2,0:0:0:0:
484,171,19178,2,0,L|489:45,1,100,2|8,3:2|0:2,0:0:0:0:
396,29,19845,6,0,P|355:26|313:31,1,50,2|0,3:2|3:0,0:0:0:0:
303,52,20178,1,14,0:2:0:0:
219,107,20512,2,0,P|178:110|136:105,1,50,0|0,3:0|3:0,0:0:0:0:
126,84,20845,1,0,1:2:0:0:
47,145,21178,5,8,0:2:0:0:
47,145,21345,1,2,3:0:0:0:
44,298,21845,5,8,0:2:0:0:
44,298,22012,1,2,3:0:0:0:
185,348,22512,5,4,3:2:0:0:
407,152,27512,5,10,2:0:0:0:
313,117,27845,1,2,3:2:0:0:
313,117,28012,1,0,3:0:0:0:
199,272,31845,6,0,L|134:272,1,50,0|0,3:0|3:0,0:0:0:0:
104,294,32178,1,0,3:0:0:0:
104,294,32345,2,0,P|83:237|106:166,1,100,0|2,1:0|1:3,0:0:0:0:
195,94,33178,6,0,L|322:91,1,100,6|0,3:2|3:0,0:0:0:0:
342,74,33678,1,2,0:0:0:0:
342,74,33845,2,0,L|341:174,1,100,2|0,3:2|3:0,0:0:0:0:
286,258,34512,1,2,3:2:0:0:
352,332,34845,1,2,3:2:0:0:
407,248,35178,1,2,3:2:0:0:
341,173,35512,1,2,3:2:0:0:
286,258,35845,6,0,P|241:272|159:246,1,100,2|0,3:2|3:0,0:0:0:0:
143,266,36345,1,2,0:0:0:0:
143,266,36512,2,0,B|179:160|83:159|152:52,1,200,2|2,3:2|3:2,0:0:0:0:
214,6,37512,1,2,3:2:0:0:
290,70,37845,2,0,L|289:207,2,100,2|2|2,3:2|3:2|3:2,0:0:0:0:
487,40,39178,6,0,L|485:150,1,100,2|2,3:2|3:2,0:0:0:0:
505,238,39845,2,0,P|498:300|381:281,1,200,2|2,3:2|3:2,0:0:0:0:
326,212,40845,1,0,1:0:0:0:
260,287,41178,2,0,P|205:291|155:285,1,100,2|0,3:2|3:0,0:0:0:0:
113,269,41678,1,0,1:0:0:0:
113,269,41845,2,0,L|118:138,1,100,0|2,3:0|1:2,0:0:0:0:
189,99,42512,6,0,L|247:97,1,50,0|0,3:0|3:0,0:0:0:0:
275,131,42845,2,0,L|333:129,1,50,0|0,3:0|1:0,0:0:0:0:
357,91,43178,1,4,3:0:0:0:
435,153,43512,1,4,1:2:0:0:
420,251,43845,6,0,L|370:286,1,50,6|0,3:2|0:0,0:0:0:0:
359,325,44178,2,0,L|295:318,1,50,10|0,0:2|0:0,0:0:0:0:
273,284,44512,2,0,P|213:275|155:298,1,100,2|8,3:2|0:2,0:0:0:0:
134,314,45012,2,0,L|136:146,1,150,6|10,3:2|0:2,0:0:0:0:
71,87,45845,1,2,3:2:0:0:
136,11,46178,1,10,0:2:0:0:
200,87,46512,6,0,L|278:93,2,50,6|2|10,3:2|0:2|0:2,0:0:0:0:
135,164,47178,2,0,L|57:170,2,50,2|2|10,3:2|0:2|0:2,0:0:0:0:
220,215,47845,2,0,P|229:268|207:329,2,100,2|10|2,3:2|0:2|3:2,0:0:0:0:
242,170,48678,1,0,3:0:0:0:
242,170,48845,2,0,L|318:168,1,50,8|0,0:2|0:0,0:0:0:0:
333,196,49178,6,0,P|397:186|363:63,1,200,6|2,3:2|3:2,0:0:0:0:
310,15,50178,1,8,0:2:0:0:
252,97,50512,2,0,B|202:137|150:136|150:136|108:110|117:56,1,200,2|2,0:2|3:2,0:0:0:0:
26,14,51512,1,10,0:2:0:0:
13,113,51845,6,0,L|12:195,1,50,4|0,3:2|3:0,0:0:0:0:
40,204,52178,1,8,0:2:0:0:
40,204,52345,2,0,L|39:324,1,100,0|8,3:0|0:2,0:0:0:0:
122,359,53012,2,0,P|181:348|299:363,1,150,12|4,0:2|3:0,0:0:0:0:
354,299,53845,1,8,0:2:0:0:
441,348,54178,1,8,0:2:0:0:
505,271,54512,6,0,L|497:194,1,50,6|0,3:2|0:0,0:0:0:0:
451,208,54845,2,0,L|459:131,1,50,10|0,0:2|0:0,0:0:0:0:
485,117,55178,2,0,P|413:133|350:106,1,100,2|10,3:2|0:2,0:0:0:0:
350,95,55678,2,0,P|286:85|229:104,1,100,4|0,3:2|3:0,0:0:0:0:
217,128,56178,1,10,0:2:0:0:
134,70,56512,2,0,L|125:6,2,50,2|2|10,3:2|3:2|0:2,0:0:0:0:
91,96,57012,1,2,0:0:0:0:
91,96,57178,6,0,L|88:233,1,100,6|8,3:2|0:2,0:0:0:0:
60,237,57678,2,0,P|121:250|141:303,1,100,2|0,0:2|3:0,0:0:0:0:
133,328,58178,1,8,0:2:0:0:
133,328,58345,2,0,L|300:327,1,150,6|8,3:2|0:2,0:0:0:0:
361,265,59178,2,0,P|410:272|446:298,2,75,2|2|2,3:2|0:0|3:2,0:0:0:0:
319,236,59845,6,0,L|321:104,1,100,4|0,3:2|3:0,0:0:0:0:
260,56,60512,2,0,L|128:54,1,100,0|0,3:0|3:0,0:0:0:0:
120,33,61012,1,12,0:2:0:0:
120,33,61178,2,0,L|92:148,1,100,0|0,3:0|3:0,0:0:0:0:
83,229,61845,2,0,L|111:344,1,100,0|0,3:0|3:0,0:0:0:0:
206,330,62512,6,0,L|206:383,2,50,0|0|8,3:0|3:0|0:2,0:0:0:0:
276,259,63178,2,0,L|276:206,2,50,0|0|8,3:0|3:0|0:2,0:0:0:0:
350,333,63845,5,8,0:2:0:0:
350,333,64012,1,8,0:2:0:0:
476,250,64512,1,8,0:2:0:0:
476,250,64679,1,8,0:2:0:0:
354,163,65178,6,0,P|308:151|249:169,1,100,6|10,3:2|0:2,0:0:0:0:
258,263,65845,2,0,P|310:276|357:262,1,100,2|10,3:2|0:2,0:0:0:0:
402,291,66345,1,2,0:0:0:0:
402,291,66512,2,0,P|452:249|464:196,1,100,2|10,3:2|0:2,0:0:0:0:
465,117,67178,2,0,P|444:72|403:43,1,100,2|10,3:2|0:2,0:0:0:0:
353,40,67678,1,2,0:0:0:0:
353,40,67845,6,0,L|217:39,1,100,2|10,3:2|0:2,0:0:0:0:
203,29,68345,1,2,0:2:0:0:
203,29,68512,2,0,P|216:79|208:141,1,100,2|8,3:2|0:2,0:0:0:0:
180,221,69178,1,2,3:2:0:0:
90,175,69512,1,10,0:2:0:0:
37,260,69845,2,0,P|17:312|53:364,1,100,2|10,3:2|0:2,0:0:0:0:
131,374,70512,6,0,B|225:404|228:325|343:376,1,200,2|2,3:2|3:2,0:0:0:0:
389,291,71512,1,8,0:2:0:0:
328,211,71845,2,0,P|325:151|339:89,1,100,2|8,3:2|0:2,0:0:0:0:
431,99,72512,2,0,P|434:159|420:221,1,100,2|8,3:2|0:2,0:0:0:0:
389,291,73178,6,0,L|398:370,2,50,2|0|10,3:2|3:0|0:2,0:0:0:0:
289,302,73845,2,0,L|280:381,2,50,2|0|10,3:2|3:0|0:2,0:0:0:0:
328,211,74512,1,8,0:2:0:0:
260,137,74845,1,8,0:2:0:0:
160,141,75178,1,8,0:2:0:0:
93,215,75512,2,0,L|91:287,1,50,12|0,0:2|0:0,0:0:0:0:
90,315,75845,6,0,P|145:307|201:327,1,100,2|10,3:2|0:2,0:0:0:0:
280,356,76512,1,2,3:2:0:0:
358,294,76845,1,10,0:2:0:0:
314,203,77178,2,0,L|206:188,1,100,0|10,3:0|0:2,0:0:0:0:
146,115,77845,2,0,L|84:122,2,50,0|0|10,3:0|3:0|0:2,0:0:0:0:
236,70,78512,2,0,L|344:85,1,100,2|10,3:2|0:2,0:0:0:0:
417,27,79178,1,2,3:2:0:0:
492,93,79512,1,10,0:2:0:0:
410,150,79845,6,0,P|397:221|436:325,2,150,2|2|10,3:2|3:2|0:2,0:0:0:0:
335,82,81178,2,0,P|242:80|218:85,1,100,0|10,3:0|0:2,0:0:0:0:
190,60,81678,1,0,0:0:0:0:
190,60,81845,2,0,L|183:192,1,100,0|10,3:0|0:2,0:0:0:0:
98,210,82512,2,0,P|62:262|93:319,1,100,0|10,3:0|0:2,0:0:0:0:
103,330,83012,1,2,0:2:0:0:
103,330,83178,2,0,L|241:333,1,100,2|10,3:2|0:2,0:0:0:0:
298,362,83845,6,0,P|374:326|364:199,1,200,0|0,3:0|3:0,0:0:0:0:
353,123,84845,2,0,L|276:123,1,50,10|0,0:2|0:0,0:0:0:0:
264,155,85178,2,0,P|202:159|157:146,1,100,0|2,3:0|1:2,0:0:0:0:
75,105,85845,2,0,L|31:187,1,50,0|0,1:0|1:0,0:0:0:0:
19,187,86178,2,0,L|63:269,1,50,0|0,1:0|1:0,0:0:0:0:
56,279,86512,6,0,P|149:261|254:298,1,200,4|0,3:2|3:0,0:0:0:0:
326,354,87512,1,8,0:2:0:0:
420,322,87845,2,0,P|458:247|439:164,2,150,8|8|8,0:2|0:2|0:2,0:0:0:0:
326,354,89178,1,0,3:0:0:0:
249,293,89512,1,0,1:0:0:0:
309,213,89845,6,0,L|308:153,1,50,0|0,1:0|1:0,0:0:0:0:
261,146,90178,2,0,L|262:86,1,50,0|0,1:0|1:0,0:0:0:0:
295,58,90512,2,0,P|209:106|142:12,1,200,8|8,1:2|1:2,0:0:0:0:
47,15,91512,1,8,1:2:0:0:
24,112,91845,6,0,L|17:231,1,100,6|8,3:2|0:2,0:0:0:0:
71,296,92512,2,0,L|61:357,2,50,0|0|10,3:2|3:0|0:2,0:0:0:0:
148,232,93178,2,0,P|232:217|277:240,1,100,2|8,3:2|0:2,0:0:0:0:
333,264,93845,2,0,L|363:315,1,50,0|0,3:2|3:2,0:0:0:0:
373,354,94178,1,8,0:2:0:0:
469,327,94512,6,0,P|487:276|471:198,1,100,2|8,3:2|0:2,0:0:0:0:
457,134,95178,2,0,L|505:98,2,50,0|0|10,3:0|3:0|0:2,0:0:0:0:
361,165,95845,1,2,3:2:0:0:
291,95,96178,1,8,0:2:0:0:
221,166,96512,2,0,L|214:235,1,50,0|0,3:0|0:0,0:0:0:0:
230,263,96845,1,8,0:2:0:0:
133,289,97178,6,0,P|74:290|46:247,1,100,0|8,3:0|0:2,0:0:0:0:
29,215,97678,1,0,0:0:0:0:
29,215,97845,2,0,L|45:97,1,100,0|8,3:0|0:2,0:0:0:0:
104,37,98512,1,0,3:0:0:0:
182,98,98845,1,8,0:2:0:0:
260,35,99178,2,0,L|320:33,1,50,0|0,3:0|3:0,0:0:0:0:
354,56,99512,1,8,0:2:0:0:
405,141,99845,6,0,L|400:201,2,50,0|0|12,3:0|3:0|0:2,0:0:0:0:
502,118,100512,2,0,L|492:240,1,100,0|0,3:0|1:2,0:0:0:0:
429,294,101178,5,8,0:2:0:0:
429,294,101345,1,8,0:2:0:0:
283,296,101845,1,8,0:2:0:0:
283,296,102012,1,8,0:2:0:0:
191,104,105178,6,0,P|184:156|195:223,2,100,2|8|0,3:2|0:2|3:0,0:0:0:0:
284,68,106178,2,0,L|343:69,1,50,8|0,0:2|0:0,0:0:0:0:
378,92,106512,2,0,L|383:203,1,100,0|8,3:2|0:2,0:0:0:0:
449,266,107178,1,0,3:2:0:0:
367,324,107512,2,0,P|321:340|270:320,1,100,10|2,0:2|3:2,0:0:0:0:
176,303,108178,1,8,0:2:0:0:
85,345,108512,6,0,P|72:299|89:247,1,100,2|10,3:2|0:2,0:0:0:0:
167,192,109178,1,2,3:2:0:0:
94,122,109512,1,8,0:2:0:0:
160,47,109845,2,0,B|238:25|245:70|336:43,1,150,2|0,3:2|0:0,0:0:0:0:
345,83,110512,6,0,P|339:142|282:151,1,100,12|0,0:2|3:0,0:0:0:0:
257,146,111012,2,0,P|216:171|218:219,1,100,12|0,0:2|3:0,0:0:0:0:
253,252,111512,1,12,0:2:0:0:
328,317,111845,2,0,P|399:347|463:318,2,150,8|8|8,0:2|0:2|0:2,0:0:0:0:
394,241,113178,6,0,L|395:175,1,50,6|0,3:2|0:0,0:0:0:0:
430,155,113512,2,0,L|428:97,1,50,10|0,0:2|0:0,0:0:0:0:
400,63,113845,2,0,P|352:44|288:43,1,100,2|8,0:2|0:2,0:0:0:0:
229,107,114512,2,0,L|170:107,1,50,2|0,0:2|0:0,0:0:0:0:
157,61,114845,2,0,L|85:59,1,50,10|0,0:2|0:0,0:0:0:0:
62,83,115178,2,0,P|39:131|61:183,1,100,2|8,0:2|0:3,0:0:0:0:
137,226,115845,6,0,P|207:208|243:268,1,150,2|0,0:2|0:0,0:0:0:0:
256,313,116512,2,0,P|306:361|368:327,1,150,2|0,0:2|0:0,0:0:0:0:
401,290,117178,2,0,L|402:199,1,50,2|0,0:2|0:0,0:0:0:0:
365,204,117512,2,0,L|366:124,1,50,10|0,0:2|0:0,0:0:0:0:
406,125,117845,2,0,P|444:102|459:37,1,100,2|10,0:2|0:2,0:0:0:0:
373,22,118512,1,2,0:2:0:0:
267,128,119012,5,0,0:0:0:0:
267,128,119178,2,0,L|177:120,1,50,2|0,0:2|0:0,0:0:0:0:
186,163,119512,2,0,L|183:225,1,50,10|0,0:2|0:0,0:0:0:0:
199,260,119845,2,0,P|176:304|132:328,1,100,2|8,0:2|0:3,0:0:0:0:
95,234,120512,2,0,L|92:173,1,50,0|0,0:0|0:0,0:0:0:0:
73,137,120845,1,12,0:2:0:0:
140,63,121178,6,0,P|183:41|237:40,2,100,4|0|0,0:2|1:0|1:0,0:0:0:0:
140,163,122178,2,0,P|185:183|211:177,1,50,0|0,1:0|1:0,0:0:0:0:
234,191,122512,2,0,P|330:163|376:73,1,200,0|0,1:0|1:0,0:0:0:0:
285,34,123512,1,4,1:2:0:0:
195,77,123845,6,0,L|193:136,1,50,6|0,3:2|0:0,0:0:0:0:
162,166,124178,2,0,L|159:228,1,50,10|0,0:2|0:0,0:0:0:0:
177,262,124512,2,0,P|211:295|270:297,1,100,2|10,3:2|0:2,0:0:0:0:
357,328,125178,2,0,L|371:255,1,50,2|2,3:2|3:2,0:0:0:0:
416,274,125512,2,0,L|430:201,1,50,10|0,0:2|0:0,0:0:0:0:
405,179,125845,2,0,P|383:131|325:107,1,100,2|10,3:2|0:2,0:0:0:0:
258,57,126512,6,0,L|191:56,1,50,6|2,3:2|0:2,0:0:0:0:
165,28,126845,2,0,L|103:28,1,50,10|0,0:2|0:0,0:0:0:0:
83,66,127178,2,0,P|66:105|112:180,1,100,2|10,3:2|0:2,0:0:0:0:
179,136,127845,1,2,3:2:0:0:
271,174,128178,2,0,L|338:181,1,50,10|0,0:2|0:0,0:0:0:0:
367,198,128512,1,2,3:2:0:0:
353,297,128845,1,8,0:2:0:0:
258,329,129178,6,0,P|155:350|84:287,1,200,6|2,3:2|3:2,0:0:0:0:
48,201,130178,1,8,0:2:0:0:
124,135,130512,2,0,B|225:88|224:175|328:123,1,200,2|0,3:2|1:0,0:0:0:0:
400,72,131512,1,8,1:2:0:0:
448,159,131845,6,0,L|450:232,1,50,12|0,0:2|3:0,0:0:0:0:
438,257,132178,1,0,3:2:0:0:
438,257,132345,2,0,P|426:303|379:330,1,100,12|0,0:2|3:2,0:0:0:0:
333,329,132845,1,8,0:2:0:0:
333,329,133012,2,0,P|271:299|279:226,1,150,12|4,0:2|3:0,0:0:0:0:
287,127,133845,1,8,0:2:0:0:
384,149,134178,1,8,0:2:0:0:
435,62,134512,6,0,L|376:51,1,50,6|0,3:2|0:0,0:0:0:0:
341,29,134845,2,0,L|285:31,1,50,10|0,0:2|0:0,0:0:0:0:
246,52,135178,2,0,L|128:53,1,100,2|10,3:2|0:2,0:0:0:0:
98,36,135678,2,0,P|64:79|72:123,1,100,4|2,0:2|3:2,0:0:0:0:
100,161,136178,1,10,0:2:0:0:
43,242,136512,2,0,B|42:270|63:291|63:291|92:298|116:294,1,100,2|10,3:2|0:2,0:0:0:0:
150,320,137012,1,0,0:0:0:0:
150,320,137178,6,0,L|261:320,1,100,6|8,3:2|0:2,0:0:0:0:
295,340,137678,2,0,P|344:353|397:338,1,100,2|0,0:2|3:0,0:0:0:0:
411,296,138178,1,10,0:2:0:0:
457,207,138512,2,0,P|410:191|355:212,1,100,2|10,3:2|0:2,0:0:0:0:
294,277,139178,2,0,P|259:279|223:274,2,50,2|0|8,3:2|3:0|0:2,0:0:0:0:
300,177,139845,6,0,P|320:134|300:77,1,100,4|0,3:2|0:0,0:0:0:0:
276,45,140345,1,0,3:0:0:0:
276,45,140512,2,0,L|155:59,1,100,8|0,0:2|3:0,0:0:0:0:
98,118,141178,2,0,P|119:160|99:219,1,100,0|8,0:0|0:2,0:0:0:0:
40,284,141845,2,0,L|41:341,1,50,8|0,0:2|3:0,0:0:0:0:
88,350,142178,2,0,L|178:345,1,50,8|0,0:2|0:0,0:0:0:0:
178,317,142512,6,0,L|227:315,2,50,0|0|8,3:0|3:0|0:2,0:0:0:0:
188,217,143178,2,0,L|138:218,2,50,0|0|8,3:0|3:0|0:2,0:0:0:0:
178,121,143845,1,8,0:2:0:0:
178,121,144012,1,8,0:2:0:0:
317,60,144512,1,8,0:2:0:0:
317,60,144678,1,8,0:2:0:0:
168,39,145178,6,0,P|121:30|71:42,1,100,6|10,3:2|0:2,0:0:0:0:
72,142,145845,2,0,P|119:151|169:139,1,100,2|10,3:2|0:2,0:0:0:0:
215,119,146345,1,0,0:0:0:0:
215,119,146512,2,0,P|266:108|320:122,1,100,2|10,3:2|0:2,0:0:0:0:
392,176,147178,2,0,P|397:233|370:287,1,100,2|10,3:2|0:2,0:0:0:0:
360,317,147678,1,2,0:2:0:0:
360,317,147845,6,0,L|250:317,1,100,2|10,3:2|0:2,0:0:0:0:
220,347,148345,1,2,0:2:0:0:
220,347,148512,2,0,P|182:321|124:322,1,100,2|10,3:2|0:2,0:0:0:0:
31,337,149178,1,2,3:2:0:0:
66,243,149512,1,10,0:2:0:0:
163,222,149845,2,0,P|212:221|253:248,1,100,2|10,3:2|0:2,0:0:0:0:
334,306,150512,6,0,P|420:255|377:162,1,200,2|2,3:2|3:2,0:0:0:0:
308,122,151512,1,8,0:2:0:0:
218,166,151845,2,0,P|174:166|116:124,1,100,2|8,3:2|0:2,0:0:0:0:
141,39,152512,2,0,P|185:39|243:81,1,100,2|8,3:2|0:2,0:0:0:0:
324,107,153178,6,0,L|324:157,2,50,2|0|8,3:2|3:0|0:2,0:0:0:0:
420,78,153845,2,0,L|420:28,2,50,2|0|8,3:2|3:0|0:2,0:0:0:0:
467,166,154512,1,8,0:2:0:0:
418,253,154845,1,8,0:2:0:0:
319,269,155178,1,8,0:2:0:0:
238,209,155512,2,0,L|217:264,1,50,12|0,0:2|0:0,0:0:0:0:
192,297,155845,6,0,P|159:332|94:327,1,100,2|8,3:2|0:2,0:0:0:0:
29,273,156512,1,2,3:2:0:0:
109,213,156845,1,8,0:2:0:0:
48,133,157178,2,0,L|136:72,1,100,2|8,3:2|0:2,0:0:0:0:
224,110,157845,2,0,L|264:81,2,50,2|0|8,3:2|0:0|0:2,0:0:0:0:
239,209,158512,2,0,L|156:265,1,100,2|10,3:2|0:2,0:0:0:0:
240,320,159178,1,2,3:2:0:0:
326,269,159512,1,10,0:2:0:0:
334,169,159845,6,0,P|365:103|337:31,2,150,2|2|10,3:2|3:2|0:2,0:0:0:0:
262,238,161178,2,0,P|215:250|159:233,1,100,2|10,3:2|0:2,0:0:0:0:
118,222,161678,1,0,0:0:0:0:
118,222,161845,2,0,L|114:114,1,100,2|10,3:2|0:2,0:0:0:0:
55,41,162512,2,0,P|102:31|161:46,1,100,2|10,3:2|0:2,0:0:0:0:
192,70,163012,1,2,0:2:0:0:
192,70,163178,2,0,L|300:65,1,100,2|8,3:2|0:2,0:0:0:0:
307,164,163845,6,0,P|379:232|463:184,1,200,0|0,3:0|3:0,0:0:0:0:
471,92,164845,2,0,L|432:57,1,50,8|0,0:2|0:0,0:0:0:0:
386,40,165178,2,0,P|325:52|290:38,1,100,0|0,3:0|1:0,0:0:0:0:
197,74,165845,2,0,L|183:132,1,50,0|0,1:0|1:0,0:0:0:0:
202,169,166178,2,0,L|213:228,1,50,0|0,1:0|1:0,0:0:0:0:
256,240,166512,6,0,P|203:305|92:273,1,200,4|0,3:2|3:0,0:0:0:0:
87,183,167512,1,8,0:2:0:0:
17,111,167845,2,0,P|70:60|141:77,2,150,8|8|8,0:2|0:2|0:2,0:0:0:0:
87,183,169178,1,4,3:2:0:0:
181,151,169512,1,0,1:0:0:0:
278,174,169845,6,0,L|281:236,1,50,0|0,1:0|1:0,0:0:0:0:
265,271,170178,2,0,L|269:337,1,50,0|0,1:0|1:0,0:0:0:0:
315,339,170512,2,0,P|412:326|430:231,1,200,8|8,1:2|1:2,0:0:0:0:
389,147,171512,1,8,1:2:0:0:
458,76,171845,6,0,P|412:48|360:48,1,100,6|8,3:2|0:2,0:0:0:0:
329,80,172345,1,0,0:0:0:0:
329,80,172512,2,0,P|277:93|212:73,1,100,2|8,3:2|0:2,0:0:0:0:
141,41,173178,1,2,3:2:0:0:
60,100,173512,1,8,0:2:0:0:
146,149,173845,2,0,P|159:199|139:251,1,100,2|10,3:2|0:2,0:0:0:0:
52,203,174512,6,0,P|37:257|52:304,1,100,2|8,3:2|0:2,0:0:0:0:
90,325,175012,1,0,0:0:0:0:
90,325,175178,2,0,L|192:325,1,100,2|8,3:2|0:2,0:0:0:0:
277,276,175845,1,2,3:2:0:0:
358,333,176178,1,8,0:2:0:0:
429,263,176512,2,0,L|425:199,1,50,2|0,3:2|0:0,0:0:0:0:
392,175,176845,2,0,L|394:108,1,50,10|0,0:2|0:0,0:0:0:0:
354,93,177178,6,0,P|308:78|260:93,1,100,2|8,3:2|0:2,0:0:0:0:
235,136,177678,1,0,0:0:0:0:
235,136,177845,2,0,P|254:185|232:226,1,100,2|8,3:2|0:2,0:0:0:0:
146,273,178512,1,2,3:2:0:0:
59,222,178845,1,8,0:2:0:0:
146,173,179178,2,0,L|143:65,1,100,2|8,3:2|0:2,0:0:0:0:
239,44,179845,6,0,P|286:29|346:49,1,100,2|8,3:2|0:2,0:0:0:0:
379,63,180345,1,0,0:0:0:0:
379,63,180512,2,0,P|404:109|392:157,1,100,2|12,3:2|0:2,0:0:0:0:
355,245,181178,2,0,L|355:312,2,50,8|0|8,0:2|3:0|0:2,0:0:0:0:
279,180,181845,2,0,L|219:178,1,50,8|0,0:2|3:0,0:0:0:0:
187,205,182178,2,0,L|109:204,1,50,12|0,0:2|0:0,0:0:0:0:
91,182,182512,1,0,3:0:0:0:
365,46,185178,6,0,P|345:101|378:152,1,100,6|10,3:2|0:2,0:0:0:0:
451,177,185845,2,0,L|454:240,1,50,2|2,3:2|3:2,0:0:0:0:
415,260,186178,2,0,L|415:316,1,50,8|2,0:2|0:2,0:0:0:0:
373,338,186512,2,0,P|328:352|266:331,1,100,2|10,3:2|0:2,0:0:0:0:
234,314,187012,1,0,3:0:0:0:
234,314,187178,2,0,P|183:298|130:318,1,100,0|10,3:0|0:2,0:0:0:0:
43,337,187845,6,0,L|46:227,1,100,2|8,3:2|0:2,0:0:0:0:
42,136,188512,2,0,P|65:80|115:72,1,100,0|8,3:0|0:2,0:0:0:0:
137,161,189178,1,0,3:0:0:0:
216,99,189512,1,8,0:2:0:0:
231,197,189845,1,2,3:2:0:0:
305,129,190178,2,0,L|339:203,1,50,10|0,0:2|0:0,0:0:0:0:
355,214,190512,6,0,P|403:232|452:201,1,100,2|8,3:2|0:2,0:0:0:0:
495,125,191178,1,0,3:0:0:0:
439,41,191512,1,10,0:2:0:0:
339,34,191845,2,0,P|286:45|226:27,1,100,2|8,3:2|0:2,0:0:0:0:
192,28,192345,1,0,3:0:0:0:
192,28,192512,2,0,P|140:38|110:84,1,100,0|8,3:0|0:2,0:0:0:0:
78,167,193178,6,0,P|67:221|81:292,1,100,2|8,3:2|0:2,0:0:0:0:
161,310,193845,2,0,P|172:256|158:185,1,100,2|8,3:2|0:2,0:0:0:0:
160,162,194345,1,14,0:2:0:0:
160,162,194512,2,0,L|232:135,1,50,0|8,0:0|0:2,0:0:0:0:
248,172,194845,2,0,L|306:153,1,50,0|0,3:0|3:0,0:0:0:0:
333,123,195178,2,0,P|378:156|384:204,1,100,8|12,0:2|0:2,0:0:0:0:
367,295,195845,6,0,P|326:332|268:340,1,100,2|10,3:2|0:2,0:0:0:0:
221,262,196512,1,2,3:2:0:0:
187,299,196678,2,0,P|148:336|93:345,1,100,0|0,3:2|0:0,0:0:0:0:
54,349,197178,2,0,P|35:303|57:230,1,100,2|10,3:2|0:2,0:0:0:0:
77,219,197678,1,0,3:0:0:0:
77,219,197845,2,0,P|93:185|84:110,1,100,0|10,3:0|0:2,0:0:0:0:
49,32,198512,6,0,L|171:32,1,100,2|8,3:2|0:2,0:0:0:0:
242,67,199178,2,0,P|292:82|349:59,1,100,0|8,3:0|0:2,0:0:0:0:
429,31,199845,1,0,3:0:0:0:
471,121,200178,1,8,0:2:0:0:
379,162,200512,1,2,3:2:0:0:
425,252,200845,2,0,L|453:315,1,50,10|0,0:2|3:0,0:0:0:0:
468,342,201178,6,0,P|422:357|364:344,1,100,2|8,3:2|0:2,0:0:0:0:
287,294,201845,1,0,3:0:0:0:
309,196,202178,1,10,0:2:0:0:
230,135,202512,2,0,P|185:122|131:137,1,100,2|8,3:2|0:2,0:0:0:0:
94,164,203012,1,0,3:0:0:0:
94,164,203178,2,0,P|84:216|94:262,1,100,0|8,3:0|0:2,0:0:0:0:
43,347,203845,6,0,P|97:358|154:338,1,100,0|8,0:0|0:2,0:0:0:0:
182,320,204345,1,0,3:0:0:0:
182,320,204512,2,0,L|261:320,1,50,8|0,0:2|3:0,0:0:0:0:
275,345,204845,2,0,L|338:346,1,50,12|0,0:2|0:0,0:0:0:0:
365,316,205178,2,0,P|392:278|370:229,1,100,8|0,0:2|3:0,0:0:0:0:
329,209,205678,2,0,P|302:171|324:122,1,100,8|0,0:2|3:0,0:0:0:0:
361,97,206178,1,8,0:2:0:0:
281,35,206512,6,0,P|234:28|177:37,1,100,4|10,3:2|0:2,0:0:0:0:
136,55,207012,1,0,3:2:0:0:
136,55,207178,2,0,P|103:96|111:164,1,100,2|10,3:2|0:2,0:0:0:0:
36,218,207845,2,0,P|68:264|140:266,1,100,2|10,3:2|0:2,0:0:0:0:
157,265,208345,1,0,3:0:0:0:
157,265,208512,1,2,3:2:0:0:
244,313,208845,2,0,L|298:314,1,50,10|0,0:2|0:0,0:0:0:0:
336,340,209178,6,0,P|387:354|445:326,1,100,0|10,3:0|0:2,0:0:0:0:
463,302,209678,1,0,3:2:0:0:
463,302,209845,2,0,P|464:255|426:198,1,100,2|10,3:2|0:2,0:0:0:0:
491,124,210512,2,0,P|468:78|419:52,1,100,2|10,3:2|0:2,0:0:0:0:
379,39,211012,1,0,3:0:0:0:
379,39,211178,1,2,3:2:0:0:
281,61,211512,2,0,L|212:62,1,50,8|0,0:2|3:0,0:0:0:0:
200,102,211845,6,0,P|211:164|193:203,1,100,0|10,3:2|0:2,0:0:0:0:
176,242,212345,1,0,3:0:0:0:
176,242,212512,2,0,P|147:279|87:281,1,100,2|10,3:2|0:2,0:0:0:0:
42,200,213178,2,0,P|27:141|42:102,1,100,2|10,3:2|0:2,0:0:0:0:
58,61,213678,1,0,3:0:0:0:
58,61,213845,1,2,3:2:0:0:
157,73,214178,2,0,L|221:67,1,50,10|0,0:2|0:0,0:0:0:0:
248,39,214512,6,0,P|300:29|355:42,1,100,0|10,3:0|0:2,0:0:0:0:
387,65,215012,1,0,3:0:0:0:
387,65,215178,2,0,P|405:124|385:172,1,100,2|10,3:2|0:2,0:0:0:0:
294,145,215845,2,0,P|276:189|292:248,1,100,2|10,3:2|0:2,0:0:0:0:
316,278,216345,1,0,3:0:0:0:
316,278,216512,1,10,0:2:0:0:
399,332,216845,2,0,L|452:364,1,50,12|0,0:2|0:0,0:0:0:0:
479,324,217178,6,0,P|491:279|481:220,1,100,2|8,3:2|0:2,0:0:0:0:
461,129,217845,1,2,3:2:0:0:
384,64,218178,2,0,L|326:33,1,50,8|0,0:2|0:0,0:0:0:0:
290,49,218512,2,0,P|244:61|189:50,1,100,2|8,3:2|0:2,0:0:0:0:
149,39,219012,1,0,0:0:0:0:
149,39,219178,2,0,P|103:92|110:132,1,100,2|8,3:2|0:2,0:0:0:0:
151,206,219845,6,0,P|189:230|241:220,1,100,12|0,0:2|3:0,0:0:0:0:
277,186,220345,2,0,P|323:170|380:202,1,100,8|0,0:2|3:0,0:0:0:0:
384,235,220845,1,8,0:2:0:0:
330,319,221178,2,0,P|292:295|240:304,1,100,12|0,0:2|3:0,0:0:0:0:
205,340,221678,2,0,P|159:356|102:324,1,100,8|0,0:2|3:0,0:0:0:0:
89,293,222178,1,8,0:2:0:0:
48,200,222512,6,0,L|50:147,1,50,12|0,0:2|0:0,0:0:0:0:
87,116,222845,2,0,L|91:51,1,50,0|0,1:0|1:0,0:0:0:0:
133,40,223178,2,0,L|210:41,2,50,0|0|0,1:0|1:0|1:0,0:0:0:0:
184,125,223845,2,0,L|264:125,1,50,0|0,1:0|1:0,0:0:0:0:
270,159,224178,2,0,L|330:160,1,50,0|0,1:0|1:0,0:0:0:0:
360,130,224512,2,0,L|423:132,2,50,0|0|0,1:0|1:0|1:0,0:0:0:0:
405,219,225178,6,0,P|398:275|343:296,1,100,4|0,3:2|1:0,0:0:0:0:
283,235,225845,2,0,P|240:264|238:318,1,100,0|0,1:0|1:0,0:0:0:0:
326,348,226512,1,8,1:2:0:0:
326,348,226678,1,8,1:2:0:0:
435,245,227178,1,8,1:2:0:0:
435,245,227345,1,8,1:2:0:0:
263,63,228178,5,14,0:2:0:0:
309,151,228512,2,0,P|265:169|210:140,1,100,2|10,3:2|0:2,0:0:0:0:
180,117,229012,1,0,0:0:0:0:
180,117,229178,2,0,P|135:102|85:117,1,100,2|10,3:2|0:2,0:0:0:0:
45,207,229845,2,0,P|90:232|148:216,1,100,2|10,3:2|0:2,0:0:0:0:
183,208,230345,5,2,0:2:0:0:
183,208,230512,2,0,P|222:248|220:306,1,100,2|10,3:2|0:2,0:0:0:0:
210,337,231012,1,2,0:2:0:0:
210,337,231178,2,0,P|265:348|324:328,1,100,2|10,3:2|0:2,0:0:0:0:
398,298,231845,1,2,3:2:0:0:
467,226,232178,1,10,0:2:0:0:
412,142,232512,2,0,P|373:116|320:118,1,100,2|10,3:2|0:2,0:0:0:0:
242,178,233178,6,0,P|142:208|79:148,1,200,6|2,3:2|3:2,0:0:0:0:
83,48,234178,1,8,0:2:0:0:
182,34,234512,2,0,P|230:24|287:41,1,100,6|8,3:2|0:2,0:0:0:0:
334,119,235178,2,0,P|286:137|222:114,1,100,2|8,3:2|0:2,0:0:0:0:
141,107,235845,6,0,L|141:164,2,50,4|0|12,3:2|0:0|0:2,0:0:0:0:
40,106,236512,2,0,L|39:45,2,50,4|0|12,3:2|0:0|0:2,0:0:0:0:
41,205,237178,1,0,3:0:0:0:
101,285,237512,1,0,1:0:0:0:
198,305,237845,1,0,1:0:0:0:
293,277,238178,2,0,L|341:246,1,50,0|0,1:0|1:0,0:0:0:0:
384,257,238512,6,0,P|435:202|430:158,1,100,6|10,3:2|0:2,0:0:0:0:
347,134,239178,1,2,3:2:0:0:
272,201,239512,1,10,0:2:0:0:
172,201,239845,2,0,P|135:161|144:96,1,100,0|10,3:0|0:2,0:0:0:0:
212,56,240512,2,0,L|186:9,2,50,2|0|10,3:2|0:0|0:2,0:0:0:0:
307,29,241178,2,0,P|344:62|343:110,1,100,2|10,3:2|0:2,0:0:0:0:
287,192,241845,1,2,3:2:0:0:
362,259,242178,1,10,0:2:0:0:
283,321,242512,6,0,P|210:340|141:306,2,150,2|2|8,3:2|3:2|3:2,0:0:0:0:
214,247,243845,2,0,L|214:145,1,100,2|8,3:2|0:2,0:0:0:0:
184,106,244345,1,0,0:0:0:0:
184,106,244512,2,0,P|137:91|83:111,1,100,2|8,3:2|0:2,0:0:0:0:
36,189,245178,2,0,L|37:291,1,100,2|8,3:2|0:2,0:0:0:0:
62,332,245678,1,0,0:0:0:0:
62,332,245845,2,0,P|114:346|165:331,1,100,2|8,3:2|0:2,0:0:0:0:
239,276,246512,6,0,B|299:244|359:240|359:240|401:251|419:291,1,200,0|0,3:0|1:0,0:0:0:0:
329,335,247512,1,0,1:0:0:0:
232,361,247845,2,0,P|180:352|157:302,1,100,0|0,1:0|1:0,0:0:0:0:
159,213,248512,2,0,L|173:149,1,50,0|0,1:0|1:0,0:0:0:0:
215,144,248845,2,0,L|232:69,1,50,0|0,1:0|1:0,0:0:0:0:
264,63,249178,6,0,P|366:49|424:135,1,200,4|0,3:2|3:0,0:0:0:0:
325,145,250178,1,8,0:2:0:0:
396,215,250512,2,0,P|317:250|255:206,2,150,8|8|8,0:2|0:2|0:2,0:0:0:0:
325,145,251845,2,0,P|283:126|218:140,1,100,12|0,0:2|3:0,0:0:0:0:
146,186,252512,1,0,3:0:0:0:
79,111,252845,1,12,0:2:0:0:
147,37,253178,2,0,B|220:20|226:61|302:37,2,150,8|8|12,0:2|0:2|0:2,0:0:0:0:
79,111,254512,6,0,P|50:165|57:228,1,100,4|8,3:2|0:2,0:0:0:0:
77,244,255012,1,0,0:0:0:0:
77,244,255178,2,0,P|107:284|159:294,1,100,0|8,3:0|0:2,0:0:0:0:
205,208,255845,2,0,P|275:191|345:237,2,150,8|8|8,0:2|0:2|0:2,0:0:0:0:
249,297,257178,1,0,3:2:0:0:
344,325,257512,1,0,1:0:0:0:
438,292,257845,6,0,L|445:243,1,50,0|0,1:0|1:0,0:0:0:0:
480,207,258178,2,0,L|472:149,1,50,0|0,1:0|1:0,0:0:0:0:
450,112,258512,2,0,P|400:40|292:51,1,200,8|8,1:2|1:2,0:0:0:0:
220,112,259512,1,8,1:2:0:0:
286,186,259845,6,0,P|337:186|367:233,1,100,4|8,3:2|0:2,0:0:0:0:
342,268,260345,1,2,0:0:0:0:
342,268,260512,2,0,L|271:283,1,50,0|0,3:0|3:0,0:0:0:0:
243,272,260845,1,8,0:2:0:0:
146,293,261178,2,0,P|86:242|95:191,1,100,0|8,3:0|0:2,0:0:0:0:
64,186,261678,1,0,3:0:0:0:
64,186,261845,2,0,P|84:125|138:97,1,100,0|8,3:0|0:2,0:0:0:0:
190,43,262512,6,0,P|239:61|292:45,1,100,0|8,3:0|0:2,0:0:0:0:
332,38,263012,1,0,0:0:0:0:
332,38,263178,2,0,L|385:65,1,50,0|0,3:0|3:0,0:0:0:0:
385,110,263512,1,8,0:2:0:0:
457,179,263845,2,0,P|473:239|453:294,1,100,0|8,3:0|0:2,0:0:0:0:
435,317,264345,1,0,0:0:0:0:
435,317,264512,2,0,P|391:332|332:311,1,100,0|8,3:0|0:2,0:0:0:0:
297,227,265178,6,0,P|255:212|203:235,1,100,4|8,3:2|0:2,0:0:0:0:
175,271,265678,1,0,0:0:0:0:
175,271,265845,2,0,L|127:309,1,50,0|0,3:0|0:0,0:0:0:0:
97,334,266178,1,8,0:2:0:0:
23,267,266512,2,0,P|20:192|38:162,1,100,0|8,3:0|0:2,0:0:0:0:
80,141,267012,1,0,0:0:0:0:
80,141,267178,2,0,P|128:148|175:129,1,100,0|8,3:0|0:2,0:0:0:0:
244,57,267845,6,0,P|301:40|346:69,1,100,0|8,3:0|0:2,0:0:0:0:
354,102,268345,1,0,0:0:0:0:
354,102,268512,1,0,3:0:0:0:
347,201,268845,2,0,L|326:268,1,50,12|0,0:2|3:0,0:0:0:0:
314,292,269178,1,12,0:2:0:0:
397,346,269512,1,12,0:2:0:0:
473,281,269845,1,12,0:2:0:0:
438,187,270178,2,0,L|438:128,1,50,12|0,0:2|0:0,0:0:0:0:
424,85,270512,6,0,P|375:51|309:60,1,100,6|8,3:2|0:2,0:0:0:0:
289,68,271012,1,0,0:0:0:0:
289,68,271178,2,0,L|230:75,1,50,0|0,3:0|3:0,0:0:0:0:
197,46,271512,1,10,0:2:0:0:
105,86,271845,2,0,P|70:144|83:200,1,100,6|8,3:2|0:2,0:0:0:0:
98,223,272345,1,0,0:0:0:0:
98,223,272512,2,0,P|134:290|184:308,1,100,0|8,3:0|0:2,0:0:0:0:
232,240,273178,6,0,P|188:208|177:157,1,100,6|8,3:2|0:2,0:0:0:0:
216,134,273678,1,0,0:0:0:0:
216,134,273845,2,0,L|283:100,1,50,0|0,3:0|3:0,0:0:0:0:
310,115,274178,1,10,0:2:0:0:
391,174,274512,2,0,P|426:225|417:274,1,100,6|10,3:2|0:2,0:0:0:0:
400,305,275012,1,0,0:0:0:0:
400,305,275178,2,0,P|354:340|306:342,1,100,2|10,3:2|0:2,0:0:0:0:
218,310,275845,6,0,P|175:286|123:309,1,100,6|8,3:2|0:2,0:0:0:0:
85,325,276345,1,0,0:0:0:0:
85,325,276512,2,0,L|35:276,1,50,0|0,3:0|3:0,0:0:0:0:
67,243,276845,1,10,0:2:0:0:
36,147,277178,2,0,P|57:87|107:72,1,100,6|8,3:2|0:2,0:0:0:0:
128,100,277678,1,0,0:0:0:0:
128,100,277845,2,0,P|177:116|224:98,1,100,0|12,3:0|0:2,0:0:0:0:
309,53,278512,6,0,L|373:52,2,50,0|8|8,3:0|0:2|0:2,0:0:0:0:
347,150,279178,1,8,0:2:0:0:
347,150,279345,1,8,0:2:0:0:
267,210,279678,2,0,P|330:254|412:215,1,150,12|0,0:2|0:0,0:0:0:0:
