osu file format v14

[General]
AudioFilename: audio.mp3
AudioLeadIn: 0
PreviewTime: 64987
Countdown: 0
SampleSet: Soft
StackLeniency: 0.7
Mode: 0
LetterboxInBreaks: 0
WidescreenStoryboard: 0

[Editor]
Bookmarks: 11820,22487,33153,43820,65153,86487,91820,102487,113153,123820,134487,145153,166487,171820,182487,185153,206487,219820,227820,249153,259820,270487
DistanceSpacing: 1.1
BeatDivisor: 4
GridSize: 32
TimelineZoom: 1.8

[Metadata]
Title:Koukai no Uta
TitleUnicode:航海の唄
Artist:Sayuri
ArtistUnicode:さユり
Creator:Seto Kousuke
Version:Insane
Source:My Hero Academia
Tags:僕のヒーローアカデミア 4th Season 4thシーズン Boku no japanese anime full version melodic star riooo Ending payney faito
BeatmapID:2311204
BeatmapSetID:1105767

[Difficulty]
HPDrainRate:5
CircleSize:4
OverallDifficulty:8
ApproachRate:9
SliderMultiplier:1.6
SliderTickRate:1

[Events]
//Background and Video events
0,0,"Eri by riooo.jpg",0,0
//Break Periods
//Storyboard Layer 0 (Background)
//Storyboard Layer 1 (Fail)
//Storyboard Layer 2 (Pass)
//Storyboard Layer 3 (Foreground)
//Storyboard Layer 4 (Overlay)
//Storyboard Sound Samples

[TimingPoints]
1179,333.333333333333,4,2,1,70,1,0
11178,-100,4,2,1,70,0,0
11845,-76.9230769230769,4,2,1,70,0,0
22512,-133.333333333333,4,2,1,70,0,0
22678,-133.333333333333,4,2,2,45,0,0
33178,-105.263157894737,4,2,2,55,0,0
42512,-105.263157894737,4,2,1,60,0,0
43845,-86.9565217391306,4,2,1,65,0,0
59845,-105.263157894737,4,2,1,55,0,0
63845,-105.263157894737,4,2,1,65,0,0
65178,-76.9230769230769,4,2,1,75,0,1
74512,-222.222222222221,4,2,1,75,0,1
75512,-66.6666666666667,4,2,1,75,0,1
75845,-76.9230769230769,4,2,1,75,0,1
86512,-90.9090909090909,4,2,1,75,0,1
91845,-100,4,2,1,75,0,0
102012,-222.222222222221,4,2,1,75,0,0
102512,-133.333333333333,4,2,1,75,0,0
104512,-222.222222222221,4,2,1,75,0,0
105012,-222.222222222221,4,2,1,65,0,0
105178,-133.333333333333,4,2,2,50,0,0
111845,-83.3333333333333,4,2,2,50,0,0
113178,-111.111111111111,4,3,1,65,0,0
123512,-90.9090909090909,4,2,1,65,0,0
123845,-86.9565217391304,4,2,1,65,0,0
143845,-86.9565217391304,4,2,1,65,0,0
145178,-76.9230769230769,4,2,1,75,0,1
154512,-222.222222222222,4,2,1,75,0,1
155512,-66.6666666666667,4,2,1,75,0,1
155845,-100,4,2,1,75,0,1
171845,-86.9565217391304,4,2,1,65,0,0
182178,-68.9655172413793,4,2,1,65,0,0
182512,-86.9565217391304,4,2,1,65,0,0
185178,-100,4,2,1,65,0,0
206512,-86.9565217391304,4,2,1,65,0,0
226512,-86.9565217391304,4,2,1,75,0,0
227845,-250,4,2,1,55,0,0
228178,-76.9230769230769,4,2,1,80,0,1
235845,-285.714285714286,4,2,1,80,0,1
237178,-76.9230769230769,4,2,1,80,0,1
249178,-76.9230769230769,4,2,1,80,0,1
259845,-86.9565217391304,4,2,1,80,0,0
269178,-250,4,2,1,80,0,0
270178,-71.4285714285714,4,2,1,80,0,0
270512,-86.9565217391304,4,2,1,80,0,0
279678,-500,4,2,1,80,0,0
279845,-500,4,2,1,50,0,0
280095,-500,4,2,1,50,0,0

[Colours]
Combo1 : 81,89,128
Combo2 : 193,125,162
Combo3 : 154,150,173
Combo4 : 248,31,106

[HitObjects]
147,89,9178,5,8,0:2:0:0:
327,165,9345,1,2,3:0:0:0:
321,151,9845,5,8,0:2:0:0:
141,227,10012,1,2,3:0:0:0:
150,213,10512,5,8,0:2:0:0:
330,289,10679,1,2,3:0:0:0:
350,303,11178,6,0,P|340:214|282:296,1,240,2|0,0:2|0:0,0:0:0:0:
453,308,11845,6,0,P|459:258|448:198,1,103.999995239258,6|0,3:2|0:0,0:0:0:0:
197,197,12178,2,0,P|186:246|192:307,1,103.999995239258,10|0,0:2|0:2,0:0:0:0:
385,114,12512,2,0,P|318:103|247:127,2,103.999995239258,2|0|8,3:2|3:0|0:2,0:0:0:0:
329,202,13012,1,2,0:0:0:0:
193,102,13178,6,0,P|189:35|202:-13,1,103.999995239258,2|0,3:2|0:0,0:0:0:0:
118,205,13512,2,0,P|51:209|3:196,1,103.999995239258,10|0,0:2|0:0,0:0:0:0:
213,270,13845,2,0,P|217:337|204:385,2,103.999995239258,2|0|8,3:2|3:2|0:2,0:2:0:0:
127,316,14345,1,2,0:0:0:0:
328,321,14512,6,0,L|447:315,1,103.999995239258,2|0,3:2|0:0,0:0:0:0:
296,96,14845,2,0,L|177:102,1,103.999995239258,10|0,0:2|0:0,0:0:0:0:
426,170,15178,2,0,L|416:47,2,103.999995239258,2|0|8,3:2|3:0|0:2,0:0:0:0:
511,109,15678,1,2,0:0:0:0:
313,238,15845,6,0,P|262:248|196:235,1,103.999995239258,2|0,3:2|0:0,0:0:0:0:
258,29,16178,2,0,P|264:78|258:151,1,103.999995239258,10|0,0:2|0:0,0:0:0:0:
63,88,16512,2,0,P|117:81|179:92,1,103.999995239258,2|0,3:2|3:0,0:0:0:0:
109,275,16845,1,10,0:2:0:0:
113,171,17012,1,2,0:0:0:0:
3,363,17178,6,0,P|54:353|125:374,1,103.999995239258,2|0,3:2|0:0,0:0:0:0:
326,302,17512,2,0,P|275:312|204:291,1,103.999995239258,10|0,0:2|0:0,0:0:0:0:
11,170,17845,2,0,P|62:160|133:181,2,103.999995239258,2|0|8,3:2|3:0|0:2,0:0:0:0:
65,75,18345,1,2,0:2:0:0:
62,257,18512,6,0,L|60:360,1,103.999995239258,2|0,3:2|0:0,0:0:0:0:
213,195,18845,2,0,L|214:91,1,103.999995239258,10|0,0:2|0:0,0:0:0:0:
367,257,19178,2,0,L|365:381,2,103.999995239258,2|0|8,3:2|3:0|0:2,0:0:0:0:
424,121,19678,1,2,0:2:0:0:
491,281,19845,5,2,3:2:0:0:
491,281,20012,1,0,3:0:0:0:
340,156,20178,2,0,P|280:146|214:164,1,103.999995239258,14|0,0:2|0:0,0:0:0:0:
500,182,20512,1,0,3:0:0:0:
500,182,20679,1,0,3:0:0:0:
349,57,20845,5,0,1:2:0:0:
324,49,20928,1,0,1:2:0:0:
298,46,21011,1,0,1:2:0:0:
272,48,21094,1,0,1:2:0:0:
247,54,21178,5,8,0:2:0:0:
157,197,21345,1,2,3:0:0:0:
174,194,21845,5,8,0:2:0:0:
83,51,22012,1,2,3:0:0:0:
55,34,22512,6,0,L|45:109,1,60.0000022888184,4|2,3:2|2:0,0:0:0:0:
0,169,22845,2,0,L|10:244,1,60.0000022888184,2|2,2:0|2:0,0:0:0:0:
51,297,23178,1,2,2:0:0:0:
73,306,23512,1,2,2:0:0:0:
99,311,23845,6,0,P|131:311|166:302,1,60.0000022888184,2|0,2:0|0:0,0:0:0:0:
212,235,24178,2,0,P|212:203|203:168,1,60.0000022888184,2|2,2:0|2:0,0:0:0:0:
276,295,24512,2,0,P|317:311|402:288,1,120.000004577637,2|2,2:0|2:0,0:0:0:0:
407,312,25178,6,0,L|405:165,1,120.000004577637,2|0,2:0|0:0,0:0:0:0:
487,364,25678,1,2,2:0:0:0:
487,364,25845,2,0,L|485:217,1,120.000004577637,2|0,2:0|0:0,0:0:0:0:
327,370,26345,1,2,2:0:0:0:
327,370,26512,2,0,L|325:291,1,60.0000022888184,2|0,2:0|0:0,0:0:0:0:
243,205,26845,2,0,L|243:264,2,60.0000022888184,2|2|2,2:0|0:2|2:0,0:0:0:0:
147,359,27512,5,10,2:0:0:0:
300,144,27845,5,2,3:2:0:0:
300,144,28012,2,0,P|244:121|186:145,1,120.000004577637,0|0,3:0|0:0,0:0:0:0:
120,86,28512,2,0,P|109:122|110:170,1,60.0000022888184,2|0,2:0|0:0,0:0:0:0:
29,186,28845,2,0,P|55:212|104:224,1,60.0000022888184,2|0,2:0|0:0,0:0:0:0:
86,309,29178,2,0,P|139:280|152:202,1,120.000004577637,2|0,2:0|0:0,0:0:0:0:
426,309,29845,6,0,P|373:280|360:202,1,120.000004577637,2|2,2:0|2:0,0:0:0:0:
261,25,30512,2,0,B|286:110|224:110|260:218,1,180.000006866455,2|0,2:0|0:0,0:0:0:0:
332,157,31178,2,0,P|260:113|170:176,1,180.000006866455,2|0,2:0|0:0,0:0:0:0:
57,71,31845,5,0,3:0:0:0:
103,144,32012,1,0,3:0:0:0:
34,234,32178,1,0,3:0:0:0:
109,333,32345,1,0,1:0:0:0:
84,344,32678,6,0,P|142:327|216:355,1,120.000004577637,2|0,1:3|0:0,0:0:0:0:
369,384,33178,6,0,P|414:340|373:256,1,151.999995941162,6|0,3:2|3:0,0:0:0:0:
426,190,33678,1,2,0:0:0:0:
426,190,33845,2,0,B|352:168|350:219|274:189,1,151.999995941162,2|0,3:2|3:0,0:0:0:0:
199,211,34345,1,2,0:0:0:0:
199,211,34512,6,0,L|210:128,1,75.9999979705811,2|0,3:2|0:0,0:0:0:0:
87,133,34845,2,0,L|96:208,1,75.9999979705811,2|0,3:2|0:0,0:0:0:0:
154,63,35178,2,0,P|105:38|14:74,1,151.999995941162,2|2,3:2|3:2,0:0:0:0:
23,246,35678,1,0,1:0:0:0:
23,246,35845,6,0,L|201:248,1,151.999995941162,2|0,3:2|3:0,0:0:0:0:
0,339,36345,1,2,0:0:0:0:
0,339,36512,2,0,L|178:341,1,151.999995941162,2|0,3:2|3:0,0:0:0:0:
238,317,37012,1,2,0:2:0:0:
238,317,37178,6,0,P|279:318|319:339,1,75.9999979705811,2|0,3:2|0:0,0:0:0:0:
470,314,37512,2,0,P|432:314|398:330,1,75.9999979705811,2|0,3:2|0:0,0:0:0:0:
285,225,37845,2,0,B|324:231|354:255|354:255|382:233|425:228,1,151.999995941162,2|2,3:2|3:2,0:0:0:0:
356,74,38345,1,0,1:0:0:0:
356,74,38512,6,0,L|355:163,1,75.9999979705811,0|0,3:0|0:0,0:0:0:0:
445,42,38845,2,0,L|444:131,1,75.9999979705811,0|0,3:0|0:0,0:0:0:0:
271,34,39178,6,0,L|270:123,1,75.9999979705811,2|0,3:2|0:0,0:0:0:0:
184,251,39512,2,0,L|184:175,1,75.9999979705811,2|0,3:2|0:0,0:0:0:0:
95,15,39845,2,0,L|92:202,1,151.999995941162,2|0,3:2|3:2,0:2:0:0:
4,362,40512,2,0,P|49:336|94:350,1,75.9999979705811,2|0,3:2|0:0,0:0:0:0:
311,378,40845,1,0,1:0:0:0:
311,378,41178,6,0,L|323:282,1,75.9999979705811,2|0,3:2|0:0,0:0:0:0:
459,374,41512,1,0,3:0:0:0:
459,374,41678,2,0,L|447:278,1,75.9999979705811,0|0,1:0|3:0,0:0:0:0:
383,143,42012,1,2,0:2:0:0:
383,143,42178,2,0,L|383:231,1,75.9999979705811,2|0,1:2|0:0,0:0:0:0:
302,352,42512,6,0,P|261:351|223:315,1,75.9999979705811,0|0,3:0|3:0,0:0:0:0:
265,198,42845,1,0,3:0:0:0:
140,359,43012,2,0,P|135:322|168:268,1,75.9999979705811,0|4,1:0|3:0,0:0:0:0:
438,205,43512,5,4,1:2:0:0:
438,205,43845,6,0,P|371:191|315:199,1,92.0000017547608,6|0,3:2|0:0,0:0:0:0:
182,187,44178,2,0,P|136:187|91:199,1,92.0000017547608,10|0,0:2|0:0,0:0:0:0:
264,113,44512,2,0,L|262:268,1,138.000002632141,2|0,3:2|0:0,0:0:0:0:
275,269,44845,1,8,0:2:0:0:
119,341,45012,6,0,P|145:272|199:339,1,184.000003509522,6|0,3:2|3:0,0:0:0:0:
34,366,45512,2,0,P|26:316|40:258,1,92.0000017547608,10|0,0:2|0:0,0:0:0:0:
120,55,45845,2,0,P|136:123|115:204,1,138.000002632141,2|0,3:2|0:0,0:0:0:0:
123,189,46178,2,0,P|168:182|220:193,1,92.0000017547608,10|0,0:2|0:0,0:0:0:0:
449,160,46512,5,6,3:2:0:0:
342,252,46678,1,2,0:2:0:0:
314,118,46845,2,0,P|374:87|437:126,1,138.000002632141,10|0,0:2|0:0,0:0:0:0:
449,160,47178,5,2,3:2:0:0:
342,252,47344,1,2,0:2:0:0:
230,161,47512,2,0,P|219:105|233:56,1,92.0000017547608,10|4,0:2|3:2,0:0:0:0:
65,22,47845,6,0,P|73:84|63:172,1,138.000002632141,2|0,3:2|0:0,0:0:0:0:
11,216,48178,2,0,P|24:173|65:158,1,92.0000017547608,10|0,0:2|0:0,0:0:0:0:
286,207,48512,2,0,P|273:164|232:149,1,92.0000017547608,2|0,3:2|3:0,0:0:0:0:
111,345,48845,2,0,B|154:363|154:363|204:339,1,92.0000017547608,8|0,0:2|0:0,0:0:0:0:
156,95,49178,6,0,B|115:187|189:188|150:278,1,184.000003509522,6|8,3:2|0:2,0:0:0:0:
72,230,49678,1,2,0:0:0:0:
232,149,49845,2,0,B|277:152|311:144|311:144|342:162|342:162|382:153|432:157,1,184.000003509522,2|8,3:2|0:2,0:0:0:0:
268,68,50345,1,6,3:2:0:0:
466,74,50512,6,0,P|507:162|448:248,1,184.000003509522,2|8,0:2|0:2,0:0:0:0:
308,325,51012,1,0,0:0:0:0:
317,156,51178,2,0,L|409:154,2,92.0000017547608,2|0|10,3:2|3:0|0:2,0:0:0:0:
308,325,51678,1,0,0:0:0:0:
230,177,51845,5,4,3:2:0:0:
217,274,52012,1,0,3:0:0:0:
326,240,52178,2,0,L|419:251,1,92.0000017547608,8|0,0:2|3:0,0:0:0:0:
225,155,52512,1,0,3:0:0:0:
327,76,52678,2,0,L|424:54,1,92.0000017547608,8|0,0:2|3:0,0:0:0:0:
208,175,53012,6,0,B|116:201|125:127|25:152,1,184.000003509522,12|4,0:2|3:0,0:0:0:0:
25,157,53428,1,4,3:0:0:0:
19,164,53512,1,4,3:0:0:0:
172,97,53678,1,0,3:0:0:0:
262,244,53845,2,0,P|272:302|261:346,1,92.0000017547608,8|4,0:2|3:0,0:0:0:0:
58,326,54178,2,0,P|51:280|61:236,1,92.0000017547608,8|0,0:2|0:0,0:0:0:0:
177,39,54512,6,0,L|291:40,1,92.0000017547608,6|0,3:2|0:0,0:0:0:0:
421,99,54845,2,0,L|512:98,1,92.0000017547608,10|0,0:2|0:0,0:0:0:0:
349,10,55178,2,0,B|360:56|360:56|341:93|341:93|352:161,1,138.000002632141,2|0,3:2|0:0,0:0:0:0:
348,141,55512,2,0,P|308:178|262:181,1,92.0000017547608,10|4,0:2|3:2,0:0:0:0:
196,55,55845,6,0,L|65:43,1,92.0000017547608,2|0,3:2|3:0,0:0:0:0:
92,166,56178,2,0,L|223:154,1,92.0000017547608,10|0,0:2|0:0,0:0:0:0:
30,105,56512,1,2,3:2:0:0:
15,250,56678,1,2,3:2:0:0:
141,301,56845,2,0,L|259:294,1,92.0000017547608,10|2,0:2|0:0,0:0:0:0:
339,191,57178,6,0,P|424:149|502:221,1,184.000003509522,6|8,3:2|0:2,0:0:0:0:
415,243,57678,2,0,L|413:37,1,184.000003509522,2|0,0:2|3:0,0:0:0:0:
243,157,58178,1,8,0:2:0:0:
322,54,58345,6,0,L|323:237,1,184.000003509522,6|0,3:2|0:0,0:0:0:0:
169,338,58845,2,0,P|167:281|193:237,1,92.0000017547608,8|0,0:2|0:0,0:0:0:0:
63,91,59178,2,0,P|89:150|65:235,2,138.000002632141,2|2|2,3:2|0:0|3:2,0:0:0:0:
1,325,59845,6,0,L|88:314,1,75.9999979705811,4|0,3:2|0:0,0:0:0:0:
150,272,60178,2,0,L|226:282,1,75.9999979705811,0|0,3:0|0:0,0:0:0:0:
0,230,60512,2,0,L|75:220,1,75.9999979705811,0|0,3:0|0:0,0:0:0:0:
150,272,60845,1,0,3:0:0:0:
248,127,61012,1,12,0:2:0:0:
248,127,61178,6,0,L|145:117,1,75.9999979705811,0|0,3:0|0:0,0:0:0:0:
345,60,61512,2,0,L|357:134,1,75.9999979705811,0|0,3:0|0:0,0:0:0:0:
272,288,61845,2,0,L|284:213,1,75.9999979705811,0|0,3:0|0:0,0:0:0:0:
460,229,62178,2,0,L|384:236,1,75.9999979705811,0|0,3:0|0:0,0:0:0:0:
237,120,62512,5,0,3:0:0:0:
176,258,62678,1,0,3:0:0:0:
99,139,62845,2,0,L|2:138,1,75.9999979705811,8|0,0:2|3:0,0:0:0:0:
259,115,63178,5,0,3:0:0:0:
170,286,63344,1,0,3:0:0:0:
82,116,63512,2,0,L|-15:115,1,75.9999979705811,8|0,0:2|3:0,0:0:0:0:
283,111,63845,5,8,0:2:0:0:
87,236,64012,1,8,0:2:0:0:
94,214,64512,5,8,0:2:0:0:
288,316,64679,1,8,0:2:0:0:
292,320,65178,6,0,P|328:253|299:156,1,155.999992858887,6|0,3:2|0:0,0:0:0:0:
314,177,65512,2,0,L|193:175,1,103.999995239258,10|0,0:2|0:0,0:0:0:0:
96,89,65845,1,2,3:2:0:0:
96,89,66012,1,0,3:0:0:0:
72,251,66178,2,0,L|66:379,1,103.999995239258,10|0,0:2|0:0,0:0:0:0:
20,162,66512,5,2,3:2:0:0:
20,162,66678,1,0,3:0:0:0:
180,40,66845,2,0,P|235:30|291:45,1,103.999995239258,10|0,0:2|0:0,0:0:0:0:
225,238,67178,2,0,P|176:163|267:140,1,207.999990478516,2|10,3:2|0:2,0:0:0:0:
488,216,67678,1,2,0:0:0:0:
488,216,67845,6,0,B|427:212|427:212|392:227|392:227|303:220,1,155.999992858887,2|0,3:2|0:0,0:0:0:0:
302,209,68179,1,10,0:2:0:0:
370,131,68345,1,2,0:2:0:0:
448,305,68512,2,0,B|403:328|403:328|235:309,1,207.999990478516,2|8,3:2|0:2,0:0:0:0:
87,158,69012,1,2,0:2:0:0:
87,158,69178,6,0,L|199:164,1,103.999995239258,2|0,3:2|0:0,0:0:0:0:
246,310,69512,2,0,L|134:304,1,103.999995239258,10|0,0:2|0:0,0:0:0:0:
283,125,69845,2,0,L|277:228,1,103.999995239258,2|0,3:2|0:0,0:0:0:0:
45,344,70179,2,0,L|50:240,1,103.999995239258,10|0,0:2|0:0,0:0:0:0:
221,47,70512,6,0,P|312:38|399:66,1,155.999992858887,2|0,3:2|0:0,0:0:0:0:
373,53,70845,2,0,L|371:174,1,103.999995239258,8|0,0:2|0:0,0:0:0:0:
397,327,71178,1,2,3:2:0:0:
397,327,71345,1,0,3:0:0:0:
300,201,71512,2,0,P|252:189|194:207,1,103.999995239258,8|0,0:2|0:0,0:0:0:0:
8,332,71845,6,0,P|51:372|133:262,1,207.999990478516,2|8,3:2|0:2,0:0:0:0:
288,377,72345,1,0,0:0:0:0:
288,377,72512,2,0,P|255:336|275:284,1,103.999995239258,2|0,3:2|0:0,0:0:0:0:
409,182,72845,2,0,L|515:183,1,103.999995239258,8|0,0:2|0:0,0:0:0:0:
313,56,73178,5,2,3:2:0:0:
313,56,73345,1,0,3:0:0:0:
211,178,73512,2,0,P|152:178|115:148,1,103.999995239258,10|0,0:2|0:0,0:0:0:0:
34,18,73845,1,2,3:2:0:0:
34,18,74012,1,0,3:0:0:0:
0,177,74178,2,0,L|0:300,1,103.999995239258,10|0,0:2|0:0,0:0:0:0:
260,302,74512,6,0,L|295:300,1,35.9999989013672,8|0,0:2|3:0,0:0:0:0:
211,107,74845,2,0,L|167:109,1,35.9999989013672,8|0,0:2|3:0,0:0:0:0:
373,312,75178,2,0,L|371:276,1,35.9999989013672,8|0,0:2|3:0,0:0:0:0:
97,50,75512,6,0,P|89:151|104:272,1,180.000006866455,12|0,0:2|0:0,0:0:0:0:
95,229,75845,6,0,L|225:227,1,103.999995239258,2|0,3:2|0:0,0:0:0:0:
266,43,76178,2,0,P|257:95|266:146,1,103.999995239258,10|0,0:2|0:0,0:0:0:0:
367,256,76512,1,2,3:2:0:0:
367,256,76678,1,0,3:0:0:0:
464,147,76845,2,0,P|473:96|464:45,1,103.999995239258,10|0,0:2|0:0,0:0:0:0:
367,107,77178,6,0,L|367:230,1,103.999995239258,0|0,3:0|0:0,0:0:0:0:
497,338,77512,2,0,P|442:314|391:334,1,103.999995239258,10|0,0:2|0:0,0:0:0:0:
277,216,77845,1,0,3:0:0:0:
277,216,78012,1,0,3:0:0:0:
225,355,78178,2,0,P|274:366|331:341,1,103.999995239258,10|0,0:2|0:0,0:0:0:0:
172,257,78512,6,0,L|46:258,1,103.999995239258,2|0,3:2|0:0,0:0:0:0:
59,110,78845,2,0,L|162:109,1,103.999995239258,10|0,0:2|0:0,0:0:0:0:
355,107,79178,2,0,L|251:107,1,103.999995239258,2|0,3:2|0:0,0:0:0:0:
261,255,79511,2,0,L|364:254,1,103.999995239258,10|0,0:2|0:0,0:0:0:0:
474,57,79845,6,0,P|459:127|480:215,1,155.999992858887,2|0,3:2|0:0,0:0:0:0:
496,224,80178,1,10,0:2:0:0:
370,117,80345,2,0,P|283:88|154:130,1,207.999990478516,2|0,3:2|3:0,0:0:0:0:
59,47,80845,2,0,P|42:96|66:171,1,103.999995239258,10|0,0:2|0:0,0:0:0:0:
16,326,81178,6,0,P|74:348|175:303,1,155.999992858887,0|0,3:0|0:0,0:0:0:0:
159,319,81512,2,0,L|165:210,1,103.999995239258,10|0,0:2|0:0,0:0:0:0:
347,215,81845,2,0,L|352:319,1,103.999995239258,0|0,3:0|0:0,0:0:0:0:
260,200,82178,6,0,L|265:39,1,155.999992858887,10|0,0:2|0:0,0:0:0:0:
264,44,82512,2,0,P|315:63|372:42,1,103.999995239258,0|0,3:0|0:0,0:0:0:0:
497,13,82845,1,10,0:2:0:0:
437,128,83012,1,2,0:2:0:0:
437,128,83178,2,0,P|433:186|443:248,1,103.999995239258,2|0,3:2|3:0,0:0:0:0:
493,359,83512,2,0,P|416:328|380:336,1,103.999995239258,10|0,0:2|0:0,0:0:0:0:
220,354,83845,5,0,3:0:0:0:
220,354,84012,1,0,3:0:0:0:
323,234,84178,2,0,P|336:170|322:119,1,103.999995239258,10|0,0:2|0:0,0:0:0:0:
219,14,84512,1,0,3:0:0:0:
219,14,84678,1,0,3:0:0:0:
130,174,84845,2,0,L|239:177,1,103.999995239258,10|0,0:2|0:0,0:0:0:0:
85,40,85178,5,0,3:0:0:0:
42,190,85345,1,0,3:0:0:0:
42,190,85428,1,0,3:0:0:0:
42,190,85512,1,2,1:2:0:0:
0,96,85678,1,0,3:0:0:0:
130,174,85845,5,0,1:0:0:0:
143,210,85928,1,0,1:0:0:0:
142,248,86011,1,0,1:0:0:0:
127,284,86094,1,0,1:0:0:0:
100,312,86178,2,0,L|41:310,3,51.999997619629,0|0|0|0,1:0|1:0|1:0|1:0,0:0:0:0:
208,297,86512,6,0,P|260:289|317:306,1,88.000002685547,4|0,3:2|3:0,0:0:0:0:
508,221,86845,2,0,P|425:256|339:202,1,176.000005371094,8|0,0:2|3:0,0:0:0:0:
431,77,87345,1,0,3:0:0:0:
431,77,87512,2,0,L|431:179,1,88.000002685547,8|0,0:2|3:0,0:0:0:0:
328,356,87845,6,0,P|288:339|265:302,2,88.000002685547,8|0|0,0:2|3:0|3:0,0:0:0:0:
328,133,88345,2,0,P|289:150|266:187,2,88.000002685547,8|0|0,0:2|3:0|3:0,0:0:0:0:
175,250,88845,2,0,L|76:249,1,88.000002685547,8|0,0:2|3:0,0:0:0:0:
192,59,89178,2,0,L|189:175,1,88.000002685547,0|0,3:0|3:0,0:0:0:0:
333,273,89512,6,0,L|337:316,3,44.0000013427735,0|0|0|0,1:0|1:0|1:0|1:0,0:0:0:0:
389,203,89845,2,0,L|393:159,3,44.0000013427735,0|0|0|0,1:0|1:0|1:0|1:0,0:0:0:0:
430,286,90178,2,0,L|434:329,3,44.0000013427735,0|0|0|0,1:0|1:0|1:0|1:0,0:0:0:0:
490,212,90512,5,8,1:2:0:0:
490,190,90595,1,8,1:2:0:0:
490,168,90678,1,8,1:2:0:0:
490,146,90761,1,8,1:2:0:0:
490,124,90845,6,0,L|520:68,1,44.0000013427735,8|8,1:2|1:2,0:0:0:0:
416,71,91012,2,0,L|417:6,1,44.0000013427735,8|8,1:2|1:2,0:0:0:0:
343,134,91178,5,8,1:2:0:0:
313,148,91261,1,8,1:2:0:0:
281,149,91344,1,8,1:2:0:0:
250,137,91427,1,8,1:2:0:0:
228,112,91512,1,8,1:2:0:0:
198,98,91595,1,8,1:2:0:0:
166,97,91678,1,8,1:2:0:0:
135,109,91761,1,8,1:2:0:0:
113,134,91845,6,0,L|115:242,1,80,6|0,3:2|0:0,0:0:0:0:
258,315,92178,2,0,P|242:281|187:276,1,80,8|0,0:2|0:0,0:0:0:0:
31,251,92512,1,0,3:2:0:0:
31,251,92678,1,0,3:0:0:0:
115,380,92845,2,0,L|113:300,1,80,10|0,0:2|0:0,0:0:0:0:
210,162,93178,6,0,P|256:144|297:156,1,80,2|0,3:2|0:0,0:0:0:0:
404,304,93512,2,0,L|404:394,1,80,8|0,0:2|0:0,0:0:0:0:
493,221,93845,1,0,3:2:0:0:
493,221,94012,1,0,3:2:0:0:
337,229,94178,2,0,L|236:231,1,80,8|0,0:2|0:0,0:0:0:0:
401,24,94512,6,0,B|376:99|441:103|407:191,1,160,2|8,3:2|0:2,0:0:0:0:
487,55,95012,1,0,0:0:0:0:
327,147,95178,1,0,3:0:0:0:
327,147,95345,1,0,3:0:0:0:
241,54,95512,2,0,P|191:45|138:56,1,80,10|0,0:2|0:0,0:0:0:0:
38,167,95845,6,0,P|29:240|32:338,1,160,2|8,3:2|0:2,0:0:0:0:
198,267,96345,1,0,0:0:0:0:
121,220,96512,2,0,P|115:279|121:314,1,80,0|0,3:0|0:0,0:0:0:0:
280,303,96845,2,0,P|282:263|276:223,1,80,8|0,0:2|0:0,0:0:0:0:
200,18,97178,6,0,L|201:198,1,160,0|8,3:0|0:2,0:0:0:0:
115,102,97678,1,0,0:0:0:0:
294,139,97845,2,0,L|401:140,1,80,0|0,3:0|0:0,0:0:0:0:
280,303,98178,2,0,L|200:302,1,80,8|0,0:2|0:0,0:0:0:0:
57,188,98512,6,0,P|25:230|95:298,1,160,0|8,3:0|0:2,0:0:0:0:
226,222,99012,1,0,0:0:0:0:
135,219,99178,1,0,3:0:0:0:
135,219,99345,1,0,3:0:0:0:
252,112,99512,2,0,P|295:103|348:121,1,80,8|0,0:2|0:0,0:0:0:0:
423,259,99845,5,0,3:0:0:0:
423,259,100012,1,0,3:0:0:0:
478,168,100178,2,0,L|477:77,1,80,12|0,0:2|0:0,0:0:0:0:
330,203,100512,1,0,3:0:0:0:
330,203,100678,1,0,3:0:0:0:
423,259,100845,2,0,L|514:258,1,80,0|0,1:2|3:0,0:0:0:0:
375,114,101178,5,8,0:2:0:0:
258,283,101345,1,8,0:2:0:0:
278,277,101845,5,8,0:2:0:0:
161,108,102012,2,0,B|169:146|154:143|160:186,1,71.9999978027344,8|0,0:2|0:0,0:0:0:0:
232,149,102512,6,0,P|139:108|145:257,1,300.000011444092,4|0,3:2|0:0,0:0:0:0:
360,251,103512,1,0,1:0:0:0:
360,251,103845,6,0,B|378:201|333:186|361:128,1,120.000004577637,0|0,3:0|1:0,0:0:0:0:
111,227,104512,5,0,3:0:0:0:
57,155,104762,5,0,3:0:0:0:
17,85,105012,5,4,1:2:0:0:
17,85,105178,6,0,L|23:26,1,60.0000022888184,2|0,3:2|0:0,0:0:0:0:
114,10,105512,2,0,L|119:69,1,60.0000022888184,8|0,0:2|0:0,0:0:0:0:
51,164,105845,1,0,3:0:0:0:
141,152,106012,1,0,3:0:0:0:
46,172,106178,2,0,L|43:246,1,60.0000022888184,8|0,0:2|0:0,0:0:0:0:
127,295,106512,6,0,L|129:223,1,60.0000022888184,0|0,3:2|0:0,0:0:0:0:
0,318,106845,2,0,L|49:325,1,60.0000022888184,8|0,0:2|0:0,0:0:0:0:
127,383,107178,1,0,3:2:0:0:
148,298,107345,1,0,3:0:0:0:
206,372,107512,2,0,L|147:383,1,60.0000022888184,10|0,0:2|0:0,0:0:0:0:
243,283,107845,6,0,L|373:289,1,120.000004577637,2|8,3:2|0:2,0:0:0:0:
430,361,108345,1,0,0:0:0:0:
430,361,108512,2,0,L|447:291,1,60.0000022888184,2|0,3:2|3:0,0:0:0:0:
351,284,108845,2,0,L|334:354,1,60.0000022888184,10|0,0:2|0:0,0:0:0:0:
456,297,109178,6,0,L|446:150,1,120.000004577637,2|8,3:2|0:2,0:0:0:0:
461,96,109678,1,0,0:0:0:0:
433,195,109845,2,0,P|379:203|349:190,1,60.0000022888184,0|0,3:0|3:0,0:0:0:0:
252,69,110178,5,12,0:2:0:0:
262,86,110512,6,0,L|265:168,1,60.0000022888184,12|0,0:2|3:0,0:0:0:0:
198,24,110845,1,0,3:0:0:0:
139,93,111012,2,0,L|136:175,1,60.0000022888184,12|0,0:2|3:0,0:0:0:0:
218,18,111345,1,0,3:0:0:0:
293,169,111512,1,12,0:2:0:0:
84,257,111845,6,0,P|173:256|201:342,1,191.999994140625,8|0,0:2|3:0,0:0:0:0:
438,257,112345,2,0,P|385:242|322:345,1,191.999994140625,8|0,0:2|3:0,0:0:0:0:
261,150,112845,1,8,0:2:0:0:
255,137,113178,6,0,L|166:131,1,71.9999978027344,6|0,3:2|0:0,0:0:0:0:
223,50,113512,2,0,L|295:55,1,71.9999978027344,10|0,0:2|0:0,0:0:0:0:
341,136,113845,1,2,0:2:0:0:
386,58,114012,1,0,0:0:0:0:
436,138,114178,2,0,L|429:226,1,71.9999978027344,8|0,0:2|0:0,0:0:0:0:
345,239,114512,5,2,0:2:0:0:
415,303,114678,1,0,0:0:0:0:
348,366,114845,1,10,0:2:0:0:
285,305,115012,1,0,0:0:0:0:
285,305,115095,1,0,0:0:0:0:
285,305,115178,2,0,L|214:309,1,71.9999978027344,2|0,0:2|0:0,0:0:0:0:
70,251,115512,2,0,L|141:255,1,71.9999978027344,8|0,0:3|0:0,0:0:0:0:
97,328,115845,6,0,L|109:159,1,143.999995605469,2|8,0:2|0:3,0:0:0:0:
26,129,116345,1,0,0:0:0:0:
26,129,116428,1,0,0:0:0:0:
26,129,116512,2,0,P|72:145|179:109,1,143.999995605469,2|8,0:2|0:3,0:0:0:0:
217,46,117012,1,0,0:0:0:0:
277,122,117178,5,2,0:2:0:0:
343,51,117345,1,0,0:0:0:0:
356,197,117512,1,10,0:2:0:0:
419,123,117678,1,0,0:0:0:0:
419,123,117762,1,0,0:0:0:0:
419,123,117845,2,0,P|460:120|495:122,1,71.9999978027344,2|0,0:2|0:0,0:0:0:0:
277,122,118178,2,0,P|271:164|271:198,1,71.9999978027344,10|0,0:2|0:0,0:0:0:0:
398,330,118512,6,0,P|351:314|245:342,1,143.999995605469,2|8,0:2|0:3,0:0:0:0:
183,216,119012,1,0,0:0:0:0:
183,216,119095,1,0,0:0:0:0:
183,216,119178,2,0,P|175:254|176:290,1,71.9999978027344,2|0,0:2|0:0,0:0:0:0:
267,147,119512,2,0,P|271:111|265:72,1,71.9999978027344,10|0,0:2|0:0,0:0:0:0:
342,227,119845,6,0,P|411:235|514:222,1,143.999995605469,2|8,0:2|0:3,0:0:0:0:
489,70,120345,1,0,0:0:0:0:
489,70,120428,1,0,0:0:0:0:
489,70,120512,2,0,L|392:70,1,71.9999978027344,0|0,0:0|0:0,0:0:0:0:
225,66,120845,5,12,0:2:0:0:
225,66,121178,6,0,L|205:153,1,71.9999978027344,4|0,0:2|0:0,0:0:0:0:
85,224,121512,2,0,L|124:227,3,35.9999989013672,0|0|0|0,1:0|1:0|1:0|1:0,0:0:0:0:
162,313,121845,2,0,L|123:310,3,35.9999989013672,0|0|0|0,1:0|1:0|1:0|1:0,0:0:0:0:
72,209,122178,2,0,L|111:212,3,35.9999989013672,0|0|0|0,1:0|1:0|1:0|1:0,0:0:0:0:
172,327,122512,5,0,1:0:0:0:
205,338,122595,1,0,1:0:0:0:
239,328,122678,1,0,1:0:0:0:
262,301,122761,1,0,1:0:0:0:
266,266,122845,6,0,L|247:204,1,35.9999989013672,0|0,1:0|1:0,0:0:0:0:
288,140,123012,2,0,L|231:139,1,35.9999989013672,0|0,1:0|1:0,0:0:0:0:
343,234,123178,2,0,P|380:240|428:228,1,71.9999978027344,0|0,1:0|3:0,0:0:0:0:
393,20,123512,6,0,P|373:80|387:164,1,132.00000402832,4|0,1:2|0:0,0:0:0:0:
380,147,123845,6,0,P|329:139|262:144,1,92.0000017547608,6|0,3:2|0:0,0:0:0:0:
159,17,124178,2,0,P|151:67|156:135,1,92.0000017547608,10|0,0:2|0:0,0:0:0:0:
188,291,124512,2,0,P|131:258|71:298,1,138.000002632141,2|0,3:2|0:0,0:0:0:0:
74,291,124845,2,0,P|79:240|72:186,1,92.0000017547608,10|4,0:2|0:2,0:0:0:0:
4,58,125178,5,2,3:2:0:0:
4,58,125345,1,2,3:2:0:0:
85,107,125512,2,0,P|133:113|180:105,1,92.0000017547608,10|0,0:2|0:0,0:0:0:0:
278,15,125845,2,0,P|272:60|289:165,1,138.000002632141,2|0,3:2|0:0,0:0:0:0:
284,151,126178,2,0,P|329:157|374:151,1,92.0000017547608,10|0,0:2|0:0,0:0:0:0:
450,44,126512,5,6,3:2:0:0:
502,119,126678,1,2,0:2:0:0:
449,190,126845,2,0,P|447:237|450:304,1,92.0000017547608,10|0,0:2|0:0,0:0:0:0:
496,363,127178,1,2,3:2:0:0:
443,297,127345,1,2,3:2:0:0:
382,368,127512,2,0,P|328:367|282:360,1,92.0000017547608,10|4,0:2|3:2,0:0:0:0:
303,179,127845,6,0,P|238:172|184:229,1,138.000002632141,2|0,3:2|0:0,0:0:0:0:
187,218,128178,2,0,L|190:110,1,92.0000017547608,10|0,0:2|0:0,0:0:0:0:
13,140,128512,2,0,L|21:231,1,92.0000017547608,2|0,3:2|3:0,0:0:0:0:
112,54,128845,5,8,0:2:0:0:
112,54,129178,6,0,P|191:36|304:62,1,184.000003509522,6|8,3:2|0:2,0:0:0:0:
453,151,129678,1,2,0:2:0:0:
370,14,129845,2,0,B|403:104|323:104|369:191,1,184.000003509522,2|8,3:2|0:2,0:0:0:0:
469,327,130345,1,6,3:2:0:0:
469,327,130512,6,0,P|402:286|305:339,1,184.000003509522,2|8,0:2|0:2,0:0:0:0:
238,220,131012,1,2,0:0:0:0:
86,293,131178,1,0,1:0:0:0:
87,315,131261,1,0,1:0:0:0:
98,335,131344,1,0,1:0:0:0:
116,349,131428,1,0,1:0:0:0:
138,355,131512,2,0,P|151:291|138:181,1,138.000002632141,8|0,1:2|0:0,0:0:0:0:
147,218,131845,6,0,P|193:220|272:218,1,92.0000017547608,12|0,0:2|3:0,0:0:0:0:
36,232,132178,1,0,3:2:0:0:
146,134,132345,2,0,P|192:136|271:134,1,92.0000017547608,12|0,0:2|3:0,0:0:0:0:
33,144,132678,1,0,3:0:0:0:
143,46,132845,2,0,P|189:48|268:46,1,92.0000017547608,8|0,0:2|3:2,0:0:0:0:
390,176,133178,5,4,3:2:0:0:
341,97,133345,1,4,3:0:0:0:
341,97,133428,1,4,3:0:0:0:
341,97,133512,1,4,3:0:0:0:
448,100,133678,1,0,3:0:0:0:
448,100,133761,1,0,3:0:0:0:
448,100,133845,1,8,0:2:0:0:
391,19,134012,1,4,3:0:0:0:
389,264,134178,5,8,0:2:0:0:
463,212,134345,1,2,0:2:0:0:
389,264,134512,6,0,P|331:256|294:266,1,92.0000017547608,6|0,3:2|0:0,0:0:0:0:
117,264,134845,2,0,P|161:272|206:264,1,92.0000017547608,10|0,0:2|0:0,0:0:0:0:
253,43,135178,2,0,L|253:183,1,138.000002632141,2|0,3:2|0:0,0:0:0:0:
253,181,135512,2,0,P|206:174|163:182,1,92.0000017547608,10|4,0:2|0:2,0:0:0:0:
14,222,135845,5,2,3:2:0:0:
67,145,136012,1,2,3:2:0:0:
23,64,136178,1,10,0:2:0:0:
23,64,136345,1,2,0:2:0:0:
115,41,136512,2,0,P|166:38|264:44,1,138.000002632141,2|0,3:2|0:0,0:0:0:0:
252,42,136845,2,0,L|254:139,1,92.0000017547608,10|0,0:2|0:0,0:0:0:0:
395,12,137178,6,0,P|394:78|398:228,1,184.000003509522,6|8,3:2|0:2,0:0:0:0:
473,323,137678,2,0,P|414:286|312:337,1,184.000003509522,2|0,0:2|3:0,0:0:0:0:
311,218,138178,1,10,0:2:0:0:
396,379,138345,6,0,L|396:171,1,184.000003509522,6|0,3:2|0:0,0:0:0:0:
314,50,138845,2,0,P|259:43|223:48,1,92.0000017547608,10|0,0:2|0:0,0:0:0:0:
135,187,139178,1,2,3:2:0:0:
45,78,139345,1,0,3:0:0:0:
45,78,139428,1,0,3:0:0:0:
45,78,139512,1,8,0:2:0:0:
137,88,139678,1,0,3:0:0:0:
5,180,139845,5,4,3:2:0:0:
5,180,140012,2,0,P|-7:252|57:359,1,184.000003509522,0|0,3:0|3:0,0:0:0:0:
267,336,140512,1,8,0:2:0:0:
284,351,140845,1,0,3:0:0:0:
348,287,141012,2,0,P|354:219|342:96,1,184.000003509522,0|0,3:0|3:0,0:0:0:0:
457,110,141512,6,0,P|465:152|461:216,1,92.0000017547608,8|0,0:2|3:0,0:0:0:0:
242,117,141845,2,0,P|250:163|249:209,1,92.0000017547608,8|0,0:2|3:0,0:0:0:0:
63,123,142178,1,8,0:2:0:0:
63,123,142512,5,0,3:0:0:0:
171,39,142678,1,0,3:0:0:0:
159,213,142845,2,0,L|160:327,1,92.0000017547608,8|0,0:2|3:0,0:0:0:0:
33,111,143178,5,0,3:0:0:0:
198,21,143345,1,0,3:0:0:0:
185,229,143512,2,0,L|186:343,1,92.0000017547608,8|0,0:2|3:0,0:0:0:0:
31,227,143845,5,8,0:2:0:0:
233,117,144012,1,8,0:2:0:0:
207,120,144512,5,8,0:2:0:0:
409,230,144679,1,8,0:2:0:0:
413,234,145178,6,0,P|417:157|404:55,1,155.999992858887,6|0,3:2|0:0,0:0:0:0:
408,78,145512,2,0,P|355:75|295:79,1,103.999995239258,10|0,0:2|0:0,0:0:0:0:
145,14,145845,2,0,P|141:84|144:120,1,103.999995239258,2|0,3:2|0:0,0:0:0:0:
312,212,146178,2,0,P|293:159|239:217,1,155.999992858887,10|0,0:2|0:0,0:0:0:0:
234,206,146512,6,0,P|228:259|234:319,1,103.999995239258,2|0,3:2|0:0,0:0:0:0:
62,312,146845,2,0,P|66:260|60:208,1,103.999995239258,10|0,0:2|0:0,0:0:0:0:
136,3,147178,2,0,P|136:83|139:173,1,155.999992858887,2|0,3:2|0:0,0:0:0:0:
158,181,147512,1,10,0:2:0:0:
42,84,147678,1,2,0:2:0:0:
252,134,147845,6,0,P|328:144|422:121,1,155.999992858887,2|0,3:2|0:0,0:0:0:0:
428,97,148178,1,10,0:2:0:0:
325,19,148345,1,2,0:2:0:0:
229,141,148512,2,0,P|225:226|230:262,1,103.999995239258,2|0,3:2|0:0,0:0:0:0:
423,250,148845,2,0,P|426:198|421:146,1,103.999995239258,10|0,0:2|0:0,0:0:0:0:
228,36,149179,6,0,P|176:34|124:35,1,103.999995239258,2|0,3:2|0:0,0:0:0:0:
123,244,149512,2,0,P|174:245|226:244,1,103.999995239258,10|0,0:2|0:0,0:0:0:0:
57,86,149845,2,0,P|55:137|56:189,1,103.999995239258,2|0,3:2|0:0,0:0:0:0:
297,183,150178,2,0,P|298:131|297:79,1,103.999995239258,10|0,0:2|0:0,0:0:0:0:
174,19,150512,6,0,L|171:246,1,207.999990478516,2|8,3:2|0:2,0:0:0:0:
286,298,151012,1,0,0:0:0:0:
188,327,151178,1,2,3:2:0:0:
188,327,151345,1,0,3:0:0:0:
372,346,151512,2,0,P|379:290|361:238,1,103.999995239258,8|0,0:2|0:0,0:0:0:0:
445,84,151845,6,0,P|380:52|293:95,1,155.999992858887,2|0,3:2|0:0,0:0:0:0:
305,79,152178,2,0,L|305:198,1,103.999995239258,8|0,0:2|0:0,0:0:0:0:
190,38,152512,1,2,3:2:0:0:
190,38,152678,1,0,3:0:0:0:
113,169,152845,2,0,P|64:184|16:167,1,103.999995239258,8|0,0:2|0:0,0:0:0:0:
77,53,153178,5,2,3:2:0:0:
77,53,153345,1,0,3:0:0:0:
208,141,153512,2,0,P|211:195|206:252,1,103.999995239258,8|0,0:2|0:0,0:0:0:0:
94,351,153845,1,2,3:2:0:0:
94,351,154012,1,0,3:0:0:0:
257,349,154178,2,0,P|310:342|379:351,1,103.999995239258,8|0,0:2|0:0,0:0:0:0:
449,200,154512,6,0,P|427:195|400:199,1,35.9999989013672,8|0,0:2|3:0,0:0:0:0:
253,30,154845,2,0,P|242:49|239:77,1,35.9999989013672,8|0,0:2|3:0,0:0:0:0:
251,357,155178,2,0,P|256:336|252:308,1,35.9999989013672,8|0,0:2|3:0,0:0:0:0:
0,182,155512,6,0,P|68:205|211:176,1,180.000006866455,12|0,0:2|0:0,0:0:0:0:
174,194,155845,6,0,L|184:78,1,80,2|0,3:2|0:0,0:0:0:0:
291,6,156178,2,0,L|297:85,1,80,8|0,0:2|0:0,0:0:0:0:
367,231,156512,1,2,3:2:0:0:
367,231,156678,1,0,3:0:0:0:
490,134,156845,2,0,P|433:124|395:145,1,80,8|0,0:2|0:0,0:0:0:0:
272,184,157178,5,2,3:2:0:0:
272,184,157345,1,0,3:0:0:0:
334,311,157512,2,0,P|371:320|416:306,1,80,8|0,0:2|0:0,0:0:0:0:
248,175,157845,2,0,P|207:168|150:179,1,80,2|0,3:2|0:0,0:0:0:0:
206,341,158178,2,0,L|205:241,1,80,8|0,0:2|0:0,0:0:0:0:
101,115,158512,6,0,P|83:167|89:200,1,80,2|0,3:2|0:0,0:0:0:0:
333,193,158845,2,0,P|334:153|317:117,1,80,10|0,0:2|0:0,0:0:0:0:
208,11,159178,2,0,L|208:98,1,80,2|0,3:2|0:0,0:0:0:0:
206,341,159512,2,0,L|205:241,1,80,10|0,0:2|0:0,0:0:0:0:
463,214,159845,6,0,P|397:236|343:203,1,120,2|0,3:2|0:0,0:0:0:0:
333,193,160178,1,10,0:2:0:0:
409,0,160345,2,0,B|439:65|376:77|408:156,1,160,2|0,3:2|3:0,0:0:0:0:
258,233,160845,2,0,P|248:183|272:141,1,80,10|0,0:2|0:0,0:0:0:0:
389,338,161178,5,2,3:2:0:0:
389,338,161345,1,0,3:0:0:0:
234,319,161512,2,0,P|195:316|136:324,1,80,10|0,0:2|0:0,0:0:0:0:
45,188,161845,1,2,3:2:0:0:
45,188,162012,1,0,3:0:0:0:
1,291,162178,2,0,P|40:299|103:274,1,80,10|0,0:2|0:0,0:0:0:0:
153,74,162512,6,0,B|154:119|154:119|141:152|141:152|145:204,1,120,2|0,3:2|0:0,0:0:0:0:
162,215,162845,1,10,0:2:0:0:
69,102,163012,1,2,0:2:0:0:
237,178,163178,2,0,P|319:185|404:177,1,160,2|8,3:2|0:2,0:0:0:0:
315,92,163678,1,2,0:2:0:0:
274,270,163845,6,0,P|320:274|363:267,1,80,0|0,3:0|0:0,0:0:0:0:
165,119,164178,2,0,P|152:172|168:252,1,120,8|0,0:2|0:0,0:0:0:0:
161,236,164512,2,0,P|118:229|81:234,1,80,0|0,3:0|0:0,0:0:0:0:
262,101,164845,2,0,P|342:95|416:111,1,120,8|0,0:2|0:0,0:0:0:0:
381,100,165178,6,0,L|391:193,1,80,0|0,3:0|3:0,0:0:0:0:
396,189,165428,1,0,3:0:0:0:
403,198,165512,1,0,1:0:0:0:
484,116,165678,1,0,3:0:0:0:
476,277,165845,1,0,1:0:0:0:
440,294,165928,1,0,1:0:0:0:
400,299,166011,1,0,1:0:0:0:
361,292,166095,1,0,1:0:0:0:
327,272,166178,6,0,P|323:246|331:202,1,40,0|0,1:0|1:0,0:0:0:0:
244,180,166345,2,0,P|255:163|269:149,1,40,0|0,1:0|1:0,0:0:0:0:
169,270,166512,6,0,P|128:275|67:259,1,80,4|0,3:2|0:0,0:0:0:0:
129,59,166845,2,0,P|171:122|117:191,1,160,8|0,0:2|3:0,0:0:0:0:
57,126,167345,1,0,3:0:0:0:
214,99,167512,2,0,P|272:98|300:98,1,80,8|0,0:2|3:0,0:0:0:0:
309,262,167845,6,0,P|297:219|316:165,2,80,8|0|0,0:2|3:0|3:0,0:0:0:0:
492,188,168345,2,0,P|503:225|497:264,2,80,8|0|0,0:2|3:0|3:0,0:0:0:0:
388,49,168845,2,0,L|391:148,1,80,8|0,0:2|3:0,0:0:0:0:
397,358,169178,5,4,3:2:0:0:
395,249,169345,1,0,3:0:0:0:
292,321,169512,2,0,L|257:355,3,40,0|0|0|0,1:0|1:0|1:0|1:0,0:0:0:0:
230,262,169845,2,0,L|195:228,3,40,0|0|0|0,1:0|1:0|1:0|1:0,0:0:0:0:
176,330,170178,2,0,L|141:364,3,40,0|0|0|0,1:0|1:0|1:0|1:0,0:0:0:0:
110,254,170512,5,8,1:2:0:0:
110,224,170595,1,8,1:2:0:0:
111,194,170678,1,8,1:2:0:0:
112,164,170762,1,8,1:2:0:0:
113,134,170845,2,0,P|105:114|70:87,1,40,8|8,1:2|1:2,0:0:0:0:
190,53,171012,2,0,P|198:33|233:6,1,40,8|8,1:2|1:2,0:0:0:0:
280,102,171178,1,8,1:2:0:0:
280,131,171261,1,8,1:2:0:0:
281,161,171344,1,8,1:2:0:0:
282,191,171428,1,8,1:2:0:0:
283,221,171512,6,0,L|268:280,1,40,8|8,1:2|1:2,0:0:0:0:
198,242,171678,2,0,L|207:203,1,40,8|8,1:2|1:2,0:0:0:0:
368,208,171845,6,0,L|332:348,1,138.000002632141,6|0,3:2|0:0,0:0:0:0:
334,342,172178,2,0,P|292:338|235:342,1,92.0000017547608,8|0,0:2|0:0,0:0:0:0:
110,236,172512,1,2,3:2:0:0:
110,236,172678,1,0,3:0:0:0:
64,339,172845,2,0,P|112:349|162:331,1,92.0000017547608,8|0,0:2|0:0,0:0:0:0:
237,234,173178,5,2,3:2:0:0:
237,234,173345,1,0,3:0:0:0:
150,139,173512,2,0,P|104:132|49:143,1,92.0000017547608,8|0,0:2|0:0,0:0:0:0:
316,136,173845,2,0,P|355:131|424:141,1,92.0000017547608,2|0,3:2|0:0,0:0:0:0:
235,96,174178,2,0,L|237:278,1,138.000002632141,10|0,0:2|0:0,0:0:0:0:
237,234,174512,6,0,P|286:231|359:239,1,92.0000017547608,2|0,3:2|0:0,0:0:0:0:
408,379,174845,2,0,P|405:330|413:257,1,92.0000017547608,8|0,0:2|0:0,0:0:0:0:
491,171,175178,1,2,3:2:0:0:
491,171,175345,1,0,3:0:0:0:
400,138,175512,2,0,L|289:139,1,92.0000017547608,8|0,0:2|0:0,0:0:0:0:
487,84,175845,6,0,P|502:127|484:180,1,92.0000017547608,2|0,3:2|0:0,0:0:0:0:
304,45,176178,2,0,L|395:44,1,92.0000017547608,8|0,0:2|0:0,0:0:0:0:
404,231,176512,2,0,L|293:232,1,92.0000017547608,2|0,3:2|0:0,0:0:0:0:
191,119,176845,2,0,P|196:182|179:278,1,138.000002632141,10|0,0:2|0:0,0:0:0:0:
185,255,177178,6,0,P|135:260|80:252,1,92.0000017547608,2|0,3:2|0:0,0:0:0:0:
0,123,177512,2,0,P|50:118|105:126,1,92.0000017547608,8|0,0:2|0:0,0:0:0:0:
219,18,177845,1,2,3:2:0:0:
219,18,178012,1,0,3:0:0:0:
270,122,178178,2,0,L|270:224,1,92.0000017547608,8|0,0:2|0:0,0:0:0:0:
91,214,178512,6,0,L|91:122,1,92.0000017547608,2|0,3:2|0:0,0:0:0:0:
219,18,178845,2,0,P|265:12|331:22,1,92.0000017547608,8|0,0:2|0:0,0:0:0:0:
399,135,179178,1,2,3:2:0:0:
399,135,179345,1,0,3:0:0:0:
477,43,179512,2,0,L|482:210,1,138.000002632141,8|0,0:2|0:0,0:0:0:0:
481,180,179845,6,0,P|451:219|406:227,1,92.0000017547608,2|0,3:2|0:0,0:0:0:0:
234,157,180178,2,0,P|283:154|318:184,1,92.0000017547608,8|0,0:2|0:0,0:0:0:0:
386,355,180512,1,2,3:2:0:0:
386,355,180678,1,0,3:0:0:0:
251,257,180845,2,0,L|146:261,1,92.0000017547608,12|0,0:2|0:0,0:0:0:0:
6,341,181178,5,8,0:2:0:0:
66,269,181345,1,0,3:0:0:0:
2,361,181512,1,8,0:2:0:0:
0,205,181678,1,0,3:0:0:0:
146,287,181845,2,0,P|201:295|245:288,1,92.0000017547608,8|0,0:2|3:0,0:0:0:0:
194,28,182178,6,0,P|180:113|196:198,1,174.000005310059,12|0,0:2|0:0,0:0:0:0:
197,199,182512,6,0,L|297:198,1,92.0000017547608,0|0,3:0|0:0,0:0:0:0:
433,43,182845,2,0,L|424:91,3,46.0000008773804,0|0|0|0,1:0|1:0|1:0|1:0,0:0:0:0:
339,90,183178,2,0,L|348:138,3,46.0000008773804,0|0|0|0,1:0|1:0|1:0|1:0,0:0:0:0:
419,175,183512,2,0,L|410:223,3,46.0000008773804,0|0|0|0,1:0|1:0|1:0|1:0,0:0:0:0:
327,225,183845,5,8,1:2:0:0:
330,247,183928,1,8,1:2:0:0:
334,270,184011,1,8,1:2:0:0:
337,293,184095,1,8,1:2:0:0:
341,315,184178,5,8,1:2:0:0:
307,283,184261,1,8,1:2:0:0:
264,270,184344,1,8,1:2:0:0:
219,278,184428,1,8,1:2:0:0:
182,305,184512,2,0,P|177:333|180:353,3,46.0000008773804,8|8|8|8,1:2|1:2|1:2|1:2,0:0:0:0:
117,245,184845,2,0,P|89:240|69:243,3,46.0000008773804,8|8|8|8,1:2|1:2|1:2|1:2,0:0:0:0:
185,181,185178,6,0,P|194:126|189:56,1,120,6|0,3:2|0:0,0:0:0:0:
190,62,185512,2,0,L|287:63,1,80,10|0,0:2|0:0,0:0:0:0:
372,0,185845,1,2,3:2:0:0:
354,83,186012,1,2,3:2:0:0:
433,60,186178,2,0,P|472:57|529:59,1,80,8|2,0:2|0:2,0:0:0:0:
344,98,186512,6,0,P|324:162|334:213,1,120,2|0,3:2|0:0,0:0:0:0:
359,239,186845,2,0,P|303:231|275:242,1,80,10|0,0:2|3:0,0:0:0:0:
276,243,187095,1,0,1:0:0:0:
271,249,187178,1,0,3:0:0:0:
323,320,187345,1,0,3:0:0:0:
200,211,187512,2,0,P|192:261|201:301,1,80,10|0,0:2|0:0,0:0:0:0:
86,312,187845,6,0,P|105:249|89:149,1,160,2|8,3:2|0:2,0:0:0:0:
16,95,188345,1,0,3:0:0:0:
79,18,188512,1,0,3:0:0:0:
79,18,188678,1,0,3:0:0:0:
148,86,188845,2,0,P|183:90|234:85,1,80,8|0,0:2|0:0,0:0:0:0:
317,10,189178,6,0,P|304:81|317:175,1,160,0|8,3:0|0:2,0:0:0:0:
336,309,189678,1,2,3:2:0:0:
386,228,189845,1,2,3:2:0:0:
386,228,190012,1,2,3:2:0:0:
263,251,190178,2,0,P|219:249|167:245,1,80,10|0,0:2|0:0,0:0:0:0:
121,96,190512,6,0,P|112:138|114:192,1,80,2|0,3:2|0:0,0:0:0:0:
104,317,190845,1,8,0:2:0:0:
36,249,191012,1,0,3:2:0:0:
115,329,191178,2,0,P|159:334|197:330,1,80,0|0,3:0|0:0,0:0:0:0:
378,330,191512,2,0,P|334:335|296:331,1,80,10|0,0:2|0:0,0:0:0:0:
264,119,191845,6,0,P|275:186|253:264,1,120,2|0,3:2|0:0,0:0:0:0:
251,262,192178,2,0,P|297:247|340:260,1,80,8|0,0:2|3:0,0:0:0:0:
332,259,192428,1,0,1:0:0:0:
337,265,192512,1,0,3:0:0:0:
414,195,192678,1,0,3:0:0:0:
264,119,192845,2,0,L|156:122,1,80,8|0,0:2|0:0,0:0:0:0:
343,4,193178,6,0,B|314:83|375:84|333:172,1,160,2|8,3:2|0:2,0:0:0:0:
256,217,193678,1,2,3:2:0:0:
186,138,193845,2,0,P|145:134|96:144,1,80,2|0,3:2|3:0,0:0:0:0:
84,314,194178,1,8,0:2:0:0:
24,227,194345,6,0,L|146:228,1,120,14|0,0:2|0:0,0:0:0:0:
165,244,194678,1,8,0:2:0:0:
214,133,194845,2,0,L|217:50,1,80,0|0,3:0|3:0,0:0:0:0:
303,208,195178,1,8,0:2:0:0:
449,117,195345,1,0,3:0:0:0:
449,117,195428,1,0,3:0:0:0:
449,117,195512,2,0,P|437:173|484:227,1,120,12|0,0:2|0:0,0:0:0:0:
472,221,195845,6,0,P|420:217|380:222,1,80,2|0,3:2|0:2,0:0:0:0:
332,290,196178,1,10,0:2:0:0:
303,208,196345,1,0,3:0:0:0:
303,208,196428,1,0,3:0:0:0:
303,208,196512,2,0,P|301:166|303:128,1,80,2|0,3:2|3:2,0:0:0:0:
179,133,196845,2,0,P|180:172|178:212,1,80,10|0,0:2|0:0,0:0:0:0:
108,342,197178,6,0,P|160:325|227:349,1,120,2|0,3:2|0:0,0:0:0:0:
242,369,197512,2,0,L|242:289,1,80,10|0,0:2|3:0,0:0:0:0:
247,283,197762,1,0,1:0:0:0:
253,277,197845,1,0,3:0:0:0:
329,351,198012,1,0,3:0:0:0:
293,198,198178,2,0,P|248:190|205:204,1,80,10|0,0:2|0:0,0:0:0:0:
392,249,198512,6,0,P|418:206|409:95,1,160,2|8,3:2|0:2,0:0:0:0:
349,26,199012,1,0,3:0:0:0:
349,26,199095,1,0,3:0:0:0:
349,26,199178,2,0,L|249:24,1,80,0|0,3:0|3:0,0:0:0:0:
236,104,199512,2,0,L|136:102,1,80,8|0,0:2|0:0,0:0:0:0:
82,9,199845,6,0,B|89:60|89:60|74:83|74:83|82:157,1,120,0|0,3:0|0:0,0:0:0:0:
100,158,200178,2,0,P|97:212|58:243,1,80,8|0,0:2|3:0,0:0:0:0:
75,234,200428,1,0,1:0:0:0:
67,237,200512,1,2,3:2:0:0:
11,174,200678,1,2,3:2:0:0:
179,155,200845,2,0,P|220:152|277:159,1,80,10|0,0:2|3:0,0:0:0:0:
415,293,201178,6,0,P|368:311|354:224,1,160,2|8,3:2|0:2,0:0:0:0:
478,209,201678,1,0,3:2:0:0:
416,142,201845,2,0,P|373:138|319:145,1,80,0|0,3:0|3:0,0:0:0:0:
268,227,202178,2,0,P|311:231|365:224,1,80,10|0,0:2|0:0,0:0:0:0:
208,157,202512,6,0,P|178:209|193:279,1,120,2|0,3:2|0:0,0:0:0:0:
206,301,202845,2,0,P|155:290|115:301,1,80,8|0,0:2|3:0,0:0:0:0:
123,302,203095,1,0,1:0:0:0:
117,307,203178,1,0,3:0:0:0:
168,382,203345,1,0,3:0:0:0:
33,300,203512,1,8,0:2:0:0:
179,198,203678,6,0,P|265:194|375:205,1,160,12|0,0:2|3:0,0:0:0:0:
490,282,204178,2,0,P|495:320|489:366,1,80,8|0,0:2|3:0,0:0:0:0:
440,141,204512,2,0,P|452:100|483:71,1,80,8|0,0:2|3:0,0:0:0:0:
379,278,204845,2,0,P|346:287|295:277,1,80,12|0,0:2|0:0,0:0:0:0:
326,48,205178,6,0,L|326:192,1,120,8|0,0:2|0:0,0:0:0:0:
338,199,205512,1,0,3:0:0:0:
223,53,205678,2,0,L|223:197,1,120,8|0,0:2|0:0,0:0:0:0:
235,204,206012,1,0,3:0:0:0:
120,39,206178,2,0,P|68:23|12:56,1,120,8|0,0:2|3:0,0:0:0:0:
13,53,206512,6,0,L|11:183,1,92.0000017547608,4|0,3:2|3:0,0:0:0:0:
114,292,206845,2,0,P|154:271|158:220,1,92.0000017547608,10|0,0:2|3:2,0:0:0:0:
157,219,207095,1,0,1:0:0:0:
153,210,207178,2,0,L|49:210,1,92.0000017547608,2|0,3:2|3:0,0:0:0:0:
38,381,207512,2,0,L|130:381,1,92.0000017547608,10|0,0:2|0:2,0:0:0:0:
264,213,207845,6,0,P|242:291|268:344,1,138.000002632141,2|0,3:2|0:0,0:0:0:0:
264,339,208178,2,0,L|373:338,1,92.0000017547608,10|0,0:2|3:0,0:0:0:0:
363,344,208428,1,0,1:0:0:0:
369,350,208512,2,0,P|392:308|381:258,1,92.0000017547608,2|0,3:2|3:0,0:0:0:0:
451,59,208845,2,0,P|418:107|448:190,1,138.000002632141,10|0,0:2|0:0,0:0:0:0:
436,179,209178,6,0,P|372:173|338:176,1,92.0000017547608,0|0,3:0|3:0,0:0:0:0:
256,26,209512,2,0,L|259:149,1,92.0000017547608,10|0,0:2|3:2,0:0:0:0:
263,125,209762,1,0,1:0:0:0:
268,132,209845,2,0,P|202:139|166:134,1,92.0000017547608,2|0,3:2|3:0,0:0:0:0:
93,19,210178,2,0,L|92:134,1,92.0000017547608,10|0,0:2|0:0,0:0:0:0:
88,264,210512,5,2,3:2:0:0:
22,190,210678,1,0,3:0:0:0:
169,224,210845,2,0,P|177:274|162:321,1,92.0000017547608,10|0,0:2|3:0,0:0:0:0:
160,320,211095,1,0,1:0:0:0:
153,326,211178,2,0,P|209:318|244:343,1,92.0000017547608,2|0,3:2|3:0,0:0:0:0:
326,238,211512,1,8,0:2:0:0:
418,344,211678,1,0,3:0:0:0:
418,344,211762,1,0,3:0:0:0:
418,344,211845,6,0,L|421:222,1,92.0000017547608,0|0,3:2|3:0,0:0:0:0:
495,82,212178,2,0,P|504:130|460:156,1,92.0000017547608,10|0,0:2|3:0,0:0:0:0:
465,156,212428,1,0,1:0:0:0:
455,157,212512,2,0,L|351:159,1,92.0000017547608,2|0,3:2|3:0,0:0:0:0:
352,2,212845,2,0,L|443:0,1,92.0000017547608,10|0,0:2|0:0,0:0:0:0:
278,87,213178,6,0,P|215:95|160:81,1,92.0000017547608,2|0,3:2|3:0,0:0:0:0:
80,196,213512,2,0,P|124:192|175:201,1,92.0000017547608,10|0,0:2|3:0,0:0:0:0:
178,204,213762,1,0,1:0:0:0:
185,208,213845,2,0,L|184:304,1,92.0000017547608,2|0,3:2|3:0,0:0:0:0:
338,361,214178,2,0,L|338:269,1,92.0000017547608,10|0,0:2|0:0,0:0:0:0:
290,52,214512,6,0,L|288:230,1,138.000002632141,0|0,3:0|0:0,0:0:0:0:
289,190,214845,2,0,P|341:172|395:193,1,92.0000017547608,10|0,0:2|3:0,0:0:0:0:
382,186,215095,1,0,1:0:0:0:
388,192,215178,2,0,L|393:86,1,92.0000017547608,2|0,3:2|3:0,0:0:0:0:
184,98,215512,2,0,L|188:189,1,92.0000017547608,10|0,0:2|0:0,0:0:0:0:
284,356,215845,5,2,3:2:0:0:
169,303,216012,1,0,3:0:0:0:
169,303,216095,1,0,3:0:0:0:
169,303,216178,2,0,P|121:302|63:312,1,92.0000017547608,10|0,0:2|3:0,0:0:0:0:
289,237,216512,2,0,P|289:188|285:138,1,92.0000017547608,10|0,0:2|3:0,0:0:0:0:
34,99,216845,2,0,P|111:72|165:114,1,138.000002632141,12|0,0:2|0:0,0:0:0:0:
154,98,217178,6,0,L|149:207,1,92.0000017547608,2|0,3:2|3:0,0:0:0:0:
245,52,217512,2,0,P|297:45|350:59,1,92.0000017547608,8|0,0:2|3:0,0:0:0:0:
370,212,217845,1,2,3:2:0:0:
370,212,218012,1,0,3:0:0:0:
429,91,218178,2,0,L|432:-1,1,92.0000017547608,8|0,0:2|0:0,0:0:0:0:
284,140,218512,5,2,3:2:0:0:
284,140,218678,1,0,3:0:0:0:
385,230,218845,2,0,L|483:226,1,92.0000017547608,8|0,0:2|0:0,0:0:0:0:
264,258,219178,2,0,P|253:318|262:350,1,92.0000017547608,2|0,3:2|0:0,0:0:0:0:
78,362,219512,2,0,P|118:315|91:231,1,138.000002632141,8|0,0:2|0:0,0:0:0:0:
104,244,219845,6,0,L|1:243,1,92.0000017547608,12|0,0:2|3:0,0:0:0:0:
175,167,220178,1,0,3:0:0:0:
227,277,220345,2,0,L|226:376,1,92.0000017547608,8|0,0:2|3:0,0:0:0:0:
289,182,220678,1,0,3:0:0:0:
166,144,220845,2,0,L|64:145,1,92.0000017547608,8|0,0:2|3:0,0:0:0:0:
293,72,221178,6,0,P|349:67|406:75,1,92.0000017547608,12|0,0:2|3:0,0:0:0:0:
444,226,221512,1,0,3:0:0:0:
502,126,221678,2,0,L|501:21,1,92.0000017547608,8|0,0:2|3:0,0:0:0:0:
346,162,222012,1,0,3:0:0:0:
437,256,222178,2,0,L|530:255,1,92.0000017547608,8|0,0:2|3:0,0:0:0:0:
321,169,222512,6,0,P|295:223|316:312,1,138.000002632141,12|0,0:2|0:0,0:0:0:0:
333,325,222845,1,0,1:0:0:0:
248,372,223012,1,0,1:0:0:0:
154,345,223178,1,0,1:0:0:0:
116,259,223345,1,0,1:0:0:0:
161,173,223512,1,0,1:0:0:0:
191,73,223679,1,0,1:0:0:0:
114,17,223845,6,0,P|68:10|16:22,1,92.0000017547608,0|0,1:0|1:0,0:0:0:0:
212,93,224178,2,0,P|261:97|309:89,1,92.0000017547608,0|0,1:0|1:0,0:0:0:0:
73,129,224512,2,0,P|68:177|75:230,1,92.0000017547608,0|0,1:0|1:0,0:0:0:0:
299,258,224845,2,0,P|250:254|202:262,1,92.0000017547608,0|0,1:0|1:0,0:0:0:0:
402,144,225178,5,4,3:2:0:0:
450,289,225345,1,0,1:0:0:0:
450,289,225428,1,0,1:0:0:0:
450,289,225512,1,0,1:0:0:0:
499,198,225678,1,0,1:0:0:0:
499,198,225761,1,0,1:0:0:0:
499,198,225845,2,0,L|505:130,3,46.0000008773804,0|0|0|0,1:0|1:0|1:0|1:0,0:0:0:0:
464,75,226178,2,0,L|459:29,3,46.0000008773804,0|0|0|0,1:0|1:0|1:0|1:0,0:0:0:0:
402,144,226512,5,8,1:2:0:0:
241,36,226678,1,8,1:2:0:0:
256,48,227178,5,8,1:2:0:0:
95,156,227344,1,8,1:2:0:0:
95,156,227845,6,0,P|123:155|140:156,1,32,2|0,0:2|0:0,0:0:0:0:
111,78,228178,6,0,P|103:157|110:263,1,155.999992858887,14|0,0:2|0:0,0:0:0:0:
106,233,228512,2,0,P|163:243|220:223,1,103.999995239258,2|0,3:2|0:0,0:0:0:0:
418,306,228845,2,0,P|368:291|295:311,1,103.999995239258,10|0,0:2|0:0,0:0:0:0:
331,98,229178,2,0,P|283:180|344:208,1,155.999992858887,2|0,3:2|0:0,0:0:0:0:
314,206,229512,2,0,P|369:210|444:203,1,103.999995239258,10|0,0:2|0:0,0:0:0:0:
401,5,229845,2,0,P|350:-4|222:20,1,155.999992858887,2|0,3:2|0:0,0:0:0:0:
223,21,230178,1,10,0:2:0:0:
328,93,230345,1,2,0:2:0:0:
215,213,230512,6,0,P|162:218|116:135,1,155.999992858887,2|0,3:2|0:0,0:0:0:0:
130,102,230845,1,10,0:2:0:0:
31,227,231012,1,2,0:2:0:0:
160,331,231178,2,0,P|239:337|335:331,1,155.999992858887,2|0,3:2|0:0,0:0:0:0:
315,333,231512,2,0,P|320:286|315:194,1,103.999995239258,10|0,0:2|0:0,0:0:0:0:
262,22,231845,6,0,P|252:72|262:134,1,103.999995239258,2|0,3:2|0:0,0:0:0:0:
259,362,232178,2,0,P|269:312|262:260,1,103.999995239258,10|0,0:2|0:0,0:0:0:0:
98,193,232512,2,0,P|148:203|200:196,1,103.999995239258,2|0,3:2|0:0,0:0:0:0:
420,188,232845,2,0,P|369:177|317:184,1,103.999995239258,10|0,0:2|0:0,0:0:0:0:
284,14,233178,6,0,P|238:36|266:127,1,155.999992858887,6|0,3:2|0:0,0:0:0:0:
258,123,233512,2,0,P|195:113|152:120,1,103.999995239258,8|0,0:2|0:0,0:0:0:0:
43,27,233845,1,2,3:2:0:0:
43,27,234012,1,0,3:0:0:0:
12,181,234178,2,0,L|16:297,1,103.999995239258,8|0,0:2|0:0,0:0:0:0:
263,232,234512,6,0,P|199:218|111:240,1,155.999992858887,6|0,3:2|0:0,0:0:0:0:
112,239,234845,2,0,L|108:104,1,103.999995239258,8|0,0:2|0:0,0:0:0:0:
258,0,235178,2,0,L|254:103,1,103.999995239258,2|0,3:2|0:0,0:0:0:0:
392,237,235512,2,0,L|396:101,1,103.999995239258,8|0,0:2|0:0,0:0:0:0:
148,39,235845,6,0,L|120:39,1,27.9999991455078,4|0,3:2|0:0,0:0:0:0:
123,281,236178,2,0,L|123:309,1,27.9999991455078,12|0,0:2|0:0,0:0:0:0:
364,345,236512,2,0,L|392:345,1,27.9999991455078,4|0,3:2|0:0,0:0:0:0:
389,103,236845,2,0,L|389:75,1,27.9999991455078,12|0,0:2|0:0,0:0:0:0:
139,185,237178,5,0,3:0:0:0:
325,202,237345,1,0,1:0:0:0:
340,212,237428,1,0,1:0:0:0:
355,222,237512,1,0,1:0:0:0:
254,66,237678,1,0,1:0:0:0:
251,84,237762,1,0,1:0:0:0:
249,102,237845,5,0,1:0:0:0:
233,76,237928,1,0,1:0:0:0:
210,58,238011,1,0,1:0:0:0:
182,48,238095,1,0,1:0:0:0:
153,49,238178,1,0,1:0:0:0:
125,60,238261,1,0,1:0:0:0:
104,80,238345,1,0,1:0:0:0:
90,107,238428,1,0,1:0:0:0:
86,135,238512,6,0,L|88:272,1,103.999995239258,6|0,3:2|0:0,0:0:0:0:
288,340,238845,2,0,P|237:331|187:345,1,103.999995239258,10|0,0:2|0:0,0:0:0:0:
47,344,239178,1,2,3:2:0:0:
47,344,239345,1,0,3:0:0:0:
188,250,239512,2,0,P|237:242|301:250,1,103.999995239258,10|0,0:2|0:0,0:0:0:0:
418,356,239845,5,0,3:0:0:0:
418,356,240012,1,0,3:0:0:0:
476,219,240178,2,0,L|480:100,1,103.999995239258,10|0,0:2|0:0,0:0:0:0:
365,13,240512,2,0,L|368:116,1,103.999995239258,2|0,3:2|0:0,0:0:0:0:
243,219,240845,2,0,L|239:100,1,103.999995239258,10|0,0:2|0:0,0:0:0:0:
38,32,241178,6,0,L|174:39,1,103.999995239258,2|0,3:2|0:0,0:0:0:0:
138,218,241512,2,0,L|2:211,1,103.999995239258,10|0,0:2|0:0,0:0:0:0:
37,119,241845,2,0,L|173:126,1,103.999995239258,2|0,3:2|0:0,0:0:0:0:
137,305,242179,2,0,L|1:298,1,103.999995239258,10|0,0:2|0:0,0:0:0:0:
214,186,242512,6,0,P|303:226|285:299,1,155.999992858887,2|0,3:2|0:0,0:0:0:0:
285,297,242845,1,10,0:2:0:0:
512,186,243012,2,0,P|422:226|440:299,1,155.999992858887,2|0,3:2|0:0,0:0:0:0:
441,297,243345,2,0,L|272:297,1,155.999992858887,12|0,0:2|0:0,0:0:0:0:
256,317,243678,1,12,0:2:0:0:
350,165,243845,5,2,3:2:0:0:
350,165,244012,1,0,3:0:0:0:
231,236,244178,2,0,P|174:242|117:226,1,103.999995239258,8|0,0:2|0:0,0:0:0:0:
77,78,244512,1,2,3:2:0:0:
77,78,244678,1,0,3:0:0:0:
13,219,244845,2,0,L|13:330,1,103.999995239258,8|0,0:2|0:0,0:0:0:0:
203,381,245178,6,0,P|137:346|197:306,1,155.999992858887,2|0,3:2|0:0,0:0:0:0:
177,302,245512,2,0,L|297:301,1,103.999995239258,8|0,0:2|0:0,0:0:0:0:
358,120,245845,2,0,P|327:147|367:246,1,155.999992858887,2|0,3:2|0:0,0:0:0:0:
359,243,246178,2,0,P|411:249|473:237,1,103.999995239258,8|0,0:2|0:0,0:0:0:0:
424,33,246512,5,0,3:0:0:0:
465,128,246678,1,0,1:0:0:0:
358,120,246845,1,0,1:0:0:0:
358,120,247011,1,0,1:0:0:0:
275,51,247178,1,0,1:0:0:0:
275,51,247344,1,0,1:0:0:0:
196,122,247512,2,0,P|186:179|200:226,1,103.999995239258,0|0,1:0|1:0,0:0:0:0:
135,34,247845,6,0,P|76:22|30:45,1,103.999995239258,0|0,1:0|1:0,0:0:0:0:
7,226,248178,1,0,1:0:0:0:
91,119,248345,1,0,1:0:0:0:
198,222,248512,5,0,1:0:0:0:
198,248,248595,1,0,1:0:0:0:
198,274,248678,1,0,1:0:0:0:
198,300,248762,1,0,1:0:0:0:
198,325,248845,2,0,P|193:360|175:395,1,51.999997619629,0|0,1:0|1:0,0:0:0:0:
102,360,249012,2,0,P|106:324|124:289,1,51.999997619629,0|0,1:0|1:0,0:0:0:0:
271,252,249178,6,0,P|325:239|378:255,1,103.999995239258,4|0,3:2|3:0,0:0:0:0:
512,120,249512,2,0,P|467:175|378:72,1,207.999990478516,8|0,0:2|3:0,0:0:0:0:
443,40,250012,1,0,3:0:0:0:
361,128,250178,2,0,P|304:138|253:98,1,103.999995239258,8|0,0:2|3:0,0:0:0:0:
91,71,250512,6,0,P|124:129|93:203,1,103.999995239258,8|0,0:2|3:0,0:0:0:0:
60,363,250845,1,0,3:0:0:0:
17,294,251012,2,0,P|74:274|116:304,1,103.999995239258,8|0,0:2|3:0,0:0:0:0:
309,275,251345,1,0,3:0:0:0:
354,198,251512,2,0,P|297:178|255:208,1,103.999995239258,8|0,0:2|3:0,0:0:0:0:
193,337,251845,6,0,B|227:241|148:234|190:135,1,207.999990478516,12|0,0:2|3:0,0:0:0:0:
108,293,252345,1,8,0:2:0:0:
266,201,252512,2,0,P|341:185|438:207,1,155.999992858887,0|0,3:0|0:0,0:0:0:0:
418,198,252845,2,0,P|430:248|421:299,1,103.999995239258,12|0,0:2|0:0,0:0:0:0:
344,254,253178,6,0,L|341:39,1,207.999990478516,8|0,0:2|3:0,0:0:0:0:
424,101,253678,1,8,0:2:0:0:
262,197,253845,2,0,P|185:202|159:124,1,155.999992858887,0|0,3:0|0:0,0:0:0:0:
155,138,254178,2,0,L|157:249,1,103.999995239258,12|0,0:2|0:0,0:0:0:0:
58,56,254512,6,0,L|55:159,1,103.999995239258,4|0,3:2|3:0,0:0:0:0:
1,359,254845,2,0,P|85:292|130:377,1,207.999990478516,8|0,0:2|3:0,0:0:0:0:
276,363,255345,1,0,3:0:0:0:
276,363,255512,2,0,P|255:318|282:255,1,103.999995239258,8|0,0:2|3:0,0:0:0:0:
454,311,255845,6,0,L|325:312,2,103.999995239258,8|0|0,0:2|3:0|3:0,0:0:0:0:
399,111,256345,2,0,L|400:240,2,103.999995239258,8|0|0,0:2|3:0|3:0,0:0:0:0:
210,174,256845,2,0,L|313:173,1,103.999995239258,8|0,0:2|0:0,0:0:0:0:
134,120,257178,2,0,P|115:171|133:225,1,103.999995239258,0|0,3:2|0:0,0:0:0:0:
205,59,257512,1,0,1:0:0:0:
173,36,257595,1,0,1:0:0:0:
136,27,257678,1,0,1:0:0:0:
98,34,257762,1,0,1:0:0:0:
66,56,257845,6,0,L|22:117,3,51.999997619629,0|0|0|0,1:0|1:0|1:0|1:0,0:0:0:0:
51,190,258178,2,0,L|7:251,3,51.999997619629,0|0|0|0,1:0|1:0|1:0|1:0,0:0:0:0:
90,305,258512,5,8,1:2:0:0:
123,324,258595,1,8,1:2:0:0:
161,329,258678,1,8,1:2:0:0:
199,320,258762,1,8,1:2:0:0:
230,297,258845,1,8,1:2:0:0:
263,277,258928,1,8,1:2:0:0:
301,272,259011,1,8,1:2:0:0:
339,281,259095,1,8,1:2:0:0:
370,304,259178,6,0,L|392:378,1,51.999997619629,8|8,1:2|1:2,0:0:0:0:
424,224,259345,2,0,L|491:260,1,51.999997619629,8|8,1:2|1:2,0:0:0:0:
407,121,259512,2,0,L|480:99,1,51.999997619629,8|8,1:2|1:2,0:0:0:0:
344,50,259678,2,0,L|380:-17,1,51.999997619629,8|8,1:2|1:2,0:0:0:0:
271,114,259845,6,0,L|266:219,1,92.0000017547608,4|0,3:2|0:0,0:0:0:0:
154,43,260178,2,0,L|158:134,1,92.0000017547608,8|0,0:2|0:0,0:0:0:0:
56,291,260512,1,0,3:0:0:0:
56,291,260678,1,0,3:0:0:0:
0,207,260845,2,0,P|39:189|87:196,1,92.0000017547608,8|0,0:2|0:0,0:0:0:0:
243,346,261178,6,0,P|199:359|196:249,1,184.000003509522,0|8,3:0|0:2,0:0:0:0:
322,157,261678,1,0,3:0:0:0:
331,257,261845,1,0,3:0:0:0:
331,257,262012,1,0,3:0:0:0:
225,158,262178,2,0,P|179:154|128:160,1,92.0000017547608,8|0,0:2|0:0,0:0:0:0:
316,69,262512,6,0,P|391:59|476:80,1,138.000002632141,0|0,3:0|0:0,0:0:0:0:
451,70,262845,2,0,P|457:118|452:174,1,92.0000017547608,8|0,0:2|0:0,0:0:0:0:
507,356,263178,1,0,3:0:0:0:
507,356,263345,1,0,3:0:0:0:
422,261,263512,2,0,P|371:254|308:262,1,92.0000017547608,8|0,0:2|0:0,0:0:0:0:
155,170,263845,6,0,P|145:237|152:314,1,138.000002632141,0|0,3:0|0:0,0:0:0:0:
150,306,264178,2,0,P|100:303|46:308,1,92.0000017547608,8|0,0:2|0:0,0:0:0:0:
238,352,264512,2,0,P|240:306|237:260,1,92.0000017547608,0|0,3:0|0:0,0:0:0:0:
59,165,264845,2,0,P|109:168|163:163,1,92.0000017547608,8|0,0:2|0:0,0:0:0:0:
379,77,265178,6,0,P|295:68|228:83,1,138.000002632141,4|0,3:2|0:0,0:0:0:0:
242,77,265512,2,0,L|241:170,1,92.0000017547608,8|0,0:2|0:0,0:0:0:0:
327,310,265845,2,0,L|327:218,1,92.0000017547608,0|0,3:0|0:0,0:0:0:0:
145,259,266178,2,0,L|236:259,1,92.0000017547608,8|0,0:2|0:0,0:0:0:0:
398,125,266512,6,0,L|218:123,1,138.000002632141,0|0,3:0|0:0,0:0:0:0:
260,123,266845,2,0,P|272:63|247:32,1,92.0000017547608,8|0,0:2|0:0,0:0:0:0:
94,53,267178,1,0,3:0:0:0:
94,53,267345,1,0,3:0:0:0:
155,152,267512,2,0,P|158:201|150:255,1,92.0000017547608,8|0,0:2|0:0,0:0:0:0:
7,334,267845,6,0,P|50:320|94:332,1,92.0000017547608,0|0,3:0|0:0,0:0:0:0:
287,333,268178,2,0,P|243:347|200:335,1,92.0000017547608,8|0,0:2|0:0,0:0:0:0:
243,153,268512,2,0,L|243:252,1,92.0000017547608,0|0,3:0|0:0,0:0:0:0:
82,195,268845,1,12,0:2:0:0:
205,70,269012,1,0,3:0:0:0:
326,206,269178,6,0,L|327:250,1,32,12|0,0:2|3:0,0:0:0:0:
464,60,269512,2,0,L|463:104,1,32,12|0,0:2|3:0,0:0:0:0:
205,70,269845,2,0,L|206:114,1,32,12|0,0:2|3:0,0:0:0:0:
325,307,270178,6,0,L|327:117,1,167.999994873047,12|0,0:2|0:0,0:0:0:0:
326,139,270512,6,0,P|271:133|207:142,1,92.0000017547608,6|0,3:2|0:0,0:0:0:0:
174,299,270845,2,0,P|180:243|171:179,1,92.0000017547608,8|0,0:2|0:0,0:0:0:0:
174,74,271178,1,0,3:0:0:0:
174,74,271345,1,0,3:0:0:0:
81,210,271512,2,0,P|78:255|84:301,1,92.0000017547608,10|0,0:2|0:0,0:0:0:0:
261,328,271845,6,0,P|278:257|253:175,1,138.000002632141,6|0,3:2|0:0,0:0:0:0:
263,194,272178,2,0,L|383:196,1,92.0000017547608,8|0,0:2|0:0,0:0:0:0:
449,309,272512,1,0,3:0:0:0:
449,309,272678,1,0,3:0:0:0:
501,168,272845,2,0,L|499:65,1,92.0000017547608,8|0,0:2|0:0,0:0:0:0:
274,27,273178,6,0,P|348:16|420:35,1,138.000002632141,6|0,3:2|0:0,0:0:0:0:
408,29,273512,2,0,L|408:136,1,92.0000017547608,8|0,0:2|0:0,0:0:0:0:
312,257,273845,1,0,3:0:0:0:
312,257,274012,1,0,3:0:0:0:
218,159,274178,2,0,P|168:150|115:159,1,92.0000017547608,10|0,0:2|0:0,0:0:0:0:
166,326,274512,6,0,P|170:280|169:218,1,92.0000017547608,6|0,3:2|0:0,0:0:0:0:
62,234,274845,2,0,P|57:279|59:342,1,92.0000017547608,10|0,0:2|0:0,0:0:0:0:
270,327,275178,2,0,P|274:281|273:219,1,92.0000017547608,2|0,3:2|0:0,0:0:0:0:
184,21,275512,2,0,P|165:81|173:164,1,138.000002632141,10|0,0:2|0:0,0:0:0:0:
171,155,275845,6,0,P|220:159|267:153,1,92.0000017547608,6|0,3:2|0:0,0:0:0:0:
353,0,276178,2,0,P|340:46|348:104,1,92.0000017547608,8|0,0:2|0:0,0:0:0:0:
418,211,276512,1,0,3:0:0:0:
418,211,276678,1,0,3:0:0:0:
498,114,276845,2,0,L|496:21,1,92.0000017547608,10|0,0:2|0:0,0:0:0:0:
340,169,277178,6,0,P|337:229|343:274,1,92.0000017547608,6|0,3:2|0:0,0:0:0:0:
492,325,277512,2,0,P|448:316|397:329,1,92.0000017547608,8|0,0:2|0:0,0:0:0:0:
250,257,277845,1,0,3:0:0:0:
250,257,278012,1,0,3:0:0:0:
417,220,278178,2,0,L|531:223,1,92.0000017547608,12|0,0:2|0:0,0:0:0:0:
331,88,278512,5,0,3:0:0:0:
252,145,278678,1,8,0:2:0:0:
252,145,278845,1,8,0:2:0:0:
197,41,279012,1,0,3:0:0:0:
81,174,279178,1,8,0:2:0:0:
81,174,279345,1,8,0:2:0:0:
89,62,279512,1,0,3:0:0:0:
171,239,279678,6,0,L|172:288,1,48,12|0,0:2|0:0,0:0:0:0:
