osu file format v14

[General]
AudioFilename: audio.mp3
AudioLeadIn: 0
PreviewTime: 64987
Countdown: 0
SampleSet: Soft
StackLeniency: 0.7
Mode: 0
LetterboxInBreaks: 0
WidescreenStoryboard: 1

[Editor]
Bookmarks: 9153,22487,33153,43820,54487,65153,75820,91820,102487,113153,123820,134487,145153,155820,165653,171820,185153,195820,206487,217153,227820,243820,259820,270487
DistanceSpacing: 1.1
BeatDivisor: 4
GridSize: 4
TimelineZoom: 2.1

[Metadata]
Title:Koukai no Uta
TitleUnicode:航海の唄
Artist:Sayuri
ArtistUnicode:さユり
Creator:Seto Kousuke
Version:Faito's Hard
Source:My Hero Academia
Tags:僕のヒーローアカデミア 4th Season 4thシーズン Boku no japanese anime full version melodic star riooo Ending payney faito
BeatmapID:2392931
BeatmapSetID:1105767

[Difficulty]
HPDrainRate:4
CircleSize:3.5
OverallDifficulty:6
ApproachRate:8
SliderMultiplier:1.5
SliderTickRate:1

[Events]
//Background and Video events
0,0,"Eri by riooo.jpg",0,0
//Break Periods
//Storyboard Layer 0 (Background)
//Storyboard Layer 1 (Fail)
//Storyboard Layer 2 (Pass)
//Storyboard Layer 3 (Foreground)
//Storyboard Layer 4 (Overlay)
//Storyboard Sound Samples

[TimingPoints]
1179,333.333333333333,4,2,1,70,1,0
11178,-100,4,2,1,70,0,0
22512,-117.647058823529,4,2,1,70,0,0
22678,-117.647058823529,4,2,2,45,0,0
33178,-105.263157894737,4,2,2,55,0,0
42512,-105.263157894737,4,2,1,60,0,0
43845,-105.263157894737,4,2,1,65,0,0
59845,-105.263157894737,4,2,1,55,0,0
63845,-105.263157894737,4,2,1,65,0,0
65178,-86.9565217391304,4,2,1,75,0,1
69428,-86.9565217391304,4,2,1,75,0,1
69512,-86.9565217391304,4,2,1,75,0,1
91845,-100,4,2,1,75,0,0
102512,-117.647058823529,4,2,1,75,0,0
105012,-117.647058823529,4,2,1,65,0,0
105178,-117.647058823529,4,2,2,50,0,0
110512,-105.263157894737,4,2,2,50,0,0
113178,-117.647058823529,4,3,1,65,0,0
121178,-105.263157894737,4,3,1,65,0,0
123512,-105.263157894737,4,2,1,65,0,0
145178,-86.9565217391304,4,2,1,75,0,1
171845,-100,4,2,1,65,0,0
185178,-117.647058823529,4,2,1,65,0,0
203178,-105.263157894737,4,2,1,65,0,0
222512,-86.9565217391304,4,2,1,65,0,0
226512,-86.9565217391304,4,2,1,75,0,0
227845,-86.9565217391304,4,2,1,55,0,0
228178,-86.9565217391304,4,2,1,80,0,1
259845,-100,4,2,1,80,0,0
270512,-100,4,2,1,80,0,0
279845,-100,4,2,1,50,0,0

[Colours]
Combo1 : 81,89,128
Combo2 : 193,125,162
Combo3 : 154,150,173
Combo4 : 248,31,106

[HitObjects]
356,384,9178,5,8,0:2:0:0:
465,335,9345,1,2,3:0:0:0:
465,335,9845,5,8,0:2:0:0:
356,286,10012,1,2,3:0:0:0:
356,286,10512,5,8,0:2:0:0:
465,237,10678,1,2,3:0:0:0:
352,79,11178,6,0,P|262:47|236:159,1,225,2|0,0:2|0:0,0:0:0:0:
288,204,11845,2,0,L|378:212,1,75,6|0,3:2|0:0,0:0:0:0:
361,293,12178,2,0,L|271:301,1,75,10|0,0:2|0:2,0:0:0:0:
204,316,12512,2,0,P|214:366|235:392,2,75,2|0|8,3:2|3:0|0:2,0:0:0:0:
201,233,13012,1,2,0:0:0:0:
123,261,13178,6,0,P|40:230|50:157,1,150,2|10,3:2|0:2,0:0:0:0:
183,94,13845,2,0,P|188:57|181:20,2,75,2|0|8,3:2|3:2|0:2,0:0:0:0:
236,156,14345,1,2,0:0:0:0:
298,101,14512,6,0,L|378:90,1,75,2|0,3:2|0:0,0:0:0:0:
423,191,14845,2,0,L|343:180,1,75,10|0,0:2|0:0,0:0:0:0:
447,110,15178,2,0,P|467:63|490:45,2,75,2|0|8,3:2|3:0|0:2,0:0:0:0:
422,192,15678,1,2,0:0:0:0:
479,261,15845,6,0,P|444:279|383:283,1,75,2|0,3:2|0:0,0:0:0:0:
329,316,16178,2,0,P|330:277|357:221,1,75,10|0,0:2|0:0,0:0:0:0:
422,192,16512,2,0,P|358:156|288:177,1,150,2|10,3:2|0:2,0:0:0:0:
167,324,17178,6,0,P|216:333|248:322,1,75,2|0,3:2|0:0,0:0:0:0:
238,240,17512,2,0,P|201:232|165:242,1,75,10|0,0:2|0:0,0:0:0:0:
77,292,17845,2,0,P|84:250|86:217,2,75,2|0|8,3:2|3:0|0:2,0:0:0:0:
31,359,18345,1,2,0:2:0:0:
0,288,18512,6,0,P|-2:251|2:214,1,75,2|0,3:2|0:0,0:0:0:0:
56,147,18845,2,0,P|59:110|55:73,1,75,10|0,0:2|0:0,0:0:0:0:
6,7,19178,2,0,B|86:16|51:49|146:51,1,150,2|8,3:2|0:2,0:0:0:0:
235,67,19678,1,2,0:2:0:0:
235,67,19845,6,0,P|271:59|308:63,1,75,2|0,3:2|3:0,0:0:0:0:
375,139,20178,2,0,P|400:166|415:200,1,75,14|0,0:2|0:0,0:0:0:0:
361,271,20512,2,0,P|350:306|328:336,1,75,0|0,3:0|3:0,0:0:0:0:
238,314,20845,2,0,L|189:293,3,37.5,0|0|0|0,1:2|1:2|1:2|1:2,0:0:0:0:
178,321,21178,5,8,0:2:0:0:
58,274,21345,1,2,3:0:0:0:
58,274,21845,5,8,0:2:0:0:
61,145,22012,1,2,3:0:0:0:
61,145,22512,6,0,L|131:136,1,63.7500012159348,4|2,3:2|2:0,0:0:0:0:
175,198,22845,2,0,L|254:208,1,63.7500012159348,2|2,2:0|2:0,0:0:0:0:
291,147,23178,1,2,2:0:0:0:
420,47,23512,1,2,2:0:0:0:
483,191,23845,6,0,L|481:258,1,63.7500012159348,2|0,2:0|0:0,0:0:0:0:
398,252,24178,2,0,L|404:318,1,63.7500012159348,2|2,2:0|2:0,0:0:0:0:
467,358,24512,2,0,P|414:346|337:356,1,127.50000243187,2|2,2:0|2:0,0:0:0:0:
198,355,25178,6,0,P|166:297|115:329,1,127.50000243187,2|0,2:0|0:0,0:0:0:0:
68,373,25678,1,2,2:0:0:0:
43,299,25845,2,0,P|51:240|50:162,1,127.50000243187,2|0,2:0|0:0,0:0:0:0:
1,113,26345,1,2,2:0:0:0:
56,59,26512,6,0,L|131:52,1,63.7500012159348,2|0,2:0|0:0,0:0:0:0:
187,87,26845,2,0,L|261:99,2,63.7500012159348,2|2|2,2:0|0:2|2:0,0:0:0:0:
346,45,27512,1,10,2:0:0:0:
280,188,27845,5,2,3:2:0:0:
280,188,28012,2,0,P|285:259|278:321,1,127.50000243187,0|0,3:0|0:0,0:0:0:0:
345,366,28512,1,2,2:0:0:0:
467,298,28845,1,2,2:0:0:0:
368,208,29178,6,0,P|371:145|385:67,1,127.50000243187,2|0,2:0|0:0,0:0:0:0:
258,171,29845,2,0,B|186:172|214:132|142:128,1,127.50000243187,2|2,2:0|2:0,0:0:0:0:
52,61,30512,6,0,B|42:154|42:154|60:257,1,191.250003647804,2|0,2:0|0:0,0:0:0:0:
135,245,31178,2,0,P|55:255|104:334,1,191.250003647804,2|0,2:0|0:0,0:0:0:0:
162,354,31845,2,0,L|237:366,2,63.7500012159348,0|0|0,3:0|3:0|3:0,0:0:0:0:
215,281,32345,1,0,1:0:0:0:
365,364,32678,1,2,1:3:0:0:
365,364,33178,6,0,P|389:319|470:281,1,142.49999619484,6|0,3:2|3:0,0:0:0:0:
508,193,33678,1,2,0:0:0:0:
508,193,33845,2,0,P|484:149|397:184,1,142.49999619484,2|0,3:2|3:0,0:0:0:0:
337,222,34345,1,2,0:0:0:0:
337,222,34512,6,0,L|238:221,1,71.2499980974198,2|0,3:2|0:0,0:0:0:0:
251,136,34845,2,0,L|179:135,1,71.2499980974198,2|0,3:2|0:0,0:0:0:0:
119,196,35178,2,0,P|37:220|51:284,1,142.49999619484,2|2,3:2|3:2,0:0:0:0:
69,343,35678,1,0,1:0:0:0:
142,299,35845,6,0,B|203:305|203:305|218:315|218:315|306:322,1,142.49999619484,2|0,3:2|3:0,0:0:0:0:
355,361,36345,1,2,0:0:0:0:
419,299,36512,2,0,B|358:305|358:305|343:315|343:315|255:322,1,142.49999619484,2|0,3:2|3:0,0:0:0:0:
320,168,37178,6,0,L|415:178,1,71.2499980974198,2|0,3:2|0:0,0:0:0:0:
385,84,37512,2,0,L|301:85,1,71.2499980974198,2|0,3:2|0:0,0:0:0:0:
232,153,37845,2,0,P|191:90|107:104,1,142.49999619484,2|2,3:2|3:2,0:0:0:0:
56,134,38345,1,0,1:0:0:0:
55,135,38512,6,0,B|35:234|82:185|71:272,1,142.49999619484,0|0,3:0|3:0,0:0:0:0:
226,267,39178,2,0,L|226:176,1,71.2499980974198,2|0,3:2|0:0,0:0:0:0:
311,206,39511,2,0,L|311:134,1,71.2499980974198,2|0,3:2|0:0,0:0:0:0:
390,100,39845,6,0,P|437:143|431:233,1,142.49999619484,2|0,3:2|3:2,0:0:0:0:
307,327,40512,2,0,P|271:330|216:338,1,71.2499980974198,2|0,3:2|0:0,0:0:0:0:
156,365,40845,1,0,1:0:0:0:
5,283,41178,6,0,P|62:261|94:266,1,71.2499980974198,2|0,3:2|0:0,0:0:0:0:
154,281,41512,1,0,3:0:0:0:
123,201,41678,2,0,L|124:118,1,71.2499980974198,0|0,1:0|3:0,0:0:0:0:
66,65,42012,1,2,0:2:0:0:
149,49,42178,2,0,P|187:41|235:58,1,71.2499980974198,2|0,1:2|0:0,0:0:0:0:
281,124,42512,6,0,P|304:45|315:30,1,71.2499980974198,0|0,3:0|3:0,0:0:0:0:
363,0,42845,1,0,3:0:0:0:
428,55,43012,2,0,P|440:88|444:123,1,71.2499980974198,0|4,1:0|3:0,0:0:0:0:
374,312,43512,1,4,1:2:0:0:
374,312,43845,6,0,P|316:287|288:287,1,71.2499980974198,6|0,3:2|0:0,0:0:0:0:
223,282,44178,2,0,P|226:222|233:194,1,71.2499980974198,10|0,0:2|0:0,0:0:0:0:
325,202,44512,2,0,P|295:155|194:134,1,142.49999619484,2|8,3:2|0:2,0:0:0:0:
157,188,45012,1,6,3:2:0:0:
157,188,45178,2,0,P|118:190|86:180,1,71.2499980974198,0|0,0:0|3:0,0:0:0:0:
19,119,45512,2,0,P|20:84|34:41,1,71.2499980974198,10|0,0:2|0:0,0:0:0:0:
96,0,45845,2,0,B|187:0|131:41|224:48,1,142.49999619484,2|10,3:2|0:2,0:0:0:0:
367,45,46512,5,6,3:2:0:0:
380,121,46678,1,2,0:2:0:0:
357,196,46845,2,0,P|315:197|271:190,1,71.2499980974198,10|0,0:2|0:0,0:0:0:0:
200,176,47178,1,2,3:2:0:0:
187,252,47344,1,2,0:2:0:0:
210,327,47511,2,0,P|252:328|296:321,1,71.2499980974198,10|4,0:2|3:2,0:0:0:0:
370,290,47845,6,0,B|458:294|407:339|498:339,2,142.49999619484,2|10|2,3:2|0:2|3:2,0:0:0:0:
376,133,48845,2,0,P|384:83|374:40,1,71.2499980974198,8|0,0:2|0:0,0:0:0:0:
296,109,49178,6,0,B|212:88|243:142|157:117,1,142.49999619484,6|8,3:2|0:2,0:0:0:0:
95,63,49678,1,2,0:0:0:0:
21,110,49845,2,0,B|9:173|9:173|15:188|15:188|5:249,1,142.49999619484,2|8,3:2|0:2,0:0:0:0:
62,333,50345,1,6,3:2:0:0:
62,333,50512,6,0,P|104:296|167:348,1,142.49999619484,2|8,0:2|0:2,0:0:0:0:
248,362,51012,1,0,0:0:0:0:
248,362,51178,2,0,P|307:356|349:361,1,71.2499980974198,2|0,3:2|3:0,0:0:0:0:
405,333,51512,2,0,P|399:297|401:262,1,71.2499980974198,10|0,0:2|0:0,0:0:0:0:
457,199,51845,5,4,3:2:0:0:
457,199,52012,1,0,3:0:0:0:
429,118,52178,2,0,L|345:108,1,71.2499980974198,8|0,0:2|3:0,0:0:0:0:
290,66,52512,1,0,3:0:0:0:
290,66,52678,2,0,L|213:71,1,71.2499980974198,8|0,0:2|3:0,0:0:0:0:
110,70,53012,6,0,P|68:138|83:212,1,142.49999619484,12|4,0:2|3:0,0:0:0:0:
77,207,53428,1,4,3:0:0:0:
81,216,53512,1,4,3:0:0:0:
127,290,53678,1,0,3:0:0:0:
212,253,53845,2,0,L|212:337,1,71.2499980974198,8|4,0:2|3:0,0:0:0:0:
286,366,54178,1,8,0:2:0:0:
266,180,54512,6,0,P|317:142|361:161,1,106.87499714613,6|0,3:2|0:0,0:0:0:0:
371,165,54845,2,0,L|380:72,1,71.2499980974198,10|0,0:2|0:0,0:0:0:0:
313,26,55178,1,2,3:2:0:0:
313,26,55345,1,0,0:0:0:0:
243,76,55512,2,0,L|167:71,1,71.2499980974198,10|4,0:2|3:2,0:0:0:0:
91,99,55845,6,0,P|74:130|82:164,1,71.2499980974198,2|0,3:2|3:0,0:0:0:0:
152,213,56178,2,0,L|223:217,1,71.2499980974198,10|0,0:2|0:0,0:0:0:0:
291,278,56512,1,2,3:2:0:0:
291,278,56678,1,2,3:2:0:0:
352,218,56845,2,0,L|439:217,1,71.2499980974198,10|2,0:2|0:0,0:0:0:0:
487,282,57178,6,0,P|468:340|385:343,1,142.49999619484,6|8,3:2|0:2,0:0:0:0:
311,367,57678,2,0,B|269:362|248:340|248:340|221:357|177:348,1,142.49999619484,2|0,0:2|3:0,0:0:0:0:
93,321,58178,1,8,0:2:0:0:
93,321,58345,2,0,B|74:245|121:269|107:182,1,142.49999619484,6|0,3:2|0:0,0:0:0:0:
86,103,58845,1,8,0:2:0:0:
86,103,59178,6,0,P|51:61|-24:54,2,106.87499714613,2|2|2,3:2|0:0|3:2,0:0:0:0:
171,109,59845,1,4,3:2:0:0:
238,265,60178,1,0,3:0:0:0:
327,111,60512,1,0,3:0:0:0:
406,262,60845,1,0,3:0:0:0:
512,220,61012,1,12,0:2:0:0:
512,220,61178,6,0,P|515:145|479:93,1,106.87499714613,0|0,3:0|0:0,0:0:0:0:
478,111,61512,2,0,L|405:103,1,71.2499980974198,0|0,3:0|0:0,0:0:0:0:
372,24,61845,2,0,L|299:16,1,71.2499980974198,0|0,3:0|0:0,0:0:0:0:
252,86,62178,2,0,L|179:78,1,71.2499980974198,0|0,3:0|0:0,0:0:0:0:
81,42,62512,5,0,3:0:0:0:
81,42,62678,1,0,3:0:0:0:
44,117,62845,2,0,L|51:208,1,71.2499980974198,8|0,0:2|3:0,0:0:0:0:
130,204,63178,1,0,3:0:0:0:
130,204,63344,1,0,3:0:0:0:
201,235,63511,2,0,L|194:326,1,71.2499980974198,8|0,0:2|3:0,0:0:0:0:
127,346,63845,5,8,0:2:0:0:
268,363,64012,1,8,0:2:0:0:
268,363,64511,5,8,0:2:0:0:
409,346,64678,1,8,0:2:0:0:
409,346,65178,6,0,P|392:297|416:250,1,86.2500016450882,6|0,3:2|0:0,0:0:0:0:
506,252,65512,2,0,B|394:246|459:187|332:192,1,172.500003290176,10|2,0:2|3:2,0:0:0:0:
280,153,66012,1,0,3:0:0:0:
250,232,66178,2,0,P|175:248|140:184,1,129.375002467632,10|0,0:2|0:0,0:0:0:0:
124,209,66512,6,0,L|31:201,1,86.2500016450882,2|0,3:2|3:0,0:0:0:0:
40,115,66845,2,0,L|125:107,1,86.2500016450882,10|0,0:2|0:0,0:0:0:0:
211,112,67178,2,0,P|232:30|328:28,1,172.500003290176,2|10,3:2|0:2,0:0:0:0:
403,26,67678,1,2,0:0:0:0:
452,105,67845,6,0,P|428:172|493:249,1,172.500003290176,2|10,3:2|0:2,0:0:0:0:
435,317,68345,1,2,0:2:0:0:
359,268,68512,2,0,P|289:273|269:288,1,86.2500016450882,2|0,3:2|0:0,0:0:0:0:
201,326,68845,2,0,L|201:219,1,86.2500016450882,8|2,0:2|0:2,0:0:0:0:
159,166,69178,6,0,P|119:179|88:230,1,86.2500016450882,2|0,3:2|0:0,0:0:0:0:
245,163,69512,2,0,P|285:176|316:227,1,86.2500016450882,10|0,0:2|0:0,0:0:0:0:
159,139,69845,2,0,P|119:126|88:75,1,86.2500016450882,2|0,3:2|0:0,0:0:0:0:
245,142,70179,2,0,P|285:129|316:78,1,86.2500016450882,10|0,0:2|0:0,0:0:0:0:
206,64,70512,5,2,3:2:0:0:
17,40,70845,2,0,B|1:84|1:84|6:137,1,86.2500016450882,8|0,0:2|0:0,0:0:0:0:
20,202,71178,2,0,L|119:191,1,86.2500016450882,2|0,3:2|3:0,0:0:0:0:
192,182,71512,2,0,P|213:255|185:321,1,129.375002467632,8|0,0:2|0:0,0:0:0:0:
184,326,71845,6,0,L|293:315,1,86.2500016450882,2|0,3:2|0:0,0:0:0:0:
312,383,72178,2,0,P|303:298|348:226,1,172.500003290176,8|2,0:2|3:2,0:0:0:0:
433,205,72678,1,0,0:0:0:0:
415,121,72845,2,0,P|371:122|330:132,1,86.2500016450882,8|0,0:2|0:0,0:0:0:0:
247,127,73178,6,0,L|124:107,1,86.2500016450882,2|0,3:2|3:0,0:0:0:0:
77,132,73512,2,0,P|60:171|73:211,1,86.2500016450882,10|0,0:2|0:0,0:0:0:0:
155,239,73845,2,0,L|240:225,1,86.2500016450882,2|0,3:2|3:0,0:0:0:0:
326,231,74178,2,0,P|342:270|329:310,1,86.2500016450882,10|0,0:2|0:0,0:0:0:0:
269,373,74512,5,8,0:2:0:0:
269,373,74678,1,0,3:0:0:0:
190,336,74845,2,0,L|83:331,1,86.2500016450882,8|0,0:2|3:0,0:0:0:0:
40,277,75178,2,0,P|70:246|112:239,1,86.2500016450882,8|0,0:2|3:0,0:0:0:0:
203,237,75512,1,12,0:2:0:0:
203,237,75845,6,0,P|217:173|217:140,1,86.2500016450882,2|0,3:2|0:0,0:0:0:0:
238,59,76178,2,0,P|268:89|303:113,1,86.2500016450882,10|0,0:2|0:0,0:0:0:0:
370,182,76512,2,0,P|328:193|289:211,1,86.2500016450882,2|0,3:2|3:0,0:0:0:0:
300,294,76845,2,0,P|360:278|405:321,1,129.375002467632,10|0,0:2|0:0,0:0:0:0:
414,344,77178,6,0,L|438:231,1,86.2500016450882,0|0,3:0|0:0,0:0:0:0:
505,199,77512,2,0,B|412:155|477:128|386:79,1,172.500003290176,10|0,0:2|3:0,0:0:0:0:
315,125,78012,1,0,3:0:0:0:
315,125,78178,2,0,P|252:119|199:112,1,86.2500016450882,10|0,0:2|0:0,0:0:0:0:
147,66,78512,6,0,P|113:119|68:137,1,86.2500016450882,2|0,3:2|0:0,0:0:0:0:
2,154,78845,2,0,P|36:179|54:218,1,86.2500016450882,10|0,0:2|0:0,0:0:0:0:
107,296,79178,2,0,P|124:257|159:231,1,86.2500016450882,2|0,3:2|0:0,0:0:0:0:
250,250,79512,2,0,L|343:260,1,86.2500016450882,10|0,0:2|0:0,0:0:0:0:
372,343,79845,6,0,B|339:260|339:260|369:182,1,172.500003290176,2|10,3:2|0:2,0:0:0:0:
474,160,80345,2,0,P|394:158|374:73,1,172.500003290176,2|0,3:2|3:0,0:0:0:0:
389,0,80845,1,10,0:2:0:0:
389,0,81178,6,0,L|475:3,1,86.2500016450882,0|0,3:0|0:0,0:0:0:0:
371,79,81512,2,0,L|284:82,1,86.2500016450882,10|0,0:2|0:0,0:0:0:0:
206,0,81845,2,0,L|293:3,1,86.2500016450882,0|0,3:0|0:0,0:0:0:0:
200,80,82178,2,0,B|138:77|138:77|133:73|133:73|72:69,1,129.375002467632,10|0,0:2|0:0,0:0:0:0:
47,66,82512,6,0,P|-3:102|14:209,1,172.500003290176,0|10,3:0|0:2,0:0:0:0:
72,262,83012,2,0,P|60:314|30:365,2,86.2500016450882,2|2|0,0:2|3:2|3:0,0:0:0:0:
110,188,83512,2,0,P|184:194|223:224,1,86.2500016450882,10|0,0:2|0:0,0:0:0:0:
223,273,83845,6,0,P|224:209|249:150,1,129.375002467632,0|0,3:0|0:0,0:0:0:0:
265,129,84178,2,0,L|379:139,1,86.2500016450882,10|0,0:2|0:0,0:0:0:0:
440,157,84512,1,0,3:0:0:0:
448,66,84678,1,0,3:0:0:0:
440,157,84845,2,0,L|430:271,1,86.2500016450882,10|0,0:2|0:0,0:0:0:0:
431,329,85178,5,0,3:0:0:0:
349,300,85345,2,0,L|348:232,2,43.1250008225441,0|0|2,3:0|3:0|1:2,0:0:0:0:
288,361,85678,1,0,3:0:0:0:
208,327,85845,2,0,L|148:307,3,43.1250008225441,0|0|0|0,1:0|1:0|1:0|1:0,0:0:0:0:
127,329,86178,2,0,L|86:342,3,43.1250008225441,0|0|0|0,1:0|1:0|1:0|1:0,0:0:0:0:
43,329,86512,6,0,B|32:243|32:243|42:157,1,172.500003290176,4|8,3:2|0:2,0:0:0:0:
151,24,87178,1,0,3:0:0:0:
151,24,87345,1,0,3:0:0:0:
213,83,87512,2,0,L|326:92,1,86.2500016450882,8|0,0:2|3:0,0:0:0:0:
384,104,87845,6,0,P|420:57|446:37,2,86.2500016450882,8|0|0,0:2|3:0|3:0,0:0:0:0:
416,184,88345,2,0,P|465:176|535:179,2,86.2500016450882,8|0|0,0:2|3:0|3:0,0:0:0:0:
368,255,88845,1,8,0:2:0:0:
368,255,89178,6,0,P|286:249|232:287,1,129.375002467632,0|0,3:0|0:0,0:0:0:0:
228,288,89512,2,0,L|158:303,3,43.1250008225441,0|0|0|0,1:0|1:0|1:0|1:0,0:0:0:0:
165,258,89845,2,0,L|96:235,3,43.1250008225441,0|0|0|0,1:0|1:0|1:0|1:0,0:0:0:0:
125,200,90178,2,0,L|77:146,3,43.1250008225441,0|0|0|0,1:0|1:0|1:0|1:0,0:0:0:0:
88,134,90512,6,0,P|115:93|223:85,1,129.375002467632,8|0,1:2|0:0,0:0:0:0:
227,91,90845,2,0,L|294:75,3,43.1250008225441,8|8|8|8,1:2|1:2|1:2|1:2,0:0:0:0:
304,121,91178,2,0,L|345:131,3,43.1250008225441,8|8|8|0,1:2|1:2|1:2|1:0,0:0:0:0:
381,91,91512,2,0,L|422:80,3,43.1250008225441,8|8|8|8,1:2|1:2|1:2|1:2,0:0:0:0:
458,99,91845,6,0,P|462:168|460:200,1,75,6|0,3:2|0:0,0:0:0:0:
384,203,92178,2,0,P|380:272|382:304,1,75,8|0,0:2|0:0,0:0:0:0:
443,339,92512,1,0,3:2:0:0:
443,339,92678,1,0,3:0:0:0:
356,365,92845,2,0,L|227:355,1,112.5,10|0,0:2|0:0,0:0:0:0:
221,354,93178,6,0,P|211:321|220:278,1,75,2|0,3:2|0:0,0:0:0:0:
296,253,93512,2,0,P|306:220|297:177,1,75,8|0,0:2|0:0,0:0:0:0:
222,148,93845,1,0,3:2:0:0:
222,148,94012,1,0,3:2:0:0:
145,178,94178,1,8,0:2:0:0:
145,178,94512,6,0,P|75:172|53:86,1,150,2|8,3:2|0:2,0:0:0:0:
75,27,95012,1,0,0:0:0:0:
138,79,95178,2,0,P|197:86|221:81,1,75,0|0,3:0|3:0,0:0:0:0:
299,42,95512,2,0,P|292:101|297:125,1,75,10|0,0:2|0:0,0:0:0:0:
384,163,95845,6,0,P|425:187|441:217,1,75,2|0,3:2|0:0,0:0:0:0:
430,299,96178,2,0,P|388:322|354:321,1,75,8|0,0:2|0:0,0:0:0:0:
289,270,96512,2,0,P|289:222|307:193,1,75,0|0,3:0|0:0,0:0:0:0:
368,241,96845,1,8,0:2:0:0:
227,352,97178,6,0,P|164:345|143:346,1,75,0|0,3:0|0:0,0:0:0:0:
100,271,97512,2,0,P|163:264|184:265,1,75,8|0,0:2|0:0,0:0:0:0:
243,206,97845,1,0,3:0:0:0:
243,206,98012,1,0,0:0:0:0:
166,159,98178,2,0,P|76:159|52:166,1,112.5,8|0,0:2|0:0,0:0:0:0:
34,175,98512,6,0,P|-3:137|31:57,1,150,0|8,3:0|0:2,0:0:0:0:
99,10,99012,1,0,0:0:0:0:
164,59,99178,2,0,P|226:64|256:70,1,75,0|0,3:0|3:0,0:0:0:0:
306,17,99512,1,8,0:2:0:0:
306,17,99845,6,0,P|323:86|325:111,1,75,0|0,3:0|3:0,0:0:0:0:
406,91,100178,2,0,P|389:160|387:185,1,75,12|0,0:2|0:0,0:0:0:0:
305,170,100512,2,0,P|322:239|324:264,1,75,0|0,3:0|3:0,0:0:0:0:
405,244,100845,2,0,P|388:313|386:338,1,75,0|0,1:2|3:0,0:0:0:0:
310,373,101178,5,8,0:2:0:0:
201,321,101345,1,8,0:2:0:0:
201,321,101845,5,8,0:2:0:0:
305,281,102012,1,8,0:2:0:0:
305,281,102512,6,0,B|247:315|202:278|202:278|147:297|147:297|110:278|59:290,1,255.000004863739,4|0,3:2|0:0,0:0:0:0:
62,289,103512,2,0,L|49:216,1,63.7500012159348,0|0,1:0|0:0,0:0:0:0:
1,167,103845,2,0,P|20:104|83:85,1,127.50000243187,0|0,3:0|1:0,0:0:0:0:
140,123,104345,1,0,0:0:0:0:
209,91,104512,6,0,P|204:35|183:-4,2,95.6250018239022,0|0|4,3:0|3:0|1:2,0:0:0:0:
277,135,105178,6,0,P|312:140|351:140,1,63.7500012159348,2|0,3:2|0:0,0:0:0:0:
430,143,105512,2,0,P|422:171|425:206,1,63.7500012159348,8|0,0:2|0:0,0:0:0:0:
443,284,105845,1,0,3:0:0:0:
443,284,106012,1,0,3:0:0:0:
360,256,106178,2,0,P|324:250|296:251,1,63.7500012159348,8|0,0:2|0:0,0:0:0:0:
214,312,106512,6,0,L|220:249,1,63.7500012159348,0|0,3:2|0:0,0:0:0:0:
122,277,106845,2,0,L|128:341,1,63.7500012159348,8|0,0:2|0:0,0:0:0:0:
27,320,107178,2,0,L|33:256,1,63.7500012159348,0|0,3:2|3:0,0:0:0:0:
79,185,107512,1,10,0:2:0:0:
268,194,107845,6,0,L|280:67,1,127.50000243187,2|8,3:2|0:2,0:0:0:0:
75,3,108512,6,0,L|154:9,1,63.7500012159348,2|0,3:2|3:0,0:0:0:0:
131,100,108845,2,0,P|165:96|199:93,1,63.7500012159348,10|0,0:2|0:0,0:0:0:0:
280,67,109178,1,2,3:2:0:0:
431,152,109512,1,8,0:2:0:0:
458,3,109845,2,0,L|463:82,1,63.7500012159348,0|0,3:0|3:0,0:0:0:0:
359,107,110178,2,0,L|362:41,1,63.7500012159348,12|0,0:2|0:0,0:0:0:0:
512,140,110512,6,0,P|452:176|458:251,1,142.49999619484,12|0,0:2|3:0,0:0:0:0:
489,319,111012,1,12,0:2:0:0:
408,311,111178,2,0,P|373:303|340:315,1,71.2499980974198,0|0,3:0|3:0,0:0:0:0:
293,377,111512,2,0,P|294:325|271:277,1,106.87499714613,12|0,0:2|0:0,0:0:0:0:
249,277,111845,6,0,B|211:277|188:289|188:289|178:276|178:276|147:283|115:280,1,142.49999619484,8|0,0:2|3:0,0:0:0:0:
38,241,112345,2,0,B|30:211|30:211|38:187|22:171|22:171|38:155|30:131|30:131|38:107,1,142.49999619484,8|0,0:2|3:0,0:0:0:0:
72,33,112845,2,0,P|122:25|169:45,1,71.2499980974198,8|0,0:2|0:0,0:0:0:0:
207,80,113178,5,6,3:2:0:0:
207,80,113345,1,0,0:0:0:0:
283,43,113512,2,0,L|349:47,1,63.7500012159348,10|0,0:2|0:0,0:0:0:0:
406,104,113845,1,2,0:2:0:0:
406,104,114012,1,0,0:0:0:0:
338,150,114179,2,0,L|272:146,1,63.7500012159348,8|0,0:2|0:0,0:0:0:0:
193,165,114512,6,0,P|182:194|182:226,1,63.7500012159348,2|0,0:2|0:0,0:0:0:0:
218,301,114845,1,10,0:2:0:0:
282,247,115012,1,0,0:0:0:0:
282,247,115095,1,0,0:0:0:0:
282,247,115178,2,0,L|348:243,1,63.7500012159348,2|0,0:2|0:0,0:0:0:0:
428,233,115512,2,0,P|461:317|453:345,1,95.6250018239022,8|0,0:3|0:0,0:0:0:0:
456,327,115845,5,2,0:2:0:0:
377,365,116012,1,0,0:0:0:0:
377,365,116178,2,0,L|294:360,1,63.7500012159348,8|0,0:3|0:0,0:0:0:0:
304,363,116428,1,0,0:0:0:0:
295,367,116512,1,2,0:2:0:0:
206,318,116678,1,0,0:0:0:0:
206,318,116845,2,0,L|136:309,1,63.7500012159348,8|0,0:3|0:0,0:0:0:0:
58,291,117178,5,2,0:2:0:0:
58,291,117345,1,0,0:0:0:0:
111,228,117512,2,0,L|113:155,1,63.7500012159348,10|0,0:2|0:0,0:0:0:0:
112,154,117762,1,0,0:0:0:0:
112,144,117845,1,2,0:2:0:0:
39,103,118012,1,0,0:0:0:0:
102,50,118178,2,0,L|179:48,1,63.7500012159348,10|0,0:2|0:0,0:0:0:0:
220,111,118512,6,0,P|240:73|332:47,1,127.50000243187,2|8,0:2|0:3,0:0:0:0:
400,90,119012,1,0,0:0:0:0:
400,90,119095,1,0,0:0:0:0:
400,90,119178,2,0,L|388:177,1,63.7500012159348,2|0,0:2|0:0,0:0:0:0:
471,175,119512,2,0,L|483:262,1,63.7500012159348,10|0,0:2|0:0,0:0:0:0:
441,312,119845,5,2,0:2:0:0:
441,312,120012,1,0,0:0:0:0:
375,260,120178,2,0,L|290:254,1,63.7500012159348,8|0,0:3|0:0,0:0:0:0:
302,258,120428,1,0,0:0:0:0:
293,261,120512,1,0,0:0:0:0:
232,326,120678,1,0,0:0:0:0:
199,245,120845,2,0,P|207:181|223:153,1,95.6250018239022,12|0,0:2|0:0,0:0:0:0:
232,132,121178,6,0,L|161:140,1,71.2499980974198,4|0,0:2|0:0,0:0:0:0:
65,176,121512,2,0,L|39:138,3,35.6249990487099,0|0|0|0,1:0|1:0|1:0|1:0,0:0:0:0:
59,109,121845,2,0,L|47:64,3,35.6249990487099,0|0|0|0,1:0|1:0|1:0|1:0,0:0:0:0:
77,46,122178,2,0,L|77:4,3,35.6249990487099,0|0|0|0,1:0|1:0|1:0|1:0,0:0:0:0:
128,6,122512,6,0,L|184:-2,3,35.6249990487099,0|0|0|0,1:0|1:0|1:0|1:0,0:0:0:0:
204,37,122845,2,0,L|260:45,3,35.6249990487099,0|0|0|0,1:0|1:0|1:0|1:0,0:0:0:0:
273,67,123178,2,0,L|370:56,1,71.2499980974198,0|0,1:0|3:0,0:0:0:0:
449,27,123512,6,0,P|456:75|434:149,1,106.87499714613,4|0,1:2|0:0,0:0:0:0:
423,139,123845,2,0,L|347:146,1,71.2499980974198,6|0,3:2|0:0,0:0:0:0:
357,231,124178,2,0,L|427:237,1,71.2499980974198,10|0,0:2|0:0,0:0:0:0:
483,309,124512,1,2,3:2:0:0:
483,309,124678,1,0,0:0:0:0:
413,358,124845,2,0,P|378:367|345:355,1,71.2499980974198,10|4,0:2|0:2,0:0:0:0:
267,320,125178,5,2,3:2:0:0:
267,320,125345,1,2,3:2:0:0:
185,346,125512,2,0,L|191:226,1,106.87499714613,10|0,0:2|0:0,0:0:0:0:
190,217,125845,2,0,P|226:220|261:211,1,71.2499980974198,2|0,3:2|0:0,0:0:0:0:
352,186,126178,1,10,0:2:0:0:
352,186,126512,6,0,P|351:149|344:115,1,71.2499980974198,6|2,3:2|0:2,0:0:0:0:
260,94,126845,1,10,0:2:0:0:
175,68,127012,2,0,L|192:-6,2,71.2499980974198,0|2|2,0:0|3:2|3:2,0:0:0:0:
92,89,127512,2,0,P|49:117|22:171,1,106.87499714613,10|0,0:2|0:0,0:0:0:0:
22,186,127845,6,0,B|89:197|89:197|98:204|98:204|161:213,1,142.49999619484,2|10,3:2|0:2,0:0:0:0:
247,194,128345,1,0,0:0:0:0:
247,194,128512,2,0,P|248:229|251:265,1,71.2499980974198,2|0,3:2|3:0,0:0:0:0:
302,332,128845,2,0,P|341:305|398:322,1,106.87499714613,8|0,0:2|0:0,0:0:0:0:
406,337,129178,6,0,P|412:266|431:168,1,142.49999619484,6|8,3:2|0:2,0:0:0:0:
443,111,129678,1,2,0:2:0:0:
443,111,129845,2,0,P|487:116|528:131,2,71.2499980974198,2|0|8,3:2|0:0|0:2,0:0:0:0:
359,127,130345,1,6,3:2:0:0:
359,127,130512,6,0,B|262:147|302:101|220:114,1,142.49999619484,2|8,0:2|0:2,0:0:0:0:
165,167,131012,1,2,0:0:0:0:
101,121,131178,2,0,L|48:113,3,35.6249990487099,0|0|0|0,1:0|1:0|1:0|1:0,0:0:0:0:
44,113,131512,2,0,P|31:147|29:182,1,71.2499980974198,8|0,1:2|0:0,0:0:0:0:
52,263,131845,6,0,L|34:342,2,71.2499980974198,12|0|0,0:2|3:0|3:2,0:0:0:0:
144,279,132345,2,0,L|126:358,2,71.2499980974198,12|0|0,0:2|3:0|3:2,0:0:0:0:
229,248,132845,2,0,L|245:318,1,71.2499980974198,12|0,0:2|3:2,0:0:0:0:
318,233,133178,2,0,L|333:302,1,71.2499980974198,4|4,3:2|3:0,0:0:0:0:
398,222,133512,1,4,3:0:0:0:
348,157,133678,1,0,3:0:0:0:
348,157,133762,1,0,3:0:0:0:
348,157,133845,2,0,L|361:86,1,71.2499980974198,8|4,0:2|3:0,0:0:0:0:
258,127,134178,2,0,L|271:56,1,71.2499980974198,8|2,0:2|0:2,0:0:0:0:
198,21,134512,6,0,P|138:26|113:49,1,71.2499980974198,6|0,3:2|0:0,0:0:0:0:
53,47,134845,2,0,L|60:128,1,71.2499980974198,10|0,0:2|0:0,0:0:0:0:
103,191,135178,2,0,P|152:172|205:174,1,106.87499714613,2|0,3:2|0:0,0:0:0:0:
225,183,135512,2,0,L|209:277,1,71.2499980974198,10|4,0:2|0:2,0:0:0:0:
143,297,135845,6,0,L|62:286,2,71.2499980974198,2|2|10,3:2|3:2|0:2,0:0:0:0:
216,340,136345,1,2,0:2:0:0:
283,290,136512,2,0,P|332:271|385:273,1,106.87499714613,2|0,3:2|0:0,0:0:0:0:
403,284,136846,2,0,L|387:378,1,71.2499980974198,10|0,0:2|0:0,0:0:0:0:
496,342,137178,6,0,P|485:267|493:189,1,142.49999619484,6|8,3:2|0:2,0:0:0:0:
420,143,137678,2,0,P|384:144|349:150,2,71.2499980974198,2|0|0,0:2|0:0|3:0,0:0:0:0:
483,87,138178,1,10,0:2:0:0:
414,35,138345,6,0,B|328:27|361:59|273:49,1,142.49999619484,6|0,3:2|0:0,0:0:0:0:
190,65,138845,2,0,L|184:155,1,71.2499980974198,10|0,0:2|0:0,0:0:0:0:
100,146,139178,2,0,L|111:230,1,71.2499980974198,2|0,3:2|3:0,0:0:0:0:
111,227,139428,1,0,3:0:0:0:
114,235,139512,2,0,P|149:245|184:248,1,71.2499980974198,8|0,0:2|3:0,0:0:0:0:
263,208,139845,5,4,3:2:0:0:
263,208,140012,2,0,P|336:177|352:232,1,142.49999619484,0|0,3:0|3:0,0:0:0:0:
403,306,140512,1,8,0:2:0:0:
403,306,140845,5,0,3:0:0:0:
311,297,141012,2,0,B|256:308|256:308|227:299|227:299|172:310,1,142.49999619484,0|0,3:0|3:0,0:0:0:0:
89,331,141512,2,0,P|67:296|75:265,1,71.2499980974198,8|0,0:2|3:0,0:0:0:0:
8,223,141845,2,0,P|13:182|39:163,1,71.2499980974198,8|0,0:2|3:0,0:0:0:0:
15,88,142178,2,0,P|45:60|77:62,1,71.2499980974198,8|0,0:2|0:0,0:0:0:0:
148,98,142512,5,0,3:0:0:0:
148,98,142678,1,0,3:0:0:0:
211,52,142845,2,0,P|268:78|280:85,1,71.2499980974198,8|0,0:2|3:0,0:0:0:0:
249,159,143179,5,0,3:0:0:0:
249,159,143345,1,0,3:0:0:0:
327,151,143512,2,0,P|363:202|370:214,1,71.2499980974198,8|0,0:2|3:0,0:0:0:0:
467,251,143845,5,8,0:2:0:0:
480,151,144012,1,8,0:2:0:0:
480,151,144512,5,8,0:2:0:0:
467,51,144679,1,8,0:2:0:0:
467,51,145178,6,0,P|418:12|360:33,1,129.375002467632,6|0,3:2|0:0,0:0:0:0:
348,56,145512,2,0,L|340:149,1,86.2500016450882,10|0,0:2|0:0,0:0:0:0:
249,144,145845,2,0,L|242:59,1,86.2500016450882,2|0,3:2|0:0,0:0:0:0:
152,38,146178,2,0,P|103:0|45:20,1,129.375002467632,10|0,0:2|0:0,0:0:0:0:
21,33,146512,6,0,L|13:126,1,86.2500016450882,2|0,3:2|0:0,0:0:0:0:
117,184,146845,2,0,L|109:99,1,86.2500016450882,10|0,0:2|0:0,0:0:0:0:
36,192,147178,2,0,P|77:259|185:227,1,172.500003290176,2|10,3:2|0:2,0:0:0:0:
238,214,147678,1,2,0:2:0:0:
163,254,147845,6,0,P|157:317|251:368,1,172.500003290176,2|10,3:2|0:2,0:0:0:0:
304,311,148345,1,2,0:2:0:0:
359,374,148512,2,0,P|401:378|440:361,1,86.2500016450882,2|0,3:2|0:0,0:0:0:0:
475,281,148845,2,0,L|475:194,1,86.2500016450882,10|0,0:2|0:0,0:0:0:0:
395,172,149178,6,0,P|355:185|324:236,1,86.2500016450882,2|0,3:2|0:0,0:0:0:0:
290,320,149512,2,0,P|277:280|226:249,1,86.2500016450882,10|0,0:2|0:0,0:0:0:0:
142,215,149845,2,0,P|182:202|213:151,1,86.2500016450882,2|0,3:2|3:0,0:0:0:0:
247,67,150178,2,0,P|260:107|311:138,1,86.2500016450882,10|0,0:2|0:0,0:0:0:0:
352,56,150512,6,0,P|435:64|491:138,1,172.500003290176,2|8,3:2|0:2,0:0:0:0:
395,275,151178,2,0,P|357:289|321:341,1,86.2500016450882,2|0,3:2|3:0,0:0:0:0:
240,322,151512,2,0,P|212:289|172:274,1,86.2500016450882,8|0,0:2|0:0,0:0:0:0:
105,328,151845,1,2,3:2:0:0:
105,328,152012,1,0,0:0:0:0:
33,281,152178,2,0,B|3:193|72:196|42:98,1,172.500003290176,8|2,0:2|3:2,0:0:0:0:
64,29,152678,1,0,3:0:0:0:
145,58,152845,2,0,P|185:45|231:60,1,86.2500016450882,8|0,0:2|0:0,0:0:0:0:
314,69,153178,6,0,L|437:49,1,86.2500016450882,2|0,3:2|3:0,0:0:0:0:
484,74,153512,2,0,P|501:113|488:153,1,86.2500016450882,8|0,0:2|0:0,0:0:0:0:
406,181,153845,2,0,L|321:167,1,86.2500016450882,2|0,3:2|3:0,0:0:0:0:
235,173,154178,2,0,P|219:212|232:252,1,86.2500016450882,8|0,0:2|0:0,0:0:0:0:
322,254,154512,5,8,0:2:0:0:
322,254,154678,1,0,3:0:0:0:
289,333,154845,2,0,L|202:328,1,86.2500016450882,8|0,0:2|3:0,0:0:0:0:
130,375,155178,2,0,P|99:345|92:303,1,86.2500016450882,8|0,0:2|3:0,0:0:0:0:
129,225,155512,1,12,0:2:0:0:
129,225,155845,6,0,P|91:171|67:148,1,86.2500016450882,2|0,3:2|0:0,0:0:0:0:
23,78,156178,2,0,P|65:76|106:67,1,86.2500016450882,8|0,0:2|0:0,0:0:0:0:
203,65,156512,2,0,P|182:103|168:144,1,86.2500016450882,2|0,3:2|3:0,0:0:0:0:
221,212,156845,2,0,P|282:215|318:164,1,129.375002467632,8|0,0:2|0:0,0:0:0:0:
328,139,157178,6,0,L|412:156,1,86.2500016450882,2|0,3:2|3:0,0:0:0:0:
476,220,157512,2,0,B|383:264|448:291|357:340,1,172.500003290176,8|2,0:2|3:2,0:0:0:0:
274,357,158012,1,0,0:0:0:0:
230,283,158178,2,0,P|187:278|144:274,1,86.2500016450882,8|0,0:2|0:0,0:0:0:0:
67,233,158512,6,0,P|101:180|146:162,1,86.2500016450882,2|0,3:2|0:0,0:0:0:0:
206,169,158845,2,0,P|172:144|154:105,1,86.2500016450882,10|0,0:2|0:0,0:0:0:0:
78,61,159178,2,0,P|140:73|194:41,1,129.375002467632,2|0,3:2|0:0,0:0:0:0:
202,15,159512,2,0,P|244:18|287:24,1,86.2500016450882,10|0,0:2|0:0,0:0:0:0:
382,11,159845,6,0,P|414:88|385:172,1,172.500003290176,2|10,3:2|0:2,0:0:0:0:
300,168,160345,2,0,B|386:168|386:168|451:224,1,172.500003290176,2|0,3:2|3:0,0:0:0:0:
418,304,160845,1,10,0:2:0:0:
418,304,161178,6,0,P|344:289|311:303,1,86.2500016450882,2|0,3:2|3:0,0:0:0:0:
233,384,161512,2,0,P|249:344|246:301,1,86.2500016450882,10|0,0:2|0:0,0:0:0:0:
165,299,161845,2,0,L|53:286,1,86.2500016450882,2|0,3:2|3:0,0:0:0:0:
11,245,162178,2,0,B|15:184|15:184|19:179|19:179|22:117,1,129.375002467632,10|0,0:2|0:0,0:0:0:0:
29,91,162512,6,0,P|107:66|164:124,1,172.500003290176,2|10,3:2|0:2,0:0:0:0:
221,190,163012,2,0,P|225:243|248:297,2,86.2500016450882,2|2|0,0:2|3:2|0:0,0:0:0:0:
284,131,163512,2,0,P|326:122|378:133,1,86.2500016450882,8|2,0:2|0:2,0:0:0:0:
449,159,163845,6,0,P|448:223|423:282,1,129.375002467632,0|0,3:0|0:0,0:0:0:0:
407,303,164178,2,0,L|321:295,1,86.2500016450882,8|0,0:2|0:0,0:0:0:0:
252,358,164512,1,0,3:0:0:0:
252,358,164678,1,0,0:0:0:0:
214,282,164845,2,0,L|128:274,1,86.2500016450882,8|0,0:2|0:0,0:0:0:0:
60,207,165178,5,0,3:0:0:0:
42,113,165345,2,0,L|-26:114,2,43.1250008225441,0|0|0,3:0|3:0|1:0,0:0:0:0:
120,59,165678,1,0,3:0:0:0:
172,140,165845,2,0,L|232:160,3,43.1250008225441,0|0|0|0,1:0|1:0|1:0|1:0,0:0:0:0:
248,128,166178,2,0,L|289:115,3,43.1250008225441,0|0|0|0,1:0|1:0|1:0|1:0,0:0:0:0:
331,127,166512,6,0,B|288:208|363:203|338:292,1,172.500003290176,4|8,3:2|0:2,0:0:0:0:
151,370,167178,1,0,3:0:0:0:
151,370,167345,1,0,3:0:0:0:
78,322,167512,2,0,L|84:236,1,86.2500016450882,8|0,0:2|3:0,0:0:0:0:
156,187,167845,6,0,P|203:223|223:249,2,86.2500016450882,8|0|0,0:2|3:0|3:0,0:0:0:0:
124,106,168345,2,0,P|75:114|5:111,2,86.2500016450882,8|0|0,0:2|3:0|3:0,0:0:0:0:
219,127,168845,1,8,0:2:0:0:
219,127,169178,6,0,P|301:133|355:95,1,129.375002467632,4|0,3:2|0:0,0:0:0:0:
383,105,169512,2,0,L|451:127,3,43.1250008225441,0|0|0|0,1:0|1:0|1:0|1:0,0:0:0:0:
422,163,169845,2,0,L|470:217,3,43.1250008225441,0|0|0|0,1:0|1:0|1:0|1:0,0:0:0:0:
427,232,170178,2,0,L|441:302,3,43.1250008225441,0|0|0|0,1:0|1:0|1:0|1:0,0:0:0:0:
427,308,170512,6,0,P|383:330|285:282,1,129.375002467632,8|8,1:2|1:2,0:0:0:0:
285,276,170845,2,0,L|218:256,3,43.1250008225441,8|8|8|8,1:2|1:2|1:2|1:2,0:0:0:0:
207,290,171178,2,0,L|165:302,3,43.1250008225441,8|8|8|8,1:2|1:2|1:2|1:2,0:0:0:0:
129,276,171512,2,0,L|87:263,3,43.1250008225441,8|8|8|8,1:2|1:2|1:2|1:2,0:0:0:0:
67,259,171845,6,0,P|48:162|68:129,1,112.5,6|0,3:2|0:0,0:0:0:0:
60,133,172178,2,0,L|160:148,1,75,8|0,0:2|0:0,0:0:0:0:
207,198,172512,1,2,3:2:0:0:
207,198,172678,1,0,3:0:0:0:
260,135,172845,6,0,P|324:146|378:213,1,150,8|2,0:2|3:2,0:0:0:0:
410,297,173345,1,0,3:0:0:0:
410,297,173512,2,0,L|335:306,1,75,8|0,0:2|0:0,0:0:0:0:
294,233,173845,1,2,3:2:0:0:
294,233,174012,1,0,0:0:0:0:
245,308,174178,2,0,L|148:289,1,75,10|0,0:2|0:0,0:0:0:0:
173,202,174512,6,0,P|207:135|262:144,1,112.5,2|0,3:2|0:0,0:0:0:0:
259,131,174845,2,0,L|255:43,1,75,8|0,0:2|0:0,0:0:0:0:
198,0,175179,1,2,3:2:0:0:
198,0,175345,1,0,3:0:0:0:
111,41,175512,2,0,B|123:111|71:115|91:191,1,150,8|2,0:2|3:2,0:0:0:0:
152,258,176012,5,0,0:0:0:0:
152,258,176179,2,0,L|262:265,1,75,8|0,0:2|0:0,0:0:0:0:
300,323,176512,1,2,3:2:0:0:
300,323,176679,1,0,0:0:0:0:
369,266,176845,1,10,0:2:0:0:
369,266,177178,6,0,P|385:199|410:148,1,112.5,2|0,3:2|0:0,0:0:0:0:
416,140,177512,2,0,L|312:134,1,75,8|0,0:2|0:0,0:0:0:0:
271,176,177845,1,2,3:2:0:0:
271,176,178012,1,0,3:0:0:0:
242,94,178178,6,0,B|180:90|180:90|166:95|166:95|93:88,1,150,8|2,0:2|3:2,0:0:0:0:
37,148,178678,1,0,0:0:0:0:
37,148,178845,2,0,P|26:226|30:243,1,75,8|0,0:2|0:0,0:0:0:0:
91,270,179178,2,0,L|187:254,1,75,2|0,3:2|3:0,0:0:0:0:
220,319,179512,2,0,L|316:303,1,75,8|0,0:2|0:0,0:0:0:0:
376,306,179845,6,0,P|456:356|463:364,2,75,2|0|8,3:2|0:0|0:2,0:0:0:0:
334,234,180345,2,0,P|338:151|412:162,1,150,0|0,0:0|3:0,0:0:0:0:
471,161,180845,2,0,L|473:71,1,75,12|0,0:2|0:0,0:0:0:0:
445,13,181178,5,8,0:2:0:0:
445,13,181345,1,0,3:0:0:0:
373,55,181512,2,0,L|272:49,1,75,8|0,0:2|3:0,0:0:0:0:
228,16,181845,1,8,0:2:0:0:
228,16,182012,1,0,3:0:0:0:
156,58,182179,2,0,L|55:52,1,75,12|0,0:2|0:0,0:0:0:0:
21,110,182512,6,0,P|2:160|38:199,1,112.5,0|0,3:0|0:0,0:0:0:0:
78,210,182845,2,0,L|129:200,3,37.5,0|0|0|0,1:0|1:0|1:0|1:0,0:0:0:0:
149,225,183178,2,0,L|200:235,3,37.5,0|0|0|0,1:0|1:0|1:0|1:0,0:0:0:0:
220,210,183512,2,0,L|271:200,3,37.5,0|0|0|0,1:0|1:0|1:0|1:0,0:0:0:0:
292,222,183845,6,0,P|327:257|333:267,3,37.5,8|8|8|8,1:2|1:2|1:2|1:2,0:0:0:0:
298,278,184178,2,0,P|298:328|295:339,3,37.5,8|8|8|8,1:2|1:2|1:2|1:2,0:0:0:0:
262,321,184512,2,0,P|226:356|216:362,3,37.5,8|8|8|8,1:2|1:2|1:2|1:2,0:0:0:0:
207,350,184845,2,0,L|102:343,1,75,8|8,1:2|1:2,0:0:0:0:
120,343,185095,1,8,1:2:0:0:
110,341,185178,6,0,P|104:271|127:212,1,127.50000243187,6|10,3:2|0:2,0:0:0:0:
187,173,185678,1,0,0:0:0:0:
187,173,185845,2,0,L|181:98,1,63.7500012159348,2|2,3:2|3:2,0:0:0:0:
272,121,186178,2,0,L|264:204,1,63.7500012159348,8|2,0:2|0:2,0:0:0:0:
340,241,186512,1,2,3:2:0:0:
340,241,186845,6,0,L|407:230,1,63.7500012159348,10|0,0:2|3:0,0:0:0:0:
412,233,187095,1,0,1:0:0:0:
420,236,187178,1,0,3:0:0:0:
478,303,187345,1,0,3:0:0:0:
410,358,187512,2,0,L|334:349,1,63.7500012159348,10|0,0:2|0:0,0:0:0:0:
284,305,187845,6,0,P|231:283|192:304,1,95.6250018239022,2|0,3:2|0:0,0:0:0:0:
192,315,188178,2,0,L|119:307,1,63.7500012159348,8|0,0:2|3:0,0:0:0:0:
55,333,188512,1,0,3:0:0:0:
55,333,188678,1,0,3:0:0:0:
22,256,188845,2,0,L|13:183,1,63.7500012159348,8|0,0:2|0:0,0:0:0:0:
39,116,189178,1,0,3:0:0:0:
39,116,189512,6,0,P|92:112|115:118,1,63.7500012159348,8|2,0:2|3:2,0:0:0:0:
153,173,189845,2,0,P|206:177|229:171,1,63.7500012159348,2|2,3:2|3:2,0:0:0:0:
267,116,190178,2,0,P|319:113|370:112,1,95.6250018239022,10|0,0:2|0:0,0:0:0:0:
384,116,190512,6,0,P|404:165|407:251,1,127.50000243187,2|8,3:2|0:2,0:0:0:0:
415,335,191012,1,0,3:2:0:0:
415,335,191178,2,0,L|334:315,1,63.7500012159348,0|0,3:0|0:0,0:0:0:0:
293,252,191512,2,0,L|232:273,1,63.7500012159348,10|0,0:2|0:0,0:0:0:0:
216,361,191845,6,0,P|191:309|125:314,1,127.50000243187,2|8,3:2|0:2,0:0:0:0:
45,320,192345,1,0,3:0:0:0:
45,320,192428,1,0,1:0:0:0:
45,320,192512,2,0,L|45:254,1,63.7500012159348,0|0,3:0|3:0,0:0:0:0:
125,232,192845,2,0,L|116:165,1,63.7500012159348,8|0,0:2|0:0,0:0:0:0:
163,93,193178,6,0,B|245:89|201:121|298:112,1,127.50000243187,2|8,3:2|0:2,0:0:0:0:
341,51,193678,1,2,3:2:0:0:
341,51,193845,2,0,P|360:78|367:111,1,63.7500012159348,2|0,3:2|3:0,0:0:0:0:
324,183,194178,1,8,0:2:0:0:
385,240,194345,2,0,L|447:247,1,63.7500012159348,14|0,0:2|0:0,0:0:0:0:
472,325,194678,2,0,B|410:329|410:329|397:327|397:327|340:330,1,127.50000243187,8|0,0:2|3:0,0:0:0:0:
276,376,195178,1,8,0:2:0:0:
232,312,195345,1,0,3:0:0:0:
232,312,195428,1,0,3:0:0:0:
232,312,195512,2,0,P|149:318|131:329,1,95.6250018239022,12|0,0:2|0:0,0:0:0:0:
121,325,195845,6,0,P|109:295|104:263,1,63.7500012159348,2|0,3:2|0:2,0:0:0:0:
161,212,196178,2,0,L|242:217,1,63.7500012159348,10|0,0:2|3:0,0:0:0:0:
298,178,196512,1,2,3:2:0:0:
298,178,196678,1,0,3:2:0:0:
224,129,196845,2,0,L|155:131,1,63.7500012159348,10|0,0:2|0:0,0:0:0:0:
90,162,197178,6,0,P|41:142|18:62,1,127.50000243187,2|10,3:2|0:2,0:0:0:0:
77,29,197678,1,0,3:0:0:0:
77,29,197762,1,0,1:0:0:0:
77,29,197845,2,0,B|148:33,1,63.7500012159348,0|0,3:0|3:0,0:0:0:0:
208,67,198178,2,0,B|279:71,1,63.7500012159348,10|0,0:2|0:0,0:0:0:0:
342,26,198512,5,2,3:2:0:0:
342,26,198678,1,0,0:0:0:0:
416,55,198845,2,0,B|430:122|430:122|416:197,1,127.50000243187,8|0,0:2|3:0,0:0:0:0:
367,241,199345,1,0,3:0:0:0:
367,241,199512,2,0,L|365:348,1,95.6250018239022,8|0,0:2|0:0,0:0:0:0:
361,357,199845,6,0,P|327:368|295:364,1,63.7500012159348,0|0,3:0|0:0,0:0:0:0:
269,284,200178,2,0,P|238:274|182:271,1,63.7500012159348,8|0,0:2|3:0,0:0:0:0:
197,273,200428,1,0,1:0:0:0:
188,275,200512,2,0,P|125:288|62:281,1,127.50000243187,2|10,3:2|0:2,0:0:0:0:
28,212,201012,1,0,3:0:0:0:
81,155,201178,6,0,L|76:42,1,95.6250018239022,2|0,3:2|0:0,0:0:0:0:
78,40,201512,2,0,P|108:30|139:31,1,63.7500012159348,8|0,0:2|3:2,0:0:0:0:
199,99,201845,1,0,3:0:0:0:
199,99,202012,1,0,3:0:0:0:
243,27,202178,2,0,P|275:25|306:34,1,63.7500012159348,10|0,0:2|0:0,0:0:0:0:
379,67,202512,6,0,P|375:136|380:205,1,127.50000243187,2|8,3:2|0:2,0:0:0:0:
423,268,203012,1,0,3:0:0:0:
423,268,203095,1,0,1:0:0:0:
422,267,203178,2,0,P|379:276|342:272,1,71.2499980974198,0|0,3:0|3:0,0:0:0:0:
296,202,203512,1,8,0:2:0:0:
296,202,203678,1,12,0:2:0:0:
232,259,203845,6,0,L|236:334,1,71.2499980974198,0|0,0:0|3:0,0:0:0:0:
140,280,204178,2,0,L|143:208,1,71.2499980974198,8|0,0:2|3:0,0:0:0:0:
215,159,204512,1,8,0:2:0:0:
215,159,204678,1,0,3:0:0:0:
134,131,204845,2,0,P|65:106|36:77,1,106.87499714613,12|0,0:2|0:0,0:0:0:0:
43,62,205178,6,0,P|88:15|176:4,1,142.49999619484,8|0,0:2|3:0,0:0:0:0:
235,58,205678,2,0,L|317:65,1,71.2499980974198,8|0,0:2|0:0,0:0:0:0:
386,14,206012,1,0,3:0:0:0:
386,14,206178,2,0,L|456:7,1,71.2499980974198,8|0,0:2|0:0,0:0:0:0:
465,13,206428,1,0,3:0:0:0:
473,19,206512,1,4,3:2:0:0:
461,227,206845,5,10,0:2:0:0:
401,155,207012,2,0,P|330:166|341:246,1,142.49999619484,0|0,3:2|3:0,0:0:0:0:
374,303,207512,1,10,0:2:0:0:
281,304,207678,2,0,B|219:295|219:295|202:298|202:298|140:287,1,142.49999619484,0|0,0:2|0:0,0:0:0:0:
50,252,208178,1,10,0:2:0:0:
131,207,208345,2,0,P|145:125|88:80,1,142.49999619484,0|0,3:0|3:0,0:0:0:0:
18,97,208845,1,10,0:2:0:0:
104,63,209012,6,0,B|191:62|145:108|263:105,1,142.49999619484,0|0,0:0|3:0,0:0:0:0:
322,70,209512,1,10,0:2:0:0:
250,127,209678,2,0,P|291:222|325:210,1,142.49999619484,0|0,3:2|3:0,0:0:0:0:
378,169,210178,1,10,0:2:0:0:
459,213,210345,2,0,P|485:300|431:325,1,142.49999619484,0|0,0:0|3:0,0:0:0:0:
374,368,210845,1,10,0:2:0:0:
298,313,211012,2,0,B|206:328|242:293|158:308,1,142.49999619484,0|0,3:0|3:0,0:0:0:0:
81,360,211512,1,8,0:2:0:0:
6,242,211678,1,0,3:0:0:0:
6,242,212178,5,10,0:2:0:0:
67,168,212345,1,0,3:0:0:0:
67,168,212428,1,0,1:0:0:0:
67,168,212512,2,0,P|141:174|151:175,1,71.2499980974198,2|0,3:2|3:0,0:0:0:0:
219,226,212845,1,10,0:2:0:0:
225,141,213012,6,0,P|242:96|332:83,1,142.49999619484,0|0,0:0|3:0,0:0:0:0:
415,110,213512,1,10,0:2:0:0:
343,167,213678,1,0,3:0:0:0:
343,167,213762,1,0,1:0:0:0:
343,167,213845,2,0,L|356:249,1,71.2499980974198,2|0,3:2|3:0,0:0:0:0:
423,299,214178,1,10,0:2:0:0:
350,343,214345,6,0,P|296:306|224:333,1,142.49999619484,0|0,0:0|0:0,0:0:0:0:
151,381,214845,1,10,0:2:0:0:
90,310,215012,1,0,3:0:0:0:
90,310,215095,1,0,1:0:0:0:
90,310,215178,2,0,L|93:236,1,71.2499980974198,2|0,3:2|3:0,0:0:0:0:
144,161,215512,1,10,0:2:0:0:
227,201,215678,6,0,P|281:120|306:116,1,106.87499714613,0|0,0:0|0:0,0:0:0:0:
304,119,216012,2,0,L|324:275,1,142.49999619484,0|0,3:0|3:0,0:0:0:0:
382,319,216512,2,0,L|455:328,1,71.2499980974198,10|0,0:2|3:0,0:0:0:0:
289,334,216845,2,0,L|221:358,1,71.2499980974198,12|0,0:2|0:0,0:0:0:0:
136,347,217178,6,0,P|124:313|126:278,1,71.2499980974198,2|0,3:2|3:0,0:0:0:0:
188,228,217512,2,0,L|276:223,1,71.2499980974198,8|0,0:2|3:0,0:0:0:0:
330,174,217845,1,2,3:2:0:0:
330,174,218012,1,0,3:0:0:0:
257,129,218178,2,0,L|169:134,1,71.2499980974198,8|0,0:2|0:0,0:0:0:0:
118,87,218512,5,2,3:2:0:0:
118,87,218678,1,0,3:0:0:0:
177,25,218845,2,0,L|248:20,1,71.2499980974198,8|0,0:2|0:0,0:0:0:0:
333,20,219178,2,0,P|347:69|344:100,1,71.2499980974198,2|0,3:2|0:0,0:0:0:0:
319,170,219512,2,0,L|415:162,1,71.2499980974198,8|0,0:2|0:0,0:0:0:0:
474,148,219845,6,0,P|497:247|452:268,1,142.49999619484,12|0,0:2|3:0,0:0:0:0:
413,317,220345,2,0,P|469:344|491:368,2,71.2499980974198,8|0|0,0:2|3:0|3:0,0:0:0:0:
335,354,220845,2,0,L|244:336,1,71.2499980974198,8|0,0:2|3:0,0:0:0:0:
187,288,221178,6,0,P|125:246|113:242,1,71.2499980974198,12|0,0:2|3:0,0:0:0:0:
53,205,221512,1,0,3:0:0:0:
132,165,221678,2,0,P|165:154|195:135,1,71.2499980974198,8|0,0:2|3:0,0:0:0:0:
266,85,222012,1,0,3:0:0:0:
265,179,222178,2,0,P|257:213|258:249,1,71.2499980974198,8|0,0:2|3:0,0:0:0:0:
345,253,222512,6,0,P|447:256|461:334,1,172.500003290176,12|0,0:2|1:0,0:0:0:0:
389,367,223012,1,0,1:0:0:0:
389,367,223178,1,0,1:0:0:0:
389,367,223345,1,0,1:0:0:0:
291,361,223512,2,0,P|217:347|185:351,1,86.2500016450882,0|0,1:0|1:0,0:0:0:0:
151,277,223845,6,0,P|124:312|83:344,1,86.2500016450882,0|0,1:0|1:0,0:0:0:0:
85,231,224178,2,0,P|40:237|-10:231,1,86.2500016450882,0|0,1:0|1:0,0:0:0:0:
73,152,224511,2,0,P|36:125|4:84,1,86.2500016450882,0|0,1:0|1:0,0:0:0:0:
119,88,224845,2,0,P|111:43|117:-8,1,86.2500016450882,0|0,1:0|1:0,0:0:0:0:
213,99,225178,5,4,3:2:0:0:
285,43,225345,2,0,L|288:-6,2,43.1250008225441,0|0|0,1:0|1:0|1:0,0:0:0:0:
347,107,225678,1,0,1:0:0:0:
347,107,225762,1,0,1:0:0:0:
347,107,225845,2,0,L|410:122,3,43.1250008225441,0|0|0|0,1:0|1:0|1:0|1:0,0:0:0:0:
432,121,226178,2,0,L|465:176,3,43.1250008225441,0|0|0|0,1:0|1:0|1:0|1:0,0:0:0:0:
470,183,226512,5,8,1:2:0:0:
437,299,226678,1,8,1:2:0:0:
437,299,227178,5,8,1:2:0:0:
329,234,227345,1,8,1:2:0:0:
329,234,227845,6,0,B|298:220|296:185|296:185|285:220|248:225,1,129.375002467632,2|0,0:2|0:0,0:0:0:0:
219,228,228178,6,0,P|142:233|115:243,1,86.2500016450882,14|0,0:2|0:0,0:0:0:0:
50,264,228512,2,0,P|58:221|57:178,1,86.2500016450882,2|0,3:2|0:0,0:0:0:0:
101,98,228845,2,0,P|138:146|200:139,1,129.375002467632,10|0,0:2|0:0,0:0:0:0:
213,126,229178,5,2,3:2:0:0:
238,43,229345,1,0,0:0:0:0:
297,105,229512,2,0,P|341:104|383:109,1,86.2500016450882,10|0,0:2|0:0,0:0:0:0:
470,110,229845,2,0,P|436:136|419:175,1,86.2500016450882,2|0,3:2|0:0,0:0:0:0:
382,243,230178,2,0,P|423:233|466:242,1,86.2500016450882,10|2,0:2|0:2,0:0:0:0:
421,332,230512,6,0,L|314:320,1,86.2500016450882,2|0,3:2|0:0,0:0:0:0:
265,245,230845,1,10,0:2:0:0:
259,331,231012,1,2,0:2:0:0:
181,367,231178,2,0,L|73:388,1,86.2500016450882,2|0,3:2|0:0,0:0:0:0:
39,318,231512,2,0,P|20:279|20:236,1,86.2500016450882,10|0,0:2|0:0,0:0:0:0:
66,165,231845,6,0,B|75:149|103:145|103:145|131:149|139:165,1,86.2500016450882,2|0,3:2|0:0,0:0:0:0:
169,246,232178,2,0,B|178:261|206:265|206:265|234:261|242:245,1,86.2500016450882,10|0,0:2|0:0,0:0:0:0:
271,164,232512,2,0,B|279:148|307:144|307:144|335:148|345:164,1,86.2500016450882,2|0,3:2|0:0,0:0:0:0:
373,245,232845,2,0,B|381:261|409:265|409:265|437:261|447:246,1,86.2500016450882,10|0,0:2|0:0,0:0:0:0:
502,180,233178,6,0,P|495:97|499:38,1,129.375002467632,6|0,3:2|0:0,0:0:0:0:
503,25,233512,2,0,P|459:26|417:33,1,86.2500016450882,8|0,0:2|0:0,0:0:0:0:
351,90,233845,1,2,3:2:0:0:
351,90,234012,1,0,3:0:0:0:
275,44,234178,2,0,P|226:29|191:34,1,86.2500016450882,8|0,0:2|0:0,0:0:0:0:
105,24,234512,6,0,P|157:78|138:170,1,172.500003290176,6|8,3:2|0:2,0:0:0:0:
97,241,235012,1,0,0:0:0:0:
97,241,235178,2,0,L|6:254,1,86.2500016450882,2|0,3:2|0:0,0:0:0:0:
14,340,235512,2,0,L|105:353,1,86.2500016450882,8|0,0:2|0:0,0:0:0:0:
185,360,235845,5,4,3:2:0:0:
247,300,236012,1,0,0:0:0:0:
324,337,236178,2,0,P|346:263|360:240,1,86.2500016450882,12|0,0:2|0:0,0:0:0:0:
432,227,236512,5,4,3:2:0:0:
370,167,236679,1,0,0:0:0:0:
293,204,236845,2,0,P|271:130|257:107,1,86.2500016450882,12|0,0:2|0:0,0:0:0:0:
209,58,237178,5,0,3:0:0:0:
123,73,237345,2,0,L|64:64,2,43.1250008225441,0|0|0,1:0|1:0|1:0,0:0:0:0:
184,151,237678,1,0,1:0:0:0:
184,151,237762,1,0,1:0:0:0:
184,151,237845,2,0,L|192:208,3,43.1250008225441,0|0|0|0,1:0|1:0|1:0|1:0,0:0:0:0:
147,224,238178,2,0,L|139:281,3,43.1250008225441,0|0|0|0,1:0|1:0|1:0|1:0,0:0:0:0:
155,306,238512,6,0,P|192:329|235:333,1,86.2500016450882,6|0,3:2|0:0,0:0:0:0:
311,258,238845,2,0,P|320:318|344:346,1,86.2500016450882,10|0,0:2|0:0,0:0:0:0:
408,382,239178,1,2,3:2:0:0:
408,382,239345,1,0,3:0:0:0:
482,337,239512,2,0,P|503:300|505:257,1,86.2500016450882,10|0,0:2|0:0,0:0:0:0:
436,193,239845,1,0,3:0:0:0:
436,193,240179,6,0,P|424:150|421:108,1,86.2500016450882,10|0,0:2|0:0,0:0:0:0:
398,3,240512,2,0,P|367:33|332:58,1,86.2500016450882,2|0,3:2|0:0,0:0:0:0:
262,120,240845,2,0,P|302:130|342:149,1,86.2500016450882,10|0,0:2|0:0,0:0:0:0:
354,229,241178,2,0,P|360:300|316:355,1,129.375002467632,2|0,3:2|0:0,0:0:0:0:
304,354,241512,2,0,L|204:347,1,86.2500016450882,10|0,0:2|0:0,0:0:0:0:
151,259,241845,2,0,P|152:301|134:340,1,86.2500016450882,2|0,3:2|0:0,0:0:0:0:
47,340,242178,2,0,P|29:301|30:258,1,86.2500016450882,10|0,0:2|0:0,0:0:0:0:
88,191,242512,6,0,B|192:176|132:127|228:102,1,172.500003290176,2|10,3:2|0:2,0:0:0:0:
269,26,243012,2,0,P|227:85|300:171,1,172.500003290176,2|12,3:2|0:2,0:0:0:0:
357,156,243512,2,0,L|461:146,1,86.2500016450882,0|12,0:0|0:2,0:0:0:0:
500,212,243845,6,0,P|519:305|503:352,1,129.375002467632,2|0,3:2|0:0,0:0:0:0:
494,351,244178,2,0,P|452:361|409:359,1,86.2500016450882,8|0,0:2|0:0,0:0:0:0:
328,356,244512,2,0,P|326:296|385:247,1,129.375002467632,2|0,3:2|0:0,0:0:0:0:
392,239,244845,2,0,P|354:217|313:203,1,86.2500016450882,8|0,0:2|0:0,0:0:0:0:
220,174,245178,6,0,B|202:278|247:237|232:343,1,172.500003290176,2|8,3:2|0:2,0:0:0:0:
148,366,245678,2,0,P|59:367|45:359,1,86.2500016450882,0|2,0:0|3:2,0:0:0:0:
20,300,246012,1,0,0:0:0:0:
20,300,246178,2,0,L|9:214,1,86.2500016450882,8|0,0:2|0:0,0:0:0:0:
6,127,246512,6,0,L|121:114,1,86.2500016450882,0|0,3:0|1:0,0:0:0:0:
131,193,246845,2,0,L|246:180,1,86.2500016450882,0|0,1:0|1:0,0:0:0:0:
292,139,247178,1,0,1:0:0:0:
292,139,247345,1,0,1:0:0:0:
355,205,247512,1,0,1:0:0:0:
355,205,247678,1,0,1:0:0:0:
417,145,247845,6,0,P|459:151|493:176,1,86.2500016450882,0|0,1:0|1:0,0:0:0:0:
490,263,248178,2,0,P|455:288|413:294,1,86.2500016450882,0|0,1:0|1:0,0:0:0:0:
329,341,248512,2,0,L|285:356,3,43.1250008225441,0|0|0|0,1:0|1:0|1:0|1:0,0:0:0:0:
253,322,248845,2,0,L|203:306,3,43.1250008225441,0|0|0|0,1:0|1:0|1:0|1:0,0:0:0:0:
164,319,249178,6,0,P|154:255|153:190,1,129.375002467632,4|0,3:2|0:0,0:0:0:0:
156,164,249512,2,0,P|116:180|73:180,1,86.2500016450882,8|0,0:2|0:0,0:0:0:0:
5,127,249845,1,0,3:0:0:0:
5,127,250012,1,0,3:0:0:0:
68,63,250178,2,0,L|192:75,1,86.2500016450882,8|0,0:2|3:0,0:0:0:0:
239,55,250512,6,0,P|316:44|348:152,1,172.500003290176,8|0,0:2|3:0,0:0:0:0:
304,176,251012,2,0,P|361:117|436:147,1,172.500003290176,8|0,0:2|3:0,0:0:0:0:
414,234,251512,1,8,0:2:0:0:
414,234,251678,1,0,3:0:0:0:
481,288,251845,6,0,B|381:281|426:331|315:314,1,172.500003290176,12|0,0:2|3:0,0:0:0:0:
249,376,252345,1,8,0:2:0:0:
249,376,252512,2,0,P|178:385|155:382,1,86.2500016450882,0|0,3:0|0:0,0:0:0:0:
156,269,252845,2,0,P|227:260|250:263,1,86.2500016450882,12|0,0:2|0:0,0:0:0:0:
74,337,253178,6,0,P|68:266|82:155,1,172.500003290176,8|0,0:2|3:0,0:0:0:0:
138,105,253678,1,8,0:2:0:0:
217,139,253845,2,0,B|198:174|198:174|153:183,1,86.2500016450882,0|0,3:0|0:0,0:0:0:0:
57,96,254178,2,0,B|62:56|62:56|102:33,1,86.2500016450882,12|0,0:2|0:0,0:0:0:0:
243,20,254512,6,0,B|343:1|316:60|408:46,2,172.500003290176,4|8|0,3:2|0:2|3:0,0:0:0:0:
280,108,255345,1,0,3:0:0:0:
280,108,255512,2,0,P|278:174|287:204,1,86.2500016450882,8|0,0:2|3:0,0:0:0:0:
345,252,255845,6,0,L|440:258,1,86.2500016450882,8|0,0:2|3:0,0:0:0:0:
495,315,256178,1,0,3:0:0:0:
424,364,256345,2,0,L|337:358,1,86.2500016450882,8|0,0:2|3:0,0:0:0:0:
274,299,256678,1,0,3:0:0:0:
203,348,256845,2,0,L|116:342,1,86.2500016450882,8|0,0:2|0:0,0:0:0:0:
42,298,257178,6,0,B|12:247|47:228|8:175,1,129.375002467632,0|0,3:2|0:0,0:0:0:0:
46,152,257512,2,0,L|94:142,3,43.1250008225441,0|0|0|0,1:0|1:0|1:0|1:0,0:0:0:0:
138,167,257845,2,0,L|186:174,3,43.1250008225441,0|0|0|0,1:0|1:0|1:0|1:0,0:0:0:0:
219,213,258178,2,0,L|262:236,3,43.1250008225441,0|0|0|0,1:0|1:0|1:0|1:0,0:0:0:0:
279,285,258512,6,0,L|330:288,3,43.1250008225441,8|8|8|8,1:2|1:2|1:2|1:2,0:0:0:0:
333,235,258845,2,0,L|382:220,3,43.1250008225441,8|8|8|8,1:2|1:2|1:2|1:2,0:0:0:0:
368,169,259178,2,0,L|409:138,3,43.1250008225441,8|8|8|8,1:2|1:2|1:2|1:2,0:0:0:0:
377,95,259512,2,0,L|405:51,3,43.1250008225441,8|8|8|8,1:2|1:2|1:2|1:2,0:0:0:0:
397,20,259845,6,0,P|360:17|323:20,1,75,4|0,3:2|0:0,0:0:0:0:
238,22,260178,2,0,L|239:96,1,75,8|0,0:2|0:0,0:0:0:0:
241,184,260512,1,0,3:0:0:0:
241,184,260678,1,0,3:0:0:0:
161,136,260845,2,0,P|105:139|58:169,1,112.5,8|0,0:2|0:0,0:0:0:0:
47,183,261178,6,0,L|64:269,1,75,0|0,3:0|0:0,0:0:0:0:
105,329,261512,2,0,P|142:330|174:313,1,75,8|0,0:2|3:0,0:0:0:0:
256,284,261845,1,0,3:0:0:0:
256,284,262012,1,0,3:0:0:0:
334,327,262178,1,8,0:2:0:0:
334,327,262512,6,0,P|342:252|376:186,1,150,0|8,3:0|0:2,0:0:0:0:
453,157,263012,1,0,0:0:0:0:
453,157,263178,2,0,L|460:64,1,75,0|0,3:0|3:0,0:0:0:0:
403,23,263512,2,0,P|334:35|333:88,1,112.5,8|0,0:2|0:0,0:0:0:0:
324,86,263845,2,0,L|243:82,1,75,0|0,3:0|0:0,0:0:0:0:
170,37,264178,2,0,P|96:33|41:81,1,150,8|0,0:2|3:0,0:0:0:0:
43,175,264678,1,0,0:0:0:0:
43,175,264845,2,0,L|151:159,1,75,8|0,0:2|0:0,0:0:0:0:
135,247,265178,6,0,P|109:295|123:348,1,112.5,4|0,3:2|0:0,0:0:0:0:
149,353,265512,2,0,L|253:357,1,75,8|0,0:2|0:0,0:0:0:0:
302,313,265845,1,0,3:0:0:0:
302,313,266012,1,0,0:0:0:0:
226,264,266178,2,0,L|228:189,1,75,8|0,0:2|0:0,0:0:0:0:
271,111,266512,5,0,3:0:0:0:
271,111,266678,1,0,0:0:0:0:
198,57,266845,2,0,L|103:54,1,75,8|0,0:2|0:0,0:0:0:0:
41,93,267178,1,0,3:0:0:0:
41,93,267345,1,0,3:0:0:0:
44,185,267512,2,0,P|99:217|164:193,1,112.5,8|0,0:2|0:0,0:0:0:0:
162,203,267845,6,0,P|199:203|236:210,1,75,0|0,3:0|0:0,0:0:0:0:
310,261,268178,2,0,P|310:223|317:186,1,75,8|0,0:2|0:0,0:0:0:0:
363,108,268512,2,0,P|326:108|289:101,1,75,0|0,3:0|0:0,0:0:0:0:
202,126,268845,2,0,P|209:89|209:51,1,75,12|0,0:2|3:0,0:0:0:0:
123,80,269178,6,0,L|19:71,1,75,12|0,0:2|3:0,0:0:0:0:
73,160,269512,2,0,L|-2:153,1,75,12|0,0:2|3:0,0:0:0:0:
105,245,269845,2,0,L|209:236,1,75,12|0,0:2|3:0,0:0:0:0:
140,330,270179,2,0,L|214:323,1,75,12|0,0:2|0:0,0:0:0:0:
312,309,270512,6,0,P|313:271|301:236,1,75,6|0,3:2|0:0,0:0:0:0:
240,181,270845,2,0,P|238:143|250:108,1,75,8|0,0:2|0:0,0:0:0:0:
322,66,271178,1,0,3:0:0:0:
322,66,271345,1,0,3:0:0:0:
402,104,271512,2,0,P|408:140|405:178,1,75,10|0,0:2|0:0,0:0:0:0:
472,227,271845,6,0,L|468:327,1,75,6|0,3:2|0:0,0:0:0:0:
420,369,272178,2,0,B|325:380|361:336|275:354,1,150,8|0,0:2|3:0,0:0:0:0:
196,320,272678,1,0,3:0:0:0:
113,337,272845,2,0,P|103:277|78:223,1,112.5,8|0,0:2|0:0,0:0:0:0:
83,211,273178,6,0,P|106:182|142:173,1,75,6|0,3:2|0:0,0:0:0:0:
220,205,273512,2,0,L|223:114,1,75,8|0,0:2|0:0,0:0:0:0:
303,178,273845,2,0,P|340:183|368:207,1,75,0|0,3:0|3:0,0:0:0:0:
431,268,274178,1,10,0:2:0:0:
431,268,274512,6,0,L|428:351,1,75,6|0,3:2|0:0,0:0:0:0:
330,350,274845,2,0,L|327:275,1,75,10|0,0:2|0:0,0:0:0:0:
229,270,275178,2,0,L|226:344,1,75,2|0,3:2|0:0,0:0:0:0:
128,355,275512,2,0,L|125:280,1,75,10|0,0:2|0:0,0:0:0:0:
113,188,275845,6,0,P|109:132|110:76,1,112.5,6|0,3:2|0:0,0:0:0:0:
130,71,276178,2,0,L|226:66,1,75,8|0,0:2|0:0,0:0:0:0:
267,132,276512,1,0,3:0:0:0:
267,132,276678,1,0,3:0:0:0:
316,65,276845,2,0,L|403:67,1,75,10|0,0:2|0:0,0:0:0:0:
478,121,277178,6,0,P|443:163|393:189,1,112.5,6|0,3:2|0:0,0:0:0:0:
375,198,277512,2,0,L|376:273,1,75,8|0,0:2|0:0,0:0:0:0:
417,357,277845,1,0,3:0:0:0:
417,357,278012,1,0,3:0:0:0:
332,381,278178,2,0,B|248:399|280:343|189:358,1,150,12|0,0:2|3:0,0:0:0:0:
94,335,278678,5,8,0:2:0:0:
103,260,278845,2,0,L|111:164,1,75,8|0,0:2|3:0,0:0:0:0:
190,188,279178,1,8,0:2:0:0:
197,113,279345,2,0,L|205:17,1,75,8|0,0:2|3:0,0:0:0:0:
288,18,279678,6,0,P|351:18|462:143,1,225,12|0,0:2|0:0,0:0:0:0:
