osu file format v14

[General]
AudioFilename: audio.mp3
AudioLeadIn: 0
PreviewTime: -1
Countdown: 0
SampleSet: Normal
StackLeniency: 0.7
Mode: 0
LetterboxInBreaks: 0
WidescreenStoryboard: 1

[Editor]
Bookmarks: 38,16558,28822,43641,48432
DistanceSpacing: 2.5
BeatDivisor: 4
GridSize: 8
TimelineZoom: 1.3

[Metadata]
Title:Heikousen ~TV Size~
TitleUnicode:平行線 ~TV Size~
Artist:Sayuri
ArtistUnicode:さユり
Creator:FreezyLemon
Version:Scum
Source:Kuzu no Honkai
Tags:
BeatmapID:1215400
BeatmapSetID:573747

[Difficulty]
HPDrainRate:6
CircleSize:4.3
OverallDifficulty:7.4
ApproachRate:9.3
SliderMultiplier:0.9
SliderTickRate:1

[Events]
//Background and Video events
0,0,"background.jpg",0,0
//Break Periods
//Storyboard Layer 0 (Background)
//Storyboard Layer 1 (Fail)
//Storyboard Layer 2 (Pass)
//Storyboard Layer 3 (Foreground)
//Storyboard Sound Samples

[TimingPoints]
140,405.405405405405,4,1,0,40,1,0
950,-166.666666666667,4,1,0,40,0,0
1660,-200,4,1,0,40,0,0
2977,-100,4,1,0,40,0,0
3383,-133.333333333333,4,1,0,40,0,0
4194,-100,4,1,0,40,0,0
11288,-166.666666666667,4,1,0,40,0,0
12910,-100,4,1,0,40,0,0
18788,-133.333333333333,4,1,0,40,0,0
19194,-166.666666666667,4,1,0,40,0,0
19599,-666.666666666667,4,1,0,40,0,0
22031,-100,4,1,0,40,0,0
22842,-50,4,1,0,40,0,0
23653,-100,4,1,0,40,0,0
25275,-105.263157894737,4,1,0,40,0,0
28956,314.13612565445,4,1,0,80,1,0
28956,-66.6666666666667,4,1,0,80,0,0
34595,-166.666666666667,4,1,0,80,0,0
38371,-100,4,1,0,80,0,0
39008,-166.666666666667,4,1,0,80,0,0
41820,-133.333333333333,4,1,0,80,0,0
43641,-66.6666666666667,4,1,0,80,0,0
45291,-57.1428571428571,4,1,0,80,0,0
46626,-50,4,1,0,80,0,0
49060,-57.1428571428571,4,1,0,80,0,0

[HitObjects]
316,236,140,6,0,P|251:223|185:167,1,135
272,72,950,2,0,P|331:85|353:103,1,80.9999975280763
316,236,1761,2,0,P|251:223|200:184,1,123.75
176,120,2977,2,0,P|164:88|160:64,1,45
205,189,3383,6,0,P|227:224|256:249,1,67.5000025749208
416,96,4194,2,0,P|397:170|360:228,1,135
267,313,5004,1,0,0:0:0:0:
200,264,6626,6,0,P|169:209|200:128,1,135
343,125,7437,2,0,P|310:179|225:193,1,135
152,72,8248,2,0,P|215:72|269:140,1,135
324,228,9058,2,0,P|350:255|389:264,1,67.5
458,203,9464,2,0,P|421:131|368:124,1,135
387,194,10275,1,2,0:0:0:0:
387,194,10680,6,0,P|406:245|386:298,1,112.5
279,294,11288,2,0,P|260:243|279:191,1,107.999996704102
448,282,12910,5,0,0:0:0:0:
328,278,13112,2,0,P|257:299|234:318,1,90
168,204,13923,6,0,P|248:174|285:143,1,135
380,27,14734,2,0,P|344:63|329:85,1,67.5
420,144,15139,2,0,P|455:107|470:85,1,67.5
392,260,15545,1,0,0:0:0:0:
328,164,15950,2,0,P|279:132|260:126,1,67.5
156,104,16356,1,0,0:0:0:0:
280,328,16761,6,0,P|328:288|335:279,1,67.5
232,264,17167,2,0,P|188:218|184:208,1,67.5
316,188,17572,2,0,P|356:140|360:130,1,67.5
184,80,17977,1,0,0:0:0:0:
184,80,18383,6,0,P|245:109|251:115,1,67.5
352,168,18788,2,0,P|300:188|296:192,1,50.6250019311906
192,216,19194,2,0,P|228:224|240:232,1,40.4999987640381
296,280,19599,2,0,P|268:288|256:296,1,43.8749986610413
136,104,22031,6,0,B|224:112|263:125|263:125|272:168,1,157.5
282,246,22842,2,0,L|290:302,1,45
342,186,23653,6,0,P|332:259|403:313,1,157.5
414,229,24464,2,0,P|423:155|352:101,1,157.5
256,92,25275,6,0,B|240:88|224:71|224:71|141:-15|-1:73|31:253|195:230|255:345,1,534.374985730648
64,64,28956,5,0,0:0:0:0:
64,64,29270,1,0,0:0:0:0:
152,96,29427,1,0,0:0:0:0:
239,133,29584,2,0,P|290:171|304:192,1,67.5000025749208
352,248,29898,2,0,P|381:304|384:329,1,67.5000025749208
291,173,30212,2,0,P|263:121|256:81,1,67.5000025749208
261,112,30683,1,0,0:0:0:0:
261,112,30997,6,0,P|193:186|158:207,1,135.000005149842
112,304,31469,2,0,P|164:294|180:285,1,67.5000025749208
304,216,31783,1,0,0:0:0:0:
304,216,32097,2,0,P|253:200|237:188,1,67.5000025749208
160,112,32411,1,0,0:0:0:0:
160,112,32725,6,0,P|231:110|282:133,1,101.250003862381
281,129,33039,1,0,0:0:0:0:
281,129,33353,2,0,L|392:184,1,101.250003862381
396,187,33668,1,0,0:0:0:0:
264,280,33982,5,0,0:0:0:0:
224,80,34139,1,0,0:0:0:0:
208,256,34296,1,0,0:0:0:0:
296,40,34453,1,0,0:0:0:0:
272,272,34610,2,0,P|258:316|248:328,1,53.9999983520508
288,192,35081,2,0,P|300:144|309:129,1,67.4999979400635
326,103,35552,1,0,0:0:0:0:
192,80,35866,5,0,0:0:0:0:
240,304,36024,1,0,0:0:0:0:
288,120,36181,1,0,0:0:0:0:
136,288,36338,1,0,0:0:0:0:
248,80,36495,1,0,0:0:0:0:
208,304,36652,1,0,0:0:0:0:
160,112,36809,2,0,L|152:80,1,26.9999991760254
153,85,37123,1,0,0:0:0:0:
208,272,37280,2,0,L|216:304,1,26.9999991760254
214,298,37594,5,0,0:0:0:0:
312,104,37751,1,0,0:0:0:0:
92,155,38380,6,0,P|57:158|15:134,1,67.5
81,60,38694,2,0,P|115:56|157:80,1,67.5
224,122,39008,2,0,P|259:150|284:186,1,80.9999975280763
325,264,39636,2,0,P|338:297|340:310,1,40.4999987640381
347,334,39950,1,0,0:0:0:0:
173,329,40264,6,0,P|180:304|191:281,1,40.4999987640381
197,262,40579,1,0,0:0:0:0:
197,262,40893,1,0,0:0:0:0:
256,160,41207,1,0,0:0:0:0:
416,72,41835,6,0,P|403:102|386:124,1,50.6250019311906
372,144,42149,1,0,0:0:0:0:
372,144,42463,2,0,P|349:172|322:194,2,67.5000025749208
372,144,43406,1,0,0:0:0:0:
152,128,44034,6,0,P|184:192|203:218,1,101.250003862381
220,239,44348,2,0,L|194:272,3,33.7500012874604
257,262,44662,2,0,L|283:229,3,33.7500012874604
288,283,44976,1,0,0:0:0:0:
318,298,45054,1,0,0:0:0:0:
350,307,45133,1,0,0:0:0:0:
383,311,45211,1,0,0:0:0:0:
416,306,45291,5,0,0:0:0:0:
407,267,45369,1,0,0:0:0:0:
395,230,45448,1,0,0:0:0:0:
378,194,45526,1,0,0:0:0:0:
356,161,45605,1,0,0:0:0:0:
329,133,45683,1,0,0:0:0:0:
295,113,45762,1,0,0:0:0:0:
257,101,45840,1,0,0:0:0:0:
219,94,45919,6,0,L|217:145,4,39.3750003755093
176,88,46233,2,0,L|166:37,4,39.3750003755093
140,110,46626,5,0,0:0:0:0:
124,152,46704,1,0,0:0:0:0:
121,199,46783,1,0,0:0:0:0:
131,246,46861,1,0,0:0:0:0:
156,291,46940,1,0,0:0:0:0:
195,322,47018,1,0,0:0:0:0:
241,342,47097,1,0,0:0:0:0:
297,347,47175,1,0,0:0:0:0:
353,332,47254,1,0,0:0:0:0:
406,301,47332,1,0,0:0:0:0:
448,248,47411,1,0,0:0:0:0:
472,178,47490,1,0,0:0:0:0:
486,99,47647,2,0,P|472:35|440:-8,1,90,0|0,2:0|0:0,0:0:0:0:
