osu file format v14

[General]
AudioFilename: audio.mp3
AudioLeadIn: 0
PreviewTime: 48750
Countdown: 1
SampleSet: Normal
StackLeniency: 0.7
Mode: 0
LetterboxInBreaks: 0
WidescreenStoryboard: 1

[Editor]
DistanceSpacing: 0.3
BeatDivisor: 4
GridSize: 4
TimelineZoom: 2.1

[Metadata]
Title:Heikousen
TitleUnicode:平行線
Artist:Sayuri
ArtistUnicode:さユり
Creator:rohasshiki
Version:Insane
Source:Kuzu no Honkai
Tags:
BeatmapID:1208407
BeatmapSetID:569811

[Difficulty]
HPDrainRate:7
CircleSize:4
OverallDifficulty:6
ApproachRate:9
SliderMultiplier:1.3
SliderTickRate:1

[Events]
//Background and Video events
0,0,"42c3979b-4d1a-4677-c6d2-f044e3ae356d.jpg",0,0
//Break Periods
//Storyboard Layer 0 (Background)
//Storyboard Layer 1 (Fail)
//Storyboard Layer 2 (Pass)
//Storyboard Layer 3 (Foreground)
//Storyboard Sound Samples

[TimingPoints]
920.003332099222,810.810810810811,4,1,0,30,1,0
25244,-200,4,1,0,30,0,0
25274,-200,4,1,0,30,0,0
28960,314.13612565445,4,1,0,50,1,0
28970,-100,4,3,0,50,0,0
39021,-133.333333333333,4,3,0,40,0,0
44042,-100,4,1,0,50,0,0
49063,-117.647058823529,4,1,0,60,0,1
86761,-117.647058823529,4,1,0,60,0,0
87389,314.13612565445,4,1,0,50,1,0

[HitObjects]
372,80,109,6,0,P|412:120|304:192,1,227.5
310,197,1730,2,0,P|378:221|292:280,1,227.5
294,282,3352,1,0,0:0:0:0:
220,216,3757,1,0,0:0:0:0:
220,108,4163,2,0,P|260:68|336:64,1,130
400,176,5379,5,0,0:0:0:0:
320,252,5784,1,0,0:0:0:0:
228,196,6190,2,0,L|212:228,1,32.5
228,196,6595,2,0,B|196:148|228:96,1,97.5
296,144,7406,2,0,P|324:172|328:236,1,97.5
256,272,8217,2,0,P|304:300|372:296,1,97.5
344,302,9028,1,0,0:0:0:0:
432,236,9433,6,0,P|436:200|384:120,1,130
260,100,10649,1,0,0:0:0:0:
128,184,11055,2,0,L|96:176,1,32.5
128,184,11460,2,0,P|156:236|232:260,1,130
408,244,12676,6,0,L|436:204,1,32.5
408,244,13082,2,0,P|352:256|312:244,1,97.5
240,216,13892,2,0,P|208:252|200:304,1,97.5
128,332,14703,2,0,P|116:288|120:248,1,65
152,184,15514,2,0,P|184:160|224:144,1,65
372,184,16325,5,0,0:0:0:0:
272,256,16730,1,0,0:0:0:0:
156,208,17136,1,0,0:0:0:0:
136,88,17541,2,0,P|180:64|204:60,1,65
316,72,18352,2,0,P|356:92|380:136,1,65
256,192,19163,1,0,0:0:0:0:
256,192,19568,6,0,P|296:136|404:244,1,260
192,284,22001,2,0,P|132:264|100:184,1,130
316,120,23622,2,0,P|368:140|400:220,1,130
108,284,25244,6,0,P|136:304|360:304,1,260
432,128,28960,6,0,P|384:100|352:92,1,65
288,120,29274,1,0,0:0:0:0:
228,192,29431,2,0,P|228:224|252:256,1,65
324,172,29745,2,0,P|312:132|284:108,1,65
204,84,30059,6,0,P|168:92|140:128,1,65
120,200,30373,1,0,0:0:0:0:
188,272,30530,1,0,0:0:0:0:
288,268,30687,2,0,P|312:236|296:136,1,130
212,108,31158,1,0,0:0:0:0:
140,172,31316,1,0,0:0:0:0:
168,264,31473,6,0,P|212:300|284:308,1,130
140,228,31944,1,0,0:0:0:0:
116,184,32101,2,0,P|112:144|148:56,1,130
172,184,32572,1,0,0:0:0:0:
208,208,32729,2,0,P|244:228|340:232,1,130
188,168,33200,1,0,0:0:0:0:
184,124,33357,2,0,P|204:76|240:60,1,65
296,52,33672,1,0,0:0:0:0:
72,248,33986,6,0,P|112:272|144:280,1,65
256,292,34300,1,0,0:0:0:0:
372,232,34457,1,0,0:0:0:0:
372,232,34535,1,0,0:0:0:0:
372,232,34614,2,0,P|384:200|364:108,1,130
284,176,35085,2,0,P|256:216|272:312,1,130
260,294,35556,5,0,0:0:0:0:
431,256,35713,1,0,0:0:0:0:
431,256,35792,1,0,0:0:0:0:
431,256,35870,2,0,P|375:232|343:232,1,65
232,184,36185,2,0,P|272:148|300:136,1,65
448,136,36499,6,0,P|428:176|400:196,1,65
320,252,36813,1,0,0:0:0:0:
192,236,36970,1,0,0:0:0:0:
96,160,37127,2,0,P|120:120|248:56,1,195
396,108,37755,6,0,L|440:168,1,65
434,160,38069,1,0,0:0:0:0:
300,148,38227,1,0,0:0:0:0:
300,148,38305,1,0,0:0:0:0:
300,148,38384,2,0,L|240:192,1,65
160,244,38698,2,0,P|192:260|224:260,2,65
364,76,39640,6,0,P|380:96|400:168,1,97.50000371933
156,228,40268,2,0,P|140:184|144:124,1,97.50000371933
412,256,40897,2,0,P|388:276|320:304,1,97.50000371933
276,156,41525,6,0,P|264:112|224:64,2,97.50000371933
100,184,42467,2,0,P|124:244|260:288,1,195.00000743866
364,256,43410,1,0,0:0:0:0:
112,176,44038,5,0,0:0:0:0:
236,88,44352,1,0,0:0:0:0:
271,97,44430,1,0,0:0:0:0:
300,110,44509,1,0,0:0:0:0:
329,126,44587,1,0,0:0:0:0:
356,152,44666,2,0,L|388:184,7,32.5
320,220,45295,2,0,L|284:184,7,32.5
384,252,45923,2,0,L|412:280,7,32.5
336,316,46551,5,0,0:0:0:0:
307,300,46629,1,0,0:0:0:0:
283,278,46708,1,0,0:0:0:0:
266,251,46786,1,0,0:0:0:0:
260,216,46865,2,0,L|260:180,3,32.5
336,144,47179,2,0,L|336:176,1,32.5
260,80,47336,2,0,L|260:112,1,32.5
336,64,47494,2,0,L|336:28,1,32.5
408,104,47651,1,0,0:0:0:0:
256,192,47729,12,0,48750,0:0:0:0:
148,148,49064,6,0,P|124:184|116:212,1,55.2500010538101
96,292,49378,1,0,0:0:0:0:
248,264,49535,1,0,0:0:0:0:
144,160,49692,2,0,P|160:116|176:100,1,55.2500010538101
280,84,50007,1,0,0:0:0:0:
388,152,50164,2,0,P|416:172|444:248,1,110.50000210762
272,304,50635,5,0,0:0:0:0:
448,264,50792,1,0,0:0:0:0:
340,152,50949,2,0,P|312:108|296:96,1,55.2500010538101
148,184,51263,2,0,P|176:208|200:224,1,55.2500010538101
416,144,51577,2,0,P|392:120|360:108,1,55.2500010538101
328,300,51891,2,0,P|352:324|388:336,1,55.2500010538101
264,148,52206,2,0,P|244:120|224:108,1,55.2500010538101
112,256,52520,2,0,P|148:284|176:288,1,55.2500010538101
416,232,52834,6,0,P|424:192|392:120,1,110.50000210762
216,96,53305,1,0,0:0:0:0:
352,272,53462,2,0,P|320:280|292:276,1,55.2500010538101
168,204,53776,1,0,0:0:0:0:
344,96,53933,1,0,0:0:0:0:
180,40,54090,6,0,P|152:64|116:132,1,110.50000210762
244,164,54562,1,0,0:0:0:0:
144,248,54719,2,0,P|180:280|260:288,1,110.50000210762
244,164,55190,1,0,0:0:0:0:
372,200,55347,2,0,P|372:136|340:80,1,110.50000210762
244,164,55818,1,0,0:0:0:0:
120,240,55975,6,0,P|152:272|172:280,1,55.2500010538101
344,88,56289,2,0,P|320:72|272:60,1,55.2500010538101
364,248,56603,2,0,P|388:260|420:268,1,55.2500010538101
168,256,56918,2,0,P|128:260|96:276,1,55.2500010538101
316,100,57232,2,0,P|332:76|336:44,1,55.2500010538101
176,56,57546,6,0,P|148:92|132:208,1,165.75000316143
372,224,58174,2,0,P|360:180|344:164,1,55.2500010538101
280,220,58488,1,0,0:0:0:0:
236,120,58645,1,0,0:0:0:0:
336,316,58802,1,0,0:0:0:0:
144,88,58959,1,0,0:0:0:0:
328,56,59117,6,0,P|360:72|416:128,1,110.50000210762
280,184,59588,1,0,0:0:0:0:
212,312,59745,2,0,P|180:284|144:216,1,110.50000210762
192,68,60216,1,0,0:0:0:0:
380,164,60373,2,0,P|352:180|316:184,1,55.2500010538101
80,252,60687,2,0,P|68:220|76:188,1,55.2500010538101
220,36,61001,2,0,P|256:40|288:60,1,55.2500010538101
224,260,61316,2,0,P|172:256|160:244,1,55.2500010538101
88,72,61630,6,0,P|120:88|144:108,1,55.2500010538101
324,200,61944,1,0,0:0:0:0:
68,168,62101,1,0,0:0:0:0:
256,288,62258,2,0,P|304:312|360:304,1,110.50000210762
460,208,62729,1,0,0:0:0:0:
460,208,62886,2,0,P|412:172|348:156,1,110.50000210762
148,240,63357,5,0,0:0:0:0:
148,240,63514,2,0,P|184:248|208:248,1,55.2500010538101
364,128,63829,2,0,P|328:124|304:128,1,55.2500010538101
124,176,64143,6,0,P|112:144|116:120,2,55.2500010538101
160,256,64614,2,0,P|188:284|224:288,2,55.2500010538101
156,144,65085,2,0,P|188:128|216:128,1,55.2500010538101
320,176,65399,2,0,P|328:204|324:232,2,55.2500010538101
280,96,65870,2,0,P|248:64|224:60,2,55.2500010538101
180,164,66342,2,0,P|152:192|148:220,1,55.2500010538101
100,292,66656,2,0,P|72:276|52:256,2,55.2500010538101
184,296,67127,2,0,P|216:292|244:276,2,55.2500010538101
136,196,67598,2,0,P|144:164|168:136,1,55.2500010538101
372,92,67912,6,0,P|396:120|416:156,1,55.2500010538101
192,172,68227,1,0,0:0:0:0:
428,260,68384,1,0,0:0:0:0:
236,344,68541,2,0,L|204:344,7,27.6250005269051
160,280,69169,6,0,P|208:272|232:260,1,55.2500010538101
340,160,69483,1,0,0:0:0:0:
136,160,69640,1,0,0:0:0:0:
136,160,69719,1,0,0:0:0:0:
136,160,69797,2,0,P|144:132|208:76,1,110.50000210762
368,108,70268,1,0,0:0:0:0:
352,296,70425,2,0,P|284:276|248:252,1,110.50000210762
72,160,70897,5,0,0:0:0:0:
312,164,71054,1,0,0:0:0:0:
116,288,71211,1,0,0:0:0:0:
192,72,71368,1,0,0:0:0:0:
276,296,71525,1,0,0:0:0:0:
80,140,71682,2,0,P|116:128|156:128,1,55.2500010538101
352,208,71996,2,0,P|320:228|280:232,1,55.2500010538101
284,72,72310,2,0,P|320:52|356:52,1,55.2500010538101
320,212,72624,1,0,0:0:0:0:
280,352,72781,6,0,P|236:336|140:256,1,165.75000316143
148,72,73410,1,0,0:0:0:0:
344,124,73567,2,0,P|376:156|388:188,1,55.2500010538101
168,208,73881,1,0,0:0:0:0:
208,40,74038,1,0,0:0:0:0:
208,40,74117,1,0,0:0:0:0:
208,40,74195,6,0,P|280:72|304:108,1,110.50000210762
196,232,74666,1,0,0:0:0:0:
392,296,74823,2,0,P|424:244|420:188,1,110.50000210762
244,120,75295,1,0,0:0:0:0:
80,272,75452,2,0,P|124:308|184:320,1,110.50000210762
372,268,75923,1,0,0:0:0:0:
328,80,76080,6,0,P|280:84|260:100,1,55.2500010538101
140,268,76394,2,0,P|180:280|216:272,1,55.2500010538101
124,72,76708,2,0,P|96:104|92:136,1,55.2500010538101
352,180,77022,2,0,P|360:152|360:112,1,55.2500010538101
128,260,77336,2,0,P|144:288|168:308,1,55.2500010538101
440,268,77651,2,0,P|456:236|432:104,1,165.75000316143
264,124,78279,6,0,P|268:152|296:192,1,55.2500010538101
124,224,78593,2,0,L|112:188,7,27.6250005269051
156,256,79221,6,0,P|216:256|272:232,1,110.50000210762
404,120,79692,1,0,0:0:0:0:
388,312,79850,2,0,P|336:332|272:336,1,110.50000210762
84,208,80321,1,0,0:0:0:0:
252,248,80478,2,0,P|296:244|364:216,1,110.50000210762
472,96,80949,1,0,0:0:0:0:
304,44,81106,2,0,P|252:40|184:60,1,110.50000210762
72,144,81577,1,0,0:0:0:0:
200,256,81734,2,0,P|248:264|316:268,1,110.50000210762
432,236,82206,1,0,0:0:0:0:
436,128,82363,6,0,P|384:92|380:92,1,55.2500010538101
204,160,82677,2,0,P|224:192|256:212,1,55.2500010538101
428,280,82991,2,0,P|408:304|376:312,1,55.2500010538101
112,216,83305,2,0,P|104:176|104:144,1,55.2500010538101
400,124,83619,5,0,0:0:0:0:
104,200,83776,1,0,0:0:0:0:
408,284,83933,1,0,0:0:0:0:
212,56,84090,1,0,0:0:0:0:
184,316,84247,6,0,P|236:296|280:256,1,110.50000210762
196,152,84719,1,0,0:0:0:0:
92,64,84876,2,0,P|72:92|64:124,1,55.2500010538101
100,256,85190,2,0,P|148:260|176:248,1,55.2500010538101
352,164,85504,2,0,P|368:188|372:216,2,55.2500010538101
224,212,85975,1,0,0:0:0:0:
96,260,86132,6,0,P|80:228|80:200,1,55.2500010538101
372,176,86446,1,0,0:0:0:0:
104,56,86603,1,0,0:0:0:0:
212,284,86761,1,0,0:0:0:0:
336,168,87389,6,0,P|320:140|136:184,2,260
