osu file format v14

[General]
AudioFilename: audio.mp3
AudioLeadIn: 0
PreviewTime: -1
Countdown: 1
SampleSet: Soft
StackLeniency: 0.7
Mode: 0
LetterboxInBreaks: 0
WidescreenStoryboard: 0

[Editor]
DistanceSpacing: 0.5
BeatDivisor: 4
GridSize: 8
TimelineZoom: 2.1

[Metadata]
Title:Heikousen (TV Size)
TitleUnicode:平行線 (TV Size)
Artist:Sayuri
ArtistUnicode:さユり
Creator:hlanden
Version:Parallel Lines
Source:Kuzu no Honkai
Tags:ED ending anime japanese
BeatmapID:1229939
BeatmapSetID:580983

[Difficulty]
HPDrainRate:7.1
CircleSize:4.1
OverallDifficulty:8.1
ApproachRate:9.1
SliderMultiplier:1.8
SliderTickRate:1

[Events]
//Background and Video events
0,0,"785028.jpg",0,0
//Break Periods
//Storyboard Layer 0 (Background)
//Storyboard Layer 1 (Fail)
//Storyboard Layer 2 (Pass)
//Storyboard Layer 3 (Foreground)
//Storyboard Sound Samples

[TimingPoints]
151,405.405405405405,4,2,0,100,1,0
151,-140.845070422535,4,2,0,100,0,0
1772,-196.078431372549,4,2,0,100,0,0
2583,-140.845070422535,4,2,0,100,0,0
11299,-196.078431372549,4,2,0,100,0,0
12921,-140.845070422535,4,2,0,100,0,0
19610,-196.078431372549,4,2,0,100,0,0
25286,-140.845070422535,4,2,0,100,0,0
28972,314.13612565445,4,2,0,100,1,0
28972,-133.333333333333,4,2,0,100,0,0
33998,-117.647058823529,4,2,0,100,0,0
38396,-163.934426229508,4,2,0,100,0,0
42479,-196.078431372549,4,2,0,100,0,0
44050,-109.89010989011,4,2,0,100,0,0
49076,-99.009900990099,4,2,0,100,0,1
87401,-76.9230769230769,4,2,0,100,0,1
88029,-50,4,2,0,100,0,1
88500,-100,4,2,0,100,0,1
89129,-99.009900990099,4,2,0,100,0,0

[HitObjects]
48,296,151,6,0,B|84:260|92:228|92:228|164:292|244:236,1,223.649988738328
232,240,961,2,0,P|288:224|360:280,1,127.799993564759
328,344,1772,2,0,P|400:328|440:224,1,183.600001120605
423,153,2988,1,0,0:0:0:0:
423,153,3394,6,0,P|367:193|359:257,1,127.799993564759
375,329,4205,2,0,P|431:289|439:225,1,127.799993564759
423,153,5015,2,0,P|367:193|359:257,2,127.799993564759
431,129,6637,6,0,B|343:113|305:202|305:202|304:160|272:128,1,223.649988738328
272,128,7448,2,0,P|224:96|144:96,1,127.799993564759
184,184,8259,1,0,0:0:0:0:
336,248,9069,5,0,0:0:0:0:
416,336,9475,2,0,P|304:344|216:256,1,223.649988738328
224,264,10286,1,0,0:0:0:0:
256,152,10691,2,0,P|200:104|112:104,1,159.749991955948
104,104,11299,2,0,B|64:120|8:168|4:237,1,160.65000098053
54,247,12921,6,0,P|62:279|86:303,1,63.8999967823793
54,247,13934,2,0,P|86:311|158:335,1,127.799993564759
150,239,14745,1,0,0:0:0:0:
134,334,15150,1,0,0:0:0:0:
56,272,15556,2,0,B|46:224|48:191|73:154,1,95.849995173569
67,163,15961,2,0,P|104:106|164:78,1,127.799993564759
248,48,16772,5,0,0:0:0:0:
224,128,17178,1,0,0:0:0:0:
304,160,17583,2,0,P|280:197|224:216,1,95.849995173569
224,216,17988,2,0,B|176:208|160:168|160:168|137:184|136:205,1,127.799993564759
120,320,18799,2,0,P|160:360|240:360,1,127.799993564759
200,280,19610,2,0,B|288:264|320:328|320:328|336:304|336:240|336:240|310:239|288:248,1,275.400001680908
240,360,22042,6,0,P|176:360|144:336,1,91.8000005603027
72,280,22853,1,0,0:0:0:0:
72,280,23664,2,0,P|160:304|224:240,1,183.600001120605
304,264,25286,6,0,B|312:224|296:184|256:176|248:160|224:120|248:48|288:16|344:32|384:48|384:112|384:112|424:64|472:80|520:104|520:144|504:208|477:231|464:240|428:242|400:224|352:240|296:272,1,766.799961388552
256,192,27921,12,0,28833,0:0:0:0:
112,304,28972,6,0,P|80:256|80:176,1,135.000005149842
184,208,29443,1,0,0:0:0:0:
184,208,29521,1,0,0:0:0:0:
184,208,29600,2,0,P|224:184|272:184,1,67.5000025749208
256,280,29914,1,0,0:0:0:0:
256,280,30071,1,0,0:0:0:0:
368,288,30228,2,0,P|360:255|340:227,2,67.5000025749208
256,280,30699,1,0,0:0:0:0:
256,280,30778,1,0,0:0:0:0:
256,280,30856,1,0,0:0:0:0:
240,384,31013,6,0,P|184:360|144:288,1,135.000005149842
88,192,31485,1,0,0:0:0:0:
80,56,31642,1,0,0:0:0:0:
208,104,31799,1,0,0:0:0:0:
136,128,31956,1,0,0:0:0:0:
136,128,32034,1,0,0:0:0:0:
136,128,32113,1,0,0:0:0:0:
272,48,32270,5,0,0:0:0:0:
304,208,32427,2,0,P|336:232|352:280,1,67.5000025749208
256,280,32741,2,0,P|224:256|208:208,1,67.5000025749208
144,136,33055,1,0,0:0:0:0:
296,192,33212,1,0,0:0:0:0:
256,80,33369,5,0,0:0:0:0:
256,80,33526,1,0,0:0:0:0:
376,320,33684,1,0,0:0:0:0:
376,320,33998,2,0,P|402:347|436:364,1,76.5000014591217
508,292,34312,2,0,P|468:255|430:244,1,76.5000014591217
287,195,34626,1,0,0:0:0:0:
282,36,34783,1,0,0:0:0:0:
427,111,34940,1,0,0:0:0:0:
427,111,35019,1,0,0:0:0:0:
427,111,35097,1,0,0:0:0:0:
334,117,35254,5,0,0:0:0:0:
334,117,35411,1,0,0:0:0:0:
160,264,35568,1,0,0:0:0:0:
160,264,35882,6,0,P|112:240|88:208,1,76.5000014591217
8,40,36197,1,0,0:0:0:0:
136,64,36354,1,0,0:0:0:0:
40,184,36511,1,0,0:0:0:0:
64,112,36668,1,0,0:0:0:0:
64,112,36746,1,0,0:0:0:0:
64,112,36825,1,0,0:0:0:0:
160,200,36982,1,0,0:0:0:0:
96,256,37139,6,0,P|136:288|160:288,1,76.5000014591217
296,272,37453,1,0,0:0:0:0:
152,72,37610,1,0,0:0:0:0:
160,200,37767,1,0,0:0:0:0:
168,64,37924,1,0,0:0:0:0:
304,264,38081,1,0,0:0:0:0:
320,152,38239,5,0,0:0:0:0:
320,152,38317,1,0,0:0:0:0:
320,152,38396,2,0,L|296:88,1,54.8999977381898
400,208,38710,1,0,0:0:0:0:
480,248,39024,6,0,P|456:288|376:304,1,109.79999547638
310,292,39652,2,0,P|254:292|214:340,2,109.79999547638
398,308,40595,1,0,0:0:0:0:
472,360,40909,2,0,P|488:296|472:240,1,109.79999547638
352,112,41851,6,0,P|336:48|360:-8,1,109.79999547638
424,64,42479,2,0,P|432:160|368:200,1,160.65000098053
376,200,43108,1,0,0:0:0:0:
376,200,43422,1,0,0:0:0:0:
376,200,44050,6,0,P|344:176|336:136,1,81.9000027493287
368,64,44364,5,0,0:0:0:0:
328,48,44443,1,0,0:0:0:0:
288,48,44521,1,0,0:0:0:0:
176,64,44678,1,0,0:0:0:0:
128,72,44757,1,0,0:0:0:0:
88,48,44835,1,0,0:0:0:0:
216,168,44992,1,0,0:0:0:0:
232,208,45071,1,0,0:0:0:0:
240,256,45150,1,0,0:0:0:0:
296,328,45307,5,0,0:0:0:0:
256,304,45385,1,0,0:0:0:0:
240,256,45464,1,0,0:0:0:0:
216,168,45621,1,0,0:0:0:0:
192,128,45699,1,0,0:0:0:0:
152,96,45778,1,0,0:0:0:0:
160,17,45935,1,0,0:0:0:0:
114,24,46013,1,0,0:0:0:0:
88,40,46092,1,0,0:0:0:0:
126,55,46170,5,0,0:0:0:0:
159,56,46249,1,0,0:0:0:0:
205,41,46328,1,0,0:0:0:0:
253,36,46406,1,0,0:0:0:0:
304,48,46485,1,0,0:0:0:0:
352,79,46563,1,0,0:0:0:0:
378,134,46642,1,0,0:0:0:0:
392,184,46720,6,0,L|411:229,1,40.9500013746644
496,64,46877,2,0,L|472:8,1,40.9500013746644
256,128,47034,2,0,L|272:168,1,40.9500013746644
496,64,47191,2,0,L|468:12,1,40.9500013746644
433,77,47348,1,0,0:0:0:0:
387,122,47426,1,0,0:0:0:0:
376,183,47505,1,0,0:0:0:0:
388,237,47583,1,0,0:0:0:0:
416,280,47663,2,0,L|439:320,1,40.9500013746644
488,192,47820,1,0,0:0:0:0:
488,83,49076,6,0,P|410:57|320:72,1,136.349997295303
331,65,49390,1,0,0:0:0:0:
392,144,49547,1,0,0:0:0:0:
150,139,49704,1,0,0:0:0:0:
392,144,49862,1,0,0:0:0:0:
150,139,50019,1,0,0:0:0:0:
159,148,50097,1,0,0:0:0:0:
159,148,50176,1,0,0:0:0:0:
273,148,50333,5,0,0:0:0:0:
37,227,50490,1,0,0:0:0:0:
185,34,50647,1,0,0:0:0:0:
185,34,50725,1,0,0:0:0:0:
185,34,50804,1,0,0:0:0:0:
177,262,50961,1,0,0:0:0:0:
63,95,51118,1,0,0:0:0:0:
63,95,51197,1,0,0:0:0:0:
63,95,51275,1,0,0:0:0:0:
159,148,51432,5,0,0:0:0:0:
392,144,51589,2,0,P|428:170|451:209,1,90.8999981968689
456,224,51825,1,0,0:0:0:0:
456,224,51903,1,0,0:0:0:0:
368,232,52061,1,0,0:0:0:0:
128,232,52218,1,0,0:0:0:0:
352,216,52375,1,0,0:0:0:0:
119,220,52532,1,0,0:0:0:0:
119,220,52610,1,0,0:0:0:0:
119,220,52689,1,0,0:0:0:0:
216,224,52846,6,0,P|208:272|144:320,1,90.8999981968689
168,312,53081,1,0,0:0:0:0:
168,312,53160,1,0,0:0:0:0:
120,232,53317,1,0,0:0:0:0:
368,200,53474,1,0,0:0:0:0:
208,384,53631,1,0,0:0:0:0:
464,360,53788,1,0,0:0:0:0:
464,360,53867,1,0,0:0:0:0:
464,360,53945,1,0,0:0:0:0:
480,144,54102,6,0,P|440:104|304:112,1,181.799996393738
384,184,54574,1,0,0:0:0:0:
120,232,54731,1,0,0:0:0:0:
376,208,54888,1,0,0:0:0:0:
112,256,55045,1,0,0:0:0:0:
112,256,55123,1,0,0:0:0:0:
112,256,55202,1,0,0:0:0:0:
80,344,55359,6,0,P|40:312|32:240,1,90.8999981968689
32,264,55595,1,0,0:0:0:0:
32,264,55673,1,0,0:0:0:0:
72,128,55830,1,0,0:0:0:0:
200,112,55987,2,0,P|176:56|152:40,1,90.8999981968689
136,40,56223,1,0,0:0:0:0:
136,40,56301,1,0,0:0:0:0:
88,136,56458,1,0,0:0:0:0:
80,344,56615,5,0,0:0:0:0:
88,136,56773,1,0,0:0:0:0:
88,136,56851,1,0,0:0:0:0:
88,136,56930,1,0,0:0:0:0:
8,248,57087,1,0,0:0:0:0:
8,128,57244,2,0,P|32:72|64:56,1,90.8999981968689
288,24,57558,1,0,0:0:0:0:
288,24,57636,1,0,0:0:0:0:
288,24,57715,1,0,0:0:0:0:
128,208,57872,6,0,P|160:168|168:112,1,90.8999981968689
280,16,58186,2,0,P|250:50|239:93,1,90.8999981968689
224,224,58500,5,0,0:0:0:0:
176,24,58657,1,0,0:0:0:0:
360,184,58814,5,0,0:0:0:0:
328,88,58971,1,0,0:0:0:0:
464,144,59129,6,0,P|472:192|448:248,1,90.8999981968689
232,312,59443,2,0,P|288:304|336:344,1,90.8999981968689
264,384,59757,1,0,0:0:0:0:
392,184,59914,1,0,0:0:0:0:
264,384,60071,1,0,0:0:0:0:
264,384,60150,1,0,0:0:0:0:
264,384,60228,1,0,0:0:0:0:
280,224,60385,5,0,0:0:0:0:
512,272,60542,1,0,0:0:0:0:
512,272,60621,1,0,0:0:0:0:
512,272,60699,1,0,0:0:0:0:
392,184,60856,1,0,0:0:0:0:
384,312,61013,1,0,0:0:0:0:
192,152,61170,1,0,0:0:0:0:
256,112,61328,2,0,P|224:80|152:88,1,90.8999981968689
154,227,61642,2,0,P|186:195|178:123,1,90.8999981968689
192,152,61877,1,0,0:0:0:0:
192,152,61956,5,0,0:0:0:0:
112,168,62113,1,0,0:0:0:0:
336,224,62270,1,0,0:0:0:0:
168,296,62427,1,0,0:0:0:0:
392,352,62584,1,0,0:0:0:0:
392,352,62663,1,0,0:0:0:0:
392,352,62741,1,0,0:0:0:0:
336,224,62898,1,0,0:0:0:0:
120,224,63055,1,0,0:0:0:0:
120,224,63134,1,0,0:0:0:0:
120,224,63212,6,0,P|64:208|0:224,1,90.8999981968689
64,288,63526,1,0,0:0:0:0:
136,72,63684,1,0,0:0:0:0:
64,288,63841,2,0,P|120:304|184:288,1,90.8999981968689
88,136,64155,6,0,P|56:88|56:32,1,90.8999981968689
296,32,64469,1,0,0:0:0:0:
296,144,64626,1,0,0:0:0:0:
400,96,64783,1,0,0:0:0:0:
400,312,64940,1,0,0:0:0:0:
296,144,65097,1,0,0:0:0:0:
296,144,65176,1,0,0:0:0:0:
296,144,65254,1,0,0:0:0:0:
400,208,65411,5,0,0:0:0:0:
296,32,65568,1,0,0:0:0:0:
296,32,65647,1,0,0:0:0:0:
296,32,65725,2,0,P|240:48|200:40,1,90.8999981968689
72,16,66040,1,0,0:0:0:0:
72,16,66197,1,0,0:0:0:0:
176,200,66354,1,0,0:0:0:0:
96,320,66511,1,0,0:0:0:0:
272,320,66668,6,0,P|226:317|187:295,1,90.8999981968689
19,191,66982,1,0,0:0:0:0:
19,191,67139,1,0,0:0:0:0:
260,224,67296,1,0,0:0:0:0:
260,224,67453,6,0,P|212:200|160:208,1,90.8999981968689
80,232,67767,2,0,P|88:176|120:136,1,90.8999981968689
344,72,68081,1,0,0:0:0:0:
232,304,68239,2,0,P|280:304|320:280,1,90.8999981968689
432,304,68553,5,0,0:0:0:0:
396,260,68631,1,0,0:0:0:0:
380,208,68710,1,0,0:0:0:0:
388,152,68788,1,0,0:0:0:0:
416,80,68867,1,0,0:0:0:0:
435,90,68945,1,0,0:0:0:0:
455,110,69024,1,0,0:0:0:0:
465,139,69102,1,0,0:0:0:0:
464,160,69181,6,0,P|432:216|384:224,1,90.8999981968689
248,352,69495,2,0,P|208:328|184:280,1,90.8999981968689
248,72,69809,1,0,0:0:0:0:
264,272,69966,1,0,0:0:0:0:
248,72,70123,1,0,0:0:0:0:
264,272,70280,2,0,P|241:233|202:210,1,90.8999981968689
328,328,70595,5,0,0:0:0:0:
160,128,70752,2,0,P|125:156|108:198,1,90.8999981968689
256,72,71066,1,0,0:0:0:0:
152,24,71223,1,0,0:0:0:0:
456,160,71380,1,0,0:0:0:0:
360,112,71537,1,0,0:0:0:0:
459,72,71694,6,0,P|467:120|436:186,1,90.8999981968689
352,376,72008,1,0,0:0:0:0:
448,285,72165,1,0,0:0:0:0:
232,368,72322,1,0,0:0:0:0:
356,234,72479,1,0,0:0:0:0:
352,376,72636,1,0,0:0:0:0:
360,112,72793,1,0,0:0:0:0:
450,194,72951,6,0,L|447:291,1,90.8999981968689
456,48,73265,1,0,0:0:0:0:
352,0,73422,1,0,0:0:0:0:
256,168,73579,1,0,0:0:0:0:
352,0,73736,1,0,0:0:0:0:
112,16,73893,2,0,P|128:83|179:117,1,90.8999981968689
256,168,74207,5,0,0:0:0:0:
304,280,74364,1,0,0:0:0:0:
204,25,74521,1,0,0:0:0:0:
204,25,74678,1,0,0:0:0:0:
120,144,74835,5,0,0:0:0:0:
168,256,74992,1,0,0:0:0:0:
120,144,75150,1,0,0:0:0:0:
216,368,75307,1,0,0:0:0:0:
304,280,75464,5,0,0:0:0:0:
216,368,75621,1,0,0:0:0:0:
400,192,75778,1,0,0:0:0:0:
400,192,75935,1,0,0:0:0:0:
352,368,76092,2,0,P|391:331|393:281,1,90.8999981968689
400,64,76406,1,0,0:0:0:0:
400,64,76563,1,0,0:0:0:0:
272,0,76720,6,0,P|248:32|248:88,1,90.8999981968689
373,145,77034,2,0,P|397:113|397:57,1,90.8999981968689
256,216,77348,1,0,0:0:0:0:
144,304,77506,1,0,0:0:0:0:
144,304,77663,1,0,0:0:0:0:
264,344,77820,6,0,P|303:338|343:298,1,90.8999981968689
376,144,78134,1,0,0:0:0:0:
144,304,78291,6,0,P|192:344|272:336,1,136.349997295303
303,315,78605,1,0,0:0:0:0:
336,272,78684,1,0,0:0:0:0:
320,224,78762,1,0,0:0:0:0:
272,208,78841,1,0,0:0:0:0:
280,128,78919,5,0,0:0:0:0:
216,144,78998,1,0,0:0:0:0:
192,208,79076,1,0,0:0:0:0:
225,268,79155,1,0,0:0:0:0:
399,207,79233,6,0,P|378:168|340:144,1,90.8999981968689
120,24,79547,1,0,0:0:0:0:
120,24,79704,1,0,0:0:0:0:
272,208,79862,1,0,0:0:0:0:
32,248,80019,1,0,0:0:0:0:
136,152,80176,1,0,0:0:0:0:
136,152,80254,1,0,0:0:0:0:
136,152,80333,1,0,0:0:0:0:
240,72,80490,5,0,0:0:0:0:
312,352,80647,1,0,0:0:0:0:
312,352,80725,1,0,0:0:0:0:
312,352,80804,1,0,0:0:0:0:
272,208,80961,1,0,0:0:0:0:
168,304,81118,1,0,0:0:0:0:
136,152,81275,1,0,0:0:0:0:
184,384,81432,2,0,P|120:376|88:320,1,90.8999981968689
24,96,81746,6,0,P|40:32|96:0,1,90.8999981968689
296,128,82061,6,0,P|291:172|263:208,1,90.8999981968689
112,88,82375,1,0,0:0:0:0:
72,256,82532,1,0,0:0:0:0:
168,384,82689,5,0,0:0:0:0:
216,136,82846,1,0,0:0:0:0:
216,136,83003,1,0,0:0:0:0:
344,40,83160,5,0,0:0:0:0:
304,288,83317,1,0,0:0:0:0:
304,288,83474,1,0,0:0:0:0:
424,232,83631,5,0,0:0:0:0:
440,96,83788,1,0,0:0:0:0:
408,384,83945,1,0,0:0:0:0:
408,384,84102,1,0,0:0:0:0:
304,288,84259,5,0,0:0:0:0:
304,288,84417,1,0,0:0:0:0:
344,48,84574,2,0,L|328:152,1,90.8999981968689
192,192,84888,1,0,0:0:0:0:
216,40,85045,1,0,0:0:0:0:
176,352,85202,1,0,0:0:0:0:
176,352,85280,1,0,0:0:0:0:
176,352,85359,1,0,0:0:0:0:
312,264,85516,5,0,0:0:0:0:
330,137,85673,1,0,0:0:0:0:
296,384,85830,1,0,0:0:0:0:
312,264,85987,1,0,0:0:0:0:
183,192,86144,2,0,B|175:112|119:88|63:120|23:112|-1:80|-1:16,1,272.699994590607
0,32,86773,5,0,0:0:0:0:
0,32,87401,6,0,B|40:88|56:128|56:128|32:88|48:72|48:72|104:32|104:32|88:-16|88:-16|96:16|104:56|168:104,1,396.000012084961
248,304,88029,2,0,B|177:134|177:134|227:229|198:268|276:240|276:180|270:158|270:158|276:180|270:197|231:265|242:236|293:259|325:247|324:251,1,545.399989181214
451,384,88500,2,0,B|477:385|510:372|530:366|536:346|536:319|530:293|515:276|503:260|477:273|464:293|458:300|437:338|424:323|405:293|379:260|391:230|425:214|464:208,1,350.999983932496
