osu file format v14

[General]
AudioFilename: audio.mp3
AudioLeadIn: 0
PreviewTime: 15
Countdown: 0
SampleSet: Soft
StackLeniency: 0.2
Mode: 0
LetterboxInBreaks: 0
WidescreenStoryboard: 1

[Editor]
DistanceSpacing: 0.2
BeatDivisor: 4
GridSize: 16
TimelineZoom: 2.850003

[Metadata]
Title:Heikousen (TV Size)
TitleUnicode:平行線 (TV Size)
Artist:Sayuri
ArtistUnicode:さユり
Creator:hanabyte
Version:nekro's extra
Source:クズの本懐
Tags:kuzu hytaa enri no honkai scum's scums jpop japanese pop wish ending ed anime full_combo yukic mnyui gelidium sainoo nekroman4ik kieg
BeatmapID:3405148
BeatmapSetID:1664522

[Difficulty]
HPDrainRate:5
CircleSize:4.2
OverallDifficulty:8.5
ApproachRate:9
SliderMultiplier:1.6
SliderTickRate:1

[Events]
//Background and Video events
0,0,"Vliestapete-Blumen-Vintage-blau-gelbgrau-36921-3-196540.jpg",0,0
//Break Periods
2,39224,43450
//Storyboard Layer 0 (Background)
//Storyboard Layer 1 (Fail)
//Storyboard Layer 2 (Pass)
//Storyboard Layer 3 (Foreground)
//Storyboard Layer 4 (Overlay)
//Storyboard Sound Samples

[TimingPoints]
151,405.405405405405,4,2,1,30,1,0
151,-166.666666666667,4,2,1,30,0,0
961,-125,4,2,1,30,0,0
1772,-142.857142857143,4,2,1,30,0,0
3394,-166.666666666667,4,2,1,30,0,0
11502,-142.857142857143,4,2,1,30,0,0
18799,-166.666666666667,4,2,1,30,0,0
19610,-200,4,2,1,30,0,0
22042,-125,4,2,1,30,0,0
23664,-166.666666666667,4,2,1,30,0,0
24475,-142.857142857143,4,2,1,30,0,0
28972,314.13612565445,4,2,1,50,1,0
28972,-111.111111111111,4,2,1,50,0,0
32741,-90.9090909090908,4,2,1,50,0,0
33055,-111.111111111111,4,2,1,50,0,0
33684,-90.9090909090909,4,2,1,50,0,0
34626,-100,4,2,1,50,0,0
39024,-100,4,2,1,60,0,0
44050,-100,4,2,2,60,0,0
46563,-100,4,2,2,65,0,0
47191,-100,4,2,2,70,0,0
47506,-71.4285714285714,4,2,2,60,0,0
49076,-90.9090909090909,4,2,1,75,0,1
77348,-83.3333333333333,4,2,1,75,0,1
77663,-90.9090909090909,4,2,1,75,0,1
86773,-90.9090909090909,4,2,1,75,0,0
87401,-1000,4,2,1,75,0,0

[Colours]
Combo1 : 138,171,247
Combo2 : 203,208,200
Combo3 : 193,206,213
Combo4 : 233,231,194
Combo5 : 146,167,197
Combo6 : 251,205,136

[HitObjects]
141,269,151,6,0,P|71:248|89:312,1,168,2|0,2:0|2:0,2:0:0:0:
159,344,961,6,0,B|269:300|258:395|387:348,1,224,2|0,2:0|2:0,2:0:0:0:
454,384,1772,70,0,B|412:354|373:274|419:209|515:201|531:273|499:307,1,280,2|0,2:0|2:0,2:0:0:0:
375,351,2988,5,2,2:0:0:0:
291,374,3191,1,0,2:0:0:0:
205,333,3394,2,0,L|158:343,1,47.9999999999999,2|0,2:0|2:0,2:0:0:0:
31,292,3799,2,0,L|139:266,2,95.9999999999998,2|2|0,2:0|2:0|2:0,2:0:0:0:
31,292,5015,70,0,B|9:252|26:196|70:181|70:181|40:208|44:238,1,192,2|0,2:0|2:0,2:0:0:0:
291,84,6637,6,0,B|244:115|244:115|196:89|206:19|256:-10,2,192,2|2|2,2:0|2:0|2:0,2:0:0:0:
291,84,9069,70,0,P|317:65|351:72,1,47.9999999999999,2|0,2:0|2:0,2:0:0:0:
403,118,9475,2,0,P|429:137|463:130,1,47.9999999999999,2|0,2:0|2:0,2:0:0:0:
512,90,9880,2,0,P|507:41|458:36,1,95.9999999999998,0|2,2:0|2:0,2:0:0:0:
316,176,10691,2,0,P|259:191|213:228,1,95.9999999999998,2|0,2:0|2:0,2:0:0:0:
308,264,11299,1,2,2:0:0:0:
217,211,11502,6,0,B|167:208|129:154|165:94|165:94|206:100|234:68,1,224,2|0,2:0|2:0,2:0:0:0:
345,377,12921,1,2,2:0:0:0:
345,377,13123,70,0,L|456:354,1,112,2|0,2:0|2:0,2:0:0:0:
432,273,13934,2,0,L|321:296,1,112,2|2,2:0|2:0,2:0:0:0:
109,381,14745,5,2,2:0:0:0:
12,341,15150,1,2,2:0:0:0:
0,242,15556,1,2,2:0:0:0:
79,179,15961,1,2,2:0:0:0:
172,218,16367,1,2,2:0:0:0:
460,13,16772,69,2,2:0:0:0:
404,84,17178,1,2,2:0:0:0:
314,93,17583,1,2,2:0:0:0:
241,38,17988,6,0,P|179:47|184:106,1,112,2|2,2:0|2:0,2:0:0:0:
8,214,18799,2,0,B|57:222|57:222|61:225|61:225|102:231,1,95.9999999999998,2|2,2:0|2:0,2:0:0:0:
214,374,19610,70,0,B|233:322|289:304|332:322|332:322|355:371|416:357,1,240,2|0,2:0|2:0,2:0:0:0:
412,357,22042,6,0,B|433:312|416:259|371:240|371:240|387:278|382:311,1,192,2|0,2:0|2:0,2:0:0:0:
498,380,22853,1,2,2:0:0:0:
295,181,23664,6,2,P|220:193|124:228,1,168,2|0,2:0|2:0,2:0:0:0:
37,208,24475,22,2,B|65:162|41:114|41:114|81:149|135:127,1,196,2|0,2:0|2:0,2:0:0:0:
133,223,25286,1,2,2:0:0:0:
256,192,25488,12,0,28833,2:0:0:0:
75,89,28972,38,0,P|145:96|204:34,1,144,2|2,3:2|2:0,2:0:0:0:
329,0,29443,1,2,2:0:0:0:
325,11,29521,1,0,2:0:0:0:
321,22,29600,2,0,L|307:104,1,72.0000000000001,2|0,2:0|3:0,2:0:0:0:
446,253,29914,2,0,L|460:171,1,72.0000000000001,2|2,2:0|2:0,2:0:0:0:
361,214,30228,5,2,3:2:0:0:
405,89,30385,1,2,2:0:0:0:
357,226,30542,2,0,P|312:229|276:272,1,72.0000000000001,0|2,2:0|2:0,2:0:0:0:
239,311,30778,1,0,2:0:0:0:
245,330,30856,1,0,2:0:0:0:
78,155,31013,2,0,P|146:142|201:186,1,144,2|0,3:2|2:0,2:0:0:0:
210,182,31485,70,0,L|192:81,1,72.0000000000001,2|0,3:2|2:0,2:0:0:0:
357,226,31799,2,0,L|369:296,1,72.0000000000001,2|0,2:0|2:0,2:0:0:0:
307,369,32034,1,0,2:0:0:0:
291,366,32113,2,0,P|254:350|206:351,1,72.0000000000001,2|0,2:0|3:2,2:0:0:0:
453,242,32427,2,0,P|490:258|538:257,1,72.0000000000001,2|0,2:0|2:0,2:0:0:0:
390,109,32741,6,0,B|374:72|383:39|414:25|414:25|398:51|405:79,1,132,2|0,3:2|2:0,2:0:0:0:
505,0,33055,2,0,L|492:84,1,72.0000000000001,2|0,2:0|2:0,2:0:0:0:
282,216,33369,2,0,L|295:132,1,72.0000000000001,2|0,2:0|3:2,2:0:0:0:
169,66,33684,70,0,B|110:78|110:78|108:77|108:77|27:95,1,132,10|0,2:0|2:0,2:0:0:0:
5,6,33998,5,2,3:2:0:0:
73,186,34155,1,2,2:0:0:0:
0,0,34312,1,10,2:0:0:0:
153,102,34469,1,2,2:0:0:0:
12,333,34626,2,0,P|-5:292|3:248,1,80,2|0,3:2|3:0,2:0:0:0:
152,384,34940,1,2,2:0:0:0:
226,327,35097,70,0,P|299:319|355:389,1,160,10|0,2:0|3:2,2:0:0:0:
495,212,35568,2,0,P|457:221|400:230,1,80,8|0,2:0|2:0,2:0:0:0:
434,121,35882,5,2,2:0:0:0:
478,322,36040,1,2,3:2:0:0:
431,114,36197,1,10,2:0:0:0:
481,329,36354,1,2,2:0:0:0:
427,106,36511,70,0,L|440:18,1,80,2|2,3:2|2:0,2:0:0:0:
262,165,36825,2,0,L|250:244,1,80,10|0,2:0|2:0,2:0:0:0:
116,98,37139,1,2,3:2:0:0:
281,29,37296,1,2,3:2:0:0:
103,241,37453,2,0,P|66:255|27:248,1,80,0|10,2:0|2:0,2:0:0:0:
274,153,37767,6,0,P|359:166|397:258,1,160,2|8,2:0|2:0,2:0:0:0:
216,384,38239,69,8,2:3:0:0:
213,368,38317,1,8,2:3:0:0:
210,352,38396,1,8,2:3:0:0:
200,272,38553,1,4,3:0:0:0:
190,193,38710,1,4,3:0:0:0:
180,113,38867,1,4,3:0:0:0:
256,16,39024,69,2,3:2:0:0:
413,81,44050,5,0,3:2:0:0:
413,81,44364,2,8,L|401:135,1,40,0|8,3:2|2:0,2:0:0:0:
328,172,44521,2,0,L|340:226,1,40,8|8,2:0|2:0,2:0:0:0:
492,298,44678,21,0,3:2:0:0:
455,272,44757,1,0,2:0:0:0:
411,270,44835,1,8,2:0:0:0:
374,289,44914,1,8,2:0:0:0:
351,327,44992,1,0,3:2:0:0:
329,364,45071,1,8,2:0:0:0:
291,384,45150,1,8,2:0:0:0:
247,381,45228,1,8,2:0:0:0:
211,356,45307,21,0,3:2:0:0:
214,323,45385,1,8,2:0:0:0:
218,292,45464,1,8,2:0:0:0:
222,260,45542,1,8,2:0:0:0:
227,229,45621,2,8,P|220:181|207:136,1,80,0|8,3:2|2:0,2:0:0:0:
302,20,45856,5,8,2:0:0:0:
311,29,45935,2,0,L|297:117,1,80,0|8,3:2|2:0,2:0:0:0:
132,210,46170,1,8,2:0:0:0:
124,219,46249,2,0,P|83:227|30:206,1,80,0|8,3:2|2:0,2:0:0:0:
211,356,46485,1,8,2:0:0:0:
216,369,46563,2,0,P|257:356|308:365,1,80,8|8,3:2|2:0,2:0:0:0:
376,293,46799,5,8,2:0:0:0:
357,249,46877,1,8,3:2:0:0:
369,203,46956,1,8,2:0:0:0:
406,174,47034,1,8,2:0:0:0:
453,172,47113,1,8,2:0:0:0:
491,200,47191,21,8,3:2:0:0:
437,195,47270,1,8,2:0:0:0:
383,190,47348,1,8,2:0:0:0:
330,185,47427,1,8,2:0:0:0:
276,181,47506,2,0,L|192:173,1,56,6|0,3:2|2:0,2:0:0:0:
59,161,47663,1,6,3:2:0:0:
11,277,49076,6,0,P|32:336|94:348,1,132,6|0,3:2|2:0,2:0:0:0:
117,333,49390,2,0,L|213:345,1,88,8|0,2:0|2:0,2:0:0:0:
418,131,49704,1,2,3:2:0:0:
231,230,49862,1,0,3:2:0:0:
376,384,50019,2,0,P|391:336|377:298,1,88,0|8,2:0|2:0,2:0:0:0:
206,131,50333,6,0,B|146:142|146:142|143:141|143:141|53:157,1,132,2|0,2:0|2:0,2:0:0:0:
56,148,50647,2,0,P|26:107|32:64,1,88,8|0,2:0|2:0,2:0:0:0:
229,0,50961,1,0,3:2:0:0:
192,235,51118,1,0,3:2:0:0:
360,111,51275,69,10,2:0:0:0:
360,111,51432,1,0,2:0:0:0:
360,111,51589,2,0,L|458:95,1,88,2|0,3:2|2:0,2:0:0:0:
320,313,51825,1,0,2:0:0:0:
311,305,51903,2,0,P|295:261|311:202,1,88,10|0,2:0|2:0,2:0:0:0:
116,107,52218,1,2,3:2:0:0:
293,25,52375,1,0,3:2:0:0:
117,249,52532,2,0,P|62:243|36:194,1,88,0|8,2:0|2:0,2:0:0:0:
239,384,52846,6,0,P|309:343|408:361,1,176,2|8,2:0|2:0,2:0:0:0:
499,212,53317,1,0,2:0:0:0:
424,116,53474,2,0,P|414:66|432:24,1,88,2|0,3:2|3:2,2:0:0:0:
310,213,53788,2,0,L|200:195,1,88,8|0,2:0|2:0,2:0:0:0:
1,103,54102,70,0,P|51:59|124:70,1,132,2|0,3:2|2:0,2:0:0:0:
120,75,54417,2,0,P|93:119|108:184,1,88,8|0,2:0|2:0,2:0:0:0:
254,384,54731,2,0,P|272:334|228:266,1,132,2|0,3:2|2:0,2:0:0:0:
219,277,55045,2,0,L|109:295,1,88,0|8,2:0|2:0,2:0:0:0:
365,131,55359,6,0,P|407:120|445:99,1,88,2|0,2:0|3:0,2:0:0:0:
438,364,55673,2,0,P|439:321|452:279,1,88,8|0,2:0|2:0,2:0:0:0:
256,35,55987,69,2,3:2:0:0:
336,243,56144,1,0,3:2:0:0:
137,384,56301,5,10,2:0:0:0:
158,188,56458,1,0,2:0:0:0:
37,36,56615,70,0,L|56:125,1,88,2|0,3:2|2:0,2:0:0:0:
268,367,56930,2,0,L|249:278,1,88,10|0,2:0|2:0,2:0:0:0:
146,287,57165,1,0,2:0:0:0:
136,296,57244,2,0,P|92:303|49:314,1,88,2|0,3:2|3:2,2:0:0:0:
210,99,57558,2,0,P|253:91|296:80,1,88,2|8,2:0|2:0,2:0:0:0:
483,243,57872,5,2,2:0:0:0:
294,348,58029,1,0,3:2:0:0:
418,40,58186,2,0,L|398:185,1,132,10|0,2:0|2:0,2:0:0:0:
483,243,58500,2,0,B|532:256|532:256|498:223,1,88,0|0,3:2|3:2,2:0:0:0:
295,80,58814,2,0,P|252:108|187:94,1,88,8|0,2:0|2:0,2:0:0:0:
73,0,59129,70,0,L|87:100,1,88,6|0,3:2|2:0,2:0:0:0:
9,253,59364,1,0,2:0:0:0:
0,244,59443,2,0,L|-12:156,1,88,8|0,2:0|2:0,2:0:0:0:
165,223,59757,1,2,3:2:0:0:
59,384,59914,1,0,3:2:0:0:
171,216,60071,2,0,P|216:224|249:260,1,88,0|8,2:0|2:0,2:0:0:0:
395,384,60385,6,0,L|383:297,1,88,2|0,2:0|3:2,2:0:0:0:
500,46,60699,2,0,L|512:133,1,88,10|0,2:0|2:0,2:0:0:0:
251,14,61013,2,0,P|297:20|336:-6,1,88,2|0,3:2|3:2,2:0:0:0:
95,184,61328,2,0,L|-9:171,1,88,10|0,2:0|2:0,2:0:0:0:
182,351,61642,70,0,P|193:304|172:251,1,88,2|0,3:2|2:0,2:0:0:0:
112,111,61877,1,0,2:0:0:0:
108,101,61956,2,0,L|4:88,1,88,10|0,2:0|2:0,2:0:0:0:
251,14,62270,1,2,3:2:0:0:
182,266,62427,2,0,L|195:370,1,88,0|0,3:0|2:0,2:0:0:0:
95,184,62741,1,10,2:0:0:0:
328,384,62898,6,0,P|419:322|491:347,1,176,2|8,2:0|2:0,2:0:0:0:
368,184,63369,1,0,2:0:0:0:
475,21,63526,2,0,P|488:70|475:119,1,88,2|0,3:2|2:0,2:0:0:0:
368,184,63841,2,0,P|331:163|280:159,1,88,10|0,2:0|2:0,2:0:0:0:
0,286,64155,70,0,P|37:339|154:316,1,176,2|8,3:2|2:0,2:0:0:0:
192,115,64626,2,0,P|180:159|192:203,1,88,2|0,2:0|3:2,2:0:0:0:
266,13,64940,1,0,3:2:0:0:
68,151,65097,2,0,L|-40:170,1,88,2|8,2:0|2:0,2:0:0:0:
282,361,65411,6,0,L|476:328,1,176,2|8,2:0|2:0,2:0:0:0:
329,231,65882,1,2,2:0:0:0:
463,93,66040,2,0,L|447:192,1,88,0|0,3:2|2:0,2:0:0:0:
296,0,66354,2,0,L|312:99,1,88,10|0,2:0|2:0,2:0:0:0:
119,357,66668,70,0,L|104:270,1,88,2|0,3:2|2:0,2:0:0:0:
16,122,66982,1,8,2:0:0:0:
214,335,67139,2,0,L|199:248,1,88,2|0,2:0|3:2,2:0:0:0:
111,100,67453,1,0,3:2:0:0:
368,325,67610,2,0,P|411:316|445:262,1,88,2|8,2:0|2:0,2:0:0:0:
368,110,67924,5,2,2:0:0:0:
487,14,68081,1,0,3:2:0:0:
366,235,68239,1,8,2:0:0:0:
248,16,68396,1,0,2:0:0:0:
512,244,68553,69,2,3:2:0:0:
469,253,68631,1,8,2:3:0:0:
440,285,68710,1,8,2:3:0:0:
436,328,68788,1,8,2:3:0:0:
457,366,68867,5,8,2:3:0:0:
412,361,68945,1,8,2:3:0:0:
368,357,69024,1,4,2:3:0:0:
325,353,69102,1,4,2:3:0:0:
282,347,69181,70,0,B|186:334|186:334|202:352|236:356,1,132,6|0,3:2|2:0,2:0:0:0:
225,365,69495,2,0,L|244:261,1,88,8|0,2:0|2:0,2:0:0:0:
277,49,69809,1,2,3:2:0:0:
133,247,69966,1,0,3:2:0:0:
371,164,70123,1,0,2:0:0:0:
153,64,70280,1,8,2:0:0:0:
153,64,70437,6,0,B|127:43|91:54|91:54|67:95|4:88,1,132,2|0,2:0|2:0,2:0:0:0:
0,25,70752,2,0,B|17:1|17:-22|17:-22|27:1|13:21,1,88,8|0,2:0|2:0,2:0:0:0:
155,178,71066,1,0,3:2:0:0:
34,294,71223,1,0,3:2:0:0:
156,384,71380,2,0,P|198:381|233:347,1,88,10|0,2:0|2:0,2:0:0:0:
244,226,71615,1,0,2:0:0:0:
241,240,71694,70,0,P|272:269|315:272,1,88,2|0,3:2|2:0,2:0:0:0:
512,120,72008,2,0,P|481:149|438:152,1,88,10|0,2:0|2:0,2:0:0:0:
361,83,72322,5,2,3:2:0:0:
361,83,72479,1,0,3:2:0:0:
418,321,72636,1,0,2:0:0:0:
512,120,72793,1,10,2:0:0:0:
280,279,72951,70,0,L|183:261,1,88,2|0,2:0|3:0,2:0:0:0:
14,127,73265,1,8,2:0:0:0:
166,17,73422,2,0,P|173:40|180:70,1,44,2|0,2:0|2:0,2:0:0:0:
55,333,73579,2,0,P|39:286|51:244,1,88,2|0,3:2|3:2,2:0:0:0:
95,187,73814,1,0,2:0:0:0:
106,184,73893,1,8,2:0:0:0:
284,376,74050,1,2,2:0:0:0:
353,313,74207,6,0,B|385:264|438:282|438:282|459:324|518:320,1,176,2|8,3:2|2:0,2:0:0:0:
409,383,74678,1,0,2:0:0:0:
189,117,74835,2,0,B|104:128|104:128|102:126|102:126|14:139,1,176,2|0,3:2|2:0,2:0:0:0:
256,38,75307,1,8,2:0:0:0:
203,202,75464,2,0,B|118:213|118:213|116:211|116:211|28:224,1,176,2|8,2:0|2:0,2:0:0:0:
256,38,75935,1,0,2:0:0:0:
166,335,76092,70,0,P|143:302|146:250,1,88,2|0,3:2|3:2,2:0:0:0:
325,113,76406,2,0,P|348:146|345:198,1,88,10|0,2:0|2:0,2:0:0:0:
409,256,76720,6,0,P|477:265|532:173,1,176,0|10,3:2|2:0,2:0:0:0:
179,384,77348,2,0,B|148:339|76:348|76:348|86:377,1,144,2|0,3:2|2:0,2:0:0:0:
0,384,77663,70,0,L|-13:294,1,88,2|8,2:0|2:0,2:0:0:0:
178,88,77977,2,0,L|165:178,1,88,2|0,2:0|3:0,2:0:0:0:
26,0,78291,1,10,2:0:0:0:
75,233,78448,1,0,2:0:0:0:
271,26,78605,5,0,3:2:0:0:
313,19,78684,1,8,2:3:0:0:
353,34,78762,1,8,2:3:0:0:
378,69,78841,1,8,2:3:0:0:
382,113,78919,70,0,L|372:168,1,44,8|8,2:3|2:3,2:0:0:0:
477,276,79076,2,0,L|484:232,1,44,4|4,2:3|2:3,2:0:0:0:
393,371,79233,6,0,P|348:321|233:347,1,176,6|8,3:2|2:0,2:0:0:0:
0,109,79862,2,0,B|40:103|73:153|73:153|81:96|136:72,1,176,2|0,3:2|2:0,2:0:0:0:
46,20,80333,1,8,2:0:0:0:
192,167,80490,70,0,P|235:171|277:185,1,88,2|0,2:0|3:2,2:0:0:0:
477,30,80804,2,0,P|435:43|391:48,1,88,10|0,2:0|2:0,2:0:0:0:
432,272,81118,2,0,P|449:208|462:183,1,88,2|0,3:2|3:2,2:0:0:0:
252,0,81432,2,0,L|272:142,1,132,10|0,2:0|2:0,2:0:0:0:
189,194,81746,2,0,L|87:177,1,88,2|0,3:2|2:0,2:0:0:0:
33,374,82061,5,10,2:0:0:0:
9,233,82218,1,0,2:0:0:0:
165,53,82375,69,2,3:2:0:0:
189,194,82532,1,0,3:2:0:0:
371,349,82689,5,2,2:0:0:0:
347,208,82846,1,8,2:0:0:0:
473,31,83003,70,0,P|463:66|457:125,1,88,2|0,2:0|3:0,2:0:0:0:
276,365,83317,2,0,P|257:319|283:265,1,88,10|0,2:0|2:0,2:0:0:0:
427,275,83631,2,0,L|513:296,1,88,2|0,3:2|3:2,2:0:0:0:
268,145,83945,2,0,L|136:160,1,132,10|0,2:0|2:0,2:0:0:0:
58,127,84259,6,0,L|-34:138,1,88,2|0,3:2|2:0,2:0:0:0:
92,238,84574,1,8,2:0:0:0:
164,31,84731,1,0,2:0:0:0:
307,178,84888,1,0,3:2:0:0:
307,178,85045,2,0,L|394:167,1,88,0|0,3:2|2:0,2:0:0:0:
504,89,85359,70,0,L|460:83,1,44,8|0,2:0|2:0,2:0:0:0:
378,271,85516,2,0,L|486:285,1,88,0|0,2:0|3:2,2:0:0:0:
239,115,85830,2,0,L|151:125,1,88,8|0,2:0|2:0,2:0:0:0:
9,41,86144,5,2,3:2:0:0:
69,352,86301,1,0,3:2:0:0:
22,283,86458,69,8,2:0:0:0:
56,110,86615,1,0,2:0:0:0:
189,226,86773,1,14,2:0:0:0:
189,226,87401,38,2,L|182:259,2,32,2|0|0,2:0|2:0|2:0,2:0:0:0:
