osu file format v14

[General]
AudioFilename: audio.mp3
AudioLeadIn: 0
PreviewTime: 15
Countdown: 0
SampleSet: Soft
StackLeniency: 0.7
Mode: 0
LetterboxInBreaks: 0
WidescreenStoryboard: 1

[Editor]
Bookmarks: 29129
DistanceSpacing: 1.1
BeatDivisor: 4
GridSize: 4
TimelineZoom: 1.499999

[Metadata]
Title:Heikousen (TV Size)
TitleUnicode:平行線 (TV Size)
Artist:Sayuri
ArtistUnicode:さユり
Creator:hanabyte
Version:kieg's hard
Source:クズの本懐
Tags:kuzu hytaa enri no honkai scum's scums jpop japanese pop wish ending ed anime full_combo yukic mnyui gelidium sainoo nekroman4ik kieg
BeatmapID:3437486
BeatmapSetID:1664522

[Difficulty]
HPDrainRate:5
CircleSize:4
OverallDifficulty:6
ApproachRate:8
SliderMultiplier:1.5
SliderTickRate:1

[Events]
//Background and Video events
0,0,"Vliestapete-Blumen-Vintage-blau-gelbgrau-36921-3-196540.jpg",0,0
//Break Periods
//Storyboard Layer 0 (Background)
//Storyboard Layer 1 (Fail)
//Storyboard Layer 2 (Pass)
//Storyboard Layer 3 (Foreground)
//Storyboard Layer 4 (Overlay)
//Storyboard Sound Samples

[TimingPoints]
151,405.405405405405,4,2,1,30,1,0
151,-133.333333333333,4,2,1,30,0,0
28972,314.13612565445,4,2,1,50,1,0
39024,-133.333333333333,4,2,1,60,0,0
44050,-100,4,2,2,60,0,0
46563,-100,4,2,2,65,0,0
47191,-100,4,2,2,70,0,0
47506,-100,4,2,2,60,0,0
49076,-90.9090909090909,4,2,1,75,0,1
86773,-90.9090909090909,4,2,1,75,0,0
87401,-133.333333333333,4,2,1,75,0,0

[Colours]
Combo1 : 138,171,247
Combo2 : 203,208,200
Combo3 : 193,206,213
Combo4 : 233,231,194
Combo5 : 146,167,197
Combo6 : 251,205,136

[HitObjects]
48,48,151,6,0,B|100:30|139:74|119:85|146:123|188:115,1,168.75,2|0,2:0|2:0,2:0:0:0:
261,89,961,2,0,P|231:136|214:191,1,112.5,2|0,2:0|2:0,2:0:0:0:
300,322,1772,2,0,P|405:328|451:233,1,225.000000000001,2|0,2:0|2:0,2:0:0:0:
310,161,2988,1,2,2:0:0:0:
164,221,3394,2,0,P|140:204|114:194,1,56.2500000000001,2|0,2:0|2:0,2:0:0:0:
38,213,3799,2,0,P|44:159|88:121,2,112.5,2|2|0,2:0|2:0|2:0,2:0:0:0:
138,334,5015,2,0,P|188:309|243:296,1,112.5,2|0,2:0|2:0,2:0:0:0:
308,252,5623,1,0,2:0:0:0:
308,252,5826,2,0,P|358:276|413:289,1,112.5,0|0,2:0|2:0,2:0:0:0:
462,140,6637,6,0,P|401:61|344:76,1,168.75,2|0,2:0|2:0,2:0:0:0:
277,115,7448,2,0,B|236:120|207:84|227:73|188:29|136:47,1,168.75,2|0,2:0|2:0,2:0:0:0:
88,110,8259,2,0,P|126:185|146:266,1,168.75,2|0,2:0|2:0,2:0:0:0:
160,344,9069,2,0,P|186:336|206:316,1,56.2500000000001,2|0,2:0|2:0,2:0:0:0:
262,260,9475,2,0,P|300:298|355:296,1,112.5,2|0,2:0|2:0,2:0:0:0:
434,159,10286,1,2,2:0:0:0:
301,73,10691,2,0,P|246:85|195:110,1,112.5,2|0,2:0|2:0,2:0:0:0:
156,178,11299,2,0,B|105:134|179:55|266:147|216:223,1,225.000000000001,2|0,2:0|2:0,2:0:0:0:
195,300,12313,1,0,2:0:0:0:
195,300,12515,2,0,P|240:262|298:256,1,112.5,0|2,2:0|2:0,2:0:0:0:
369,267,13123,70,0,B|312:262|290:204|320:197|284:127|211:132,1,225.000000000001,2|2,2:0|2:0,2:0:0:0:
80,220,14340,2,0,P|96:242|106:268,1,56.2500000000001,2|0,2:0|2:0,2:0:0:0:
93,346,14745,2,0,P|132:302|195:295,1,112.5,2|2,2:0|2:0,2:0:0:0:
328,233,15556,2,0,P|367:277|430:283,1,112.5,2|2,2:0|2:0,2:0:0:0:
490,151,16367,1,2,2:0:0:0:
463,78,16569,1,0,2:0:0:0:
499,36,16772,1,2,2:0:0:0:
340,55,17178,2,0,B|280:65|299:97|243:107,1,112.5,2|2,2:0|2:0,2:0:0:0:
93,59,17988,1,2,2:0:0:0:
68,214,18394,2,0,P|82:237|90:264,1,56.2500000000001,2|0,2:0|2:0,2:0:0:0:
73,341,18799,2,0,P|109:301|167:291,1,112.5,2|2,2:0|2:0,2:0:0:0:
317,250,19610,6,0,B|366:207|291:127|203:220|257:297,1,225.000000000001,2|0,2:0|2:0,2:0:0:0:
254,293,22042,70,0,B|285:227|357:243|357:243|333:254|323:276,1,168.75,2|0,2:0|2:0,2:0:0:0:
392,312,22853,1,2,2:0:0:0:
431,196,23664,6,2,B|380:158|384:99|384:99|358:152|296:159,2,225.000000000001,2|2|2,2:0|2:0|2:0,2:0:0:0:
256,192,25387,12,0,28529,2:0:0:0:
78,43,28972,6,0,P|30:79|35:143,1,112.5,2|0,3:2|2:0,2:0:0:0:
27,127,29286,2,0,P|44:160|56:196,1,75,2|2,2:0|2:0,2:0:0:0:
41,272,29600,2,0,B|85:286|115:251|103:255|134:220|178:235,1,150,2|2,2:0|2:0,2:0:0:0:
243,286,30071,1,2,2:0:0:0:
313,240,30228,69,2,3:2:0:0:
313,240,30385,2,0,P|330:273|341:309,1,75,2|0,2:0|2:0,2:0:0:0:
408,358,30699,2,0,P|428:286|460:218,1,150,2|2,2:0|3:2,2:0:0:0:
512,154,31170,1,0,2:0:0:0:
512,154,31328,1,0,2:0:0:0:
457,81,31485,6,0,P|418:41|361:44,1,112.5,2|0,3:2|2:0,2:0:0:0:
364,42,31799,2,0,P|341:71|306:82,1,75,2|0,2:0|2:0,2:0:0:0:
225,65,32113,2,0,P|191:47|155:36,1,75,2|0,2:0|3:2,2:0:0:0:
127,111,32427,2,0,P|162:121|196:139,1,75,2|0,2:0|2:0,2:0:0:0:
289,171,32741,70,0,P|216:175|175:235,2,150,2|2|2,3:2|2:0|2:0,2:0:0:0:
352,227,33526,1,0,3:2:0:0:
299,309,33684,1,10,2:0:0:0:
153,367,33998,5,2,3:2:0:0:
79,327,34155,1,2,2:0:0:0:
93,246,34312,2,0,P|81:210|64:177,1,75,10|2,2:0|2:0,2:0:0:0:
7,117,34626,2,0,P|57:92|111:75,1,112.5,2|0,3:2|2:0,2:0:0:0:
110,75,34940,1,2,2:0:0:0:
202,35,35097,70,0,P|235:97|306:94,1,150,10|0,2:0|3:2,2:0:0:0:
380,69,35568,2,0,P|353:118|334:171,1,112.5,8|0,2:0|2:0,2:0:0:0:
334,171,35882,1,2,2:0:0:0:
281,241,36040,1,2,3:2:0:0:
355,289,36197,1,10,2:0:0:0:
355,289,36354,1,2,2:0:0:0:
285,339,36511,6,0,P|248:336|219:314,1,75,2|2,3:2|2:0,2:0:0:0:
145,273,36825,2,0,P|91:289|41:314,1,112.5,10|0,2:0|2:0,2:0:0:0:
41,314,37139,1,2,3:2:0:0:
3,238,37296,2,0,P|12:201|27:167,1,75,2|0,3:2|2:0,2:0:0:0:
19,84,37610,69,10,2:0:0:0:
19,84,37767,2,0,B|63:70|93:105|81:101|112:136|156:121,1,150,2|8,2:0|2:0,2:0:0:0:
234,71,38239,1,8,2:3:0:0:
234,71,38317,1,8,2:3:0:0:
234,71,38396,2,0,P|249:105|257:141,1,75,8|4,2:3|3:0,2:0:0:0:
326,176,38710,1,4,3:0:0:0:
295,246,38867,1,4,3:0:0:0:
385,320,39024,70,0,P|446:335|488:239,1,168.75,2|0,3:2|2:0,2:0:0:0:
484,176,39652,2,0,B|424:186|443:218|387:228,1,112.5,2|2,2:0|2:0,2:0:0:0:
264,316,40280,2,0,P|245:262|219:213,1,112.5,2|2,3:2|2:0,2:0:0:0:
132,125,40909,1,2,2:0:0:0:
223,42,41223,2,0,P|304:55|322:141,1,168.75,2|0,2:0|2:0,2:0:0:0:
271,193,41851,22,0,P|244:201|218:213,1,56.2500000000001,2|0,2:0|2:0,2:0:0:0:
154,250,42165,2,0,P|128:238|101:229,1,56.2500000000001,2|0,2:0|2:0,2:0:0:0:
75,159,42479,2,0,P|23:175|3:233,1,112.5,2|0,2:0|3:0,2:0:0:0:
49,290,42951,1,0,2:0:0:0:
49,290,43108,2,0,P|60:315|69:342,1,56.2500000000001,2|0,2:0|2:0,2:0:0:0:
147,363,43422,2,0,P|197:338|250:319,1,112.5,2|0,2:0|2:0,2:0:0:0:
381,232,44050,54,0,P|374:184|298:156,1,112.5,0|0,3:2|2:0,2:0:0:0:
322,152,44364,2,8,P|296:190|307:226,1,75,0|8,3:2|2:0,2:0:0:0:
416,301,44678,2,8,P|427:246|453:194,1,112.5,0|8,3:2|2:0,2:0:0:0:
451,195,44992,1,0,3:2:0:0:
503,120,45150,1,8,2:0:0:0:
503,120,45228,1,8,2:0:0:0:
503,120,45307,6,8,P|487:72|408:57,1,112.5,0|8,3:2|2:0,2:0:0:0:
432,50,45621,2,8,P|392:79|361:77,1,75,0|8,3:2|2:0,2:0:0:0:
298,24,45935,2,0,P|226:44|158:76,1,150,0|0,3:2|3:2,2:0:0:0:
80,51,46406,1,8,2:0:0:0:
80,51,46485,1,8,2:0:0:0:
80,51,46563,22,0,P|132:84|146:174,1,150,8|8,3:2|3:2,2:0:0:0:
72,208,47034,1,8,2:0:0:0:
122,284,47191,21,8,3:2:0:0:
122,284,47270,1,8,2:0:0:0:
122,284,47348,1,8,2:0:0:0:
196,246,47506,1,6,3:2:0:0:
256,300,47663,1,6,3:2:0:0:
256,300,49076,70,0,P|287:231|368:227,1,165,6|8,3:2|2:0,2:0:0:0:
429,304,49547,1,0,2:0:0:0:
358,373,49704,1,2,3:2:0:0:
358,373,49862,2,0,P|349:333|333:294,1,82.5,0|0,3:2|2:0,2:0:0:0:
269,219,50176,6,0,B|220:203|187:242|200:237|166:276|117:259,1,165,8|0,2:0|3:0,2:0:0:0:
48,203,50647,2,0,P|39:124|109:84,1,165,8|0,2:0|3:2,2:0:0:0:
177,34,51118,1,0,3:2:0:0:
177,34,51275,2,0,P|215:49|255:58,1,82.5,10|0,2:0|2:0,2:0:0:0:
366,150,51589,70,0,P|334:98|351:40,1,123.75,2|0,3:2|2:0,2:0:0:0:
351,39,51903,2,0,P|390:45|415:76,1,82.5,10|0,2:0|2:0,2:0:0:0:
445,170,52218,2,0,P|420:226|405:286,1,123.75,2|0,3:2|2:0,2:0:0:0:
404,286,52532,1,0,2:0:0:0:
455,365,52689,2,0,P|404:303|324:304,1,165,8|0,2:0|3:2,2:0:0:0:
222,354,53160,2,0,P|238:294|263:237,1,123.75,8|0,2:0|2:0,2:0:0:0:
262,237,53474,2,0,P|253:196|238:158,1,82.5,2|0,3:2|3:2,2:0:0:0:
278,91,53788,1,8,2:0:0:0:
278,91,53945,1,0,2:0:0:0:
202,24,54102,6,0,P|145:25|108:115,1,165,2|8,3:2|2:0,2:0:0:0:
161,176,54574,1,0,2:0:0:0:
101,272,54731,1,2,3:2:0:0:
101,272,54888,2,0,P|91:231|75:193,1,82.5,0|0,3:2|2:0,2:0:0:0:
103,355,55202,70,0,B|154:357|176:311|164:319|187:273|239:277,1,165,8|0,2:0|3:0,2:0:0:0:
310,333,55673,2,0,P|373:344|414:260,1,165,8|2,2:0|3:2,2:0:0:0:
370,193,56144,1,0,3:2:0:0:
441,132,56301,2,0,P|432:91|417:53,1,82.5,10|0,2:0|2:0,2:0:0:0:
314,19,56615,6,0,P|256:26|222:84,1,123.75,2|0,3:2|2:0,2:0:0:0:
222,77,56930,2,0,P|191:50|151:47,1,82.5,10|0,2:0|2:0,2:0:0:0:
95,101,57244,2,0,P|56:114|34:147,1,82.5,2|0,3:2|3:2,2:0:0:0:
7,223,57558,1,2,2:0:0:0:
99,288,57715,2,0,P|175:257|255:239,1,165,8|0,2:0|3:2,2:0:0:0:
319,181,58186,2,0,P|366:190|390:233,1,82.5,10|0,2:0|2:0,2:0:0:0:
442,317,58500,2,0,P|452:277|469:239,1,82.5,0|0,3:2|3:2,2:0:0:0:
492,161,58814,2,0,P|481:121|464:83,1,82.5,8|0,2:0|2:0,2:0:0:0:
386,27,59129,70,0,P|286:55|274:114,1,165,6|8,3:2|2:0,2:0:0:0:
319,181,59600,1,0,2:0:0:0:
223,226,59757,1,2,3:2:0:0:
223,226,59914,2,0,P|214:186|198:147,1,82.5,0|0,3:2|2:0,2:0:0:0:
192,67,60228,6,0,B|140:64|118:110|130:102|107:148|55:144,1,165,8|0,2:0|3:2,2:0:0:0:
11,221,60699,2,0,P|51:230|89:245,1,82.5,10|0,2:0|2:0,2:0:0:0:
160,305,61013,2,0,P|187:274|227:270,1,82.5,2|0,3:2|3:2,2:0:0:0:
310,246,61328,2,0,P|337:276|377:280,1,82.5,10|0,2:0|2:0,2:0:0:0:
453,331,61642,70,0,P|469:271|494:214,1,123.75,2|0,3:2|2:0,2:0:0:0:
493,214,61956,2,0,P|484:173|469:135,1,82.5,10|0,2:0|2:0,2:0:0:0:
463,45,62270,2,0,P|383:40|336:103,1,165,2|0,3:2|2:0,2:0:0:0:
391,174,62741,1,10,2:0:0:0:
391,174,62898,2,0,P|314:142|234:124,1,165,2|8,2:0|2:0,2:0:0:0:
79,39,63526,6,0,P|47:64|42:104,1,82.5,2|0,3:2|2:0,2:0:0:0:
102,172,63841,2,0,P|133:197|138:237,1,82.5,10|0,2:0|2:0,2:0:0:0:
59,313,64155,70,0,P|135:281|215:263,1,165,2|8,3:2|2:0,2:0:0:0:
275,199,64626,2,0,P|353:211|385:283,1,165,2|0,2:0|3:2,2:0:0:0:
458,332,65097,2,0,P|473:272|498:215,1,123.75,2|0,2:0|2:0,2:0:0:0:
498,215,65411,6,0,P|477:135|446:58,1,165,2|8,2:0|2:0,2:0:0:0:
357,21,65882,2,0,P|325:93|247:105,1,165,2|0,2:0|2:0,2:0:0:0:
167,51,66354,2,0,P|115:24|83:71,1,123.75,10|0,2:0|2:0,2:0:0:0:
83,69,66668,70,0,B|83:119|130:138|122:126|169:146|169:198,1,165,2|8,3:2|2:0,2:0:0:0:
113,284,67139,2,0,P|162:221|242:221,1,165,2|0,2:0|3:2,2:0:0:0:
305,267,67610,2,0,P|320:305|333:344,1,82.5,2|8,2:0|2:0,2:0:0:0:
419,363,67924,5,2,2:0:0:0:
490,224,68239,1,8,2:0:0:0:
490,224,68396,1,0,2:0:0:0:
426,159,68553,70,0,P|406:165|387:173,3,41.25,2|8|8|8,3:2|2:3|2:3|2:3,2:0:0:0:
357,180,68867,2,0,P|338:171|318:165,3,41.25,8|8|4|4,2:3|2:3|2:3|2:3,2:0:0:0:
288,135,69181,6,0,P|257:204|176:208,1,165,6|8,3:2|2:0,2:0:0:0:
110,143,69652,1,0,2:0:0:0:
163,68,69809,2,0,P|124:52|78:59,1,82.5,2|0,3:2|3:2,2:0:0:0:
30,124,70123,1,0,2:0:0:0:
30,124,70280,70,0,B|14:173|53:206|48:193|87:227|70:276,1,165,8|0,2:0|3:2,2:0:0:0:
31,353,70752,2,0,P|78:295|172:302,1,165,8|0,2:0|3:2,2:0:0:0:
240,349,71223,1,0,3:2:0:0:
240,349,71380,2,0,P|278:334|318:325,1,82.5,10|0,2:0|2:0,2:0:0:0:
435,353,71694,6,0,P|403:301|420:243,1,123.75,2|0,3:2|2:0,2:0:0:0:
419,244,72008,2,0,P|412:204|380:179,1,82.5,10|0,2:0|2:0,2:0:0:0:
283,218,72322,2,0,P|298:158|324:102,1,123.75,2|0,3:2|2:0,2:0:0:0:
324,101,72636,1,0,2:0:0:0:
392,27,72793,2,0,P|326:73|249:52,1,165,10|0,2:0|3:0,2:0:0:0:
175,6,73265,1,8,2:0:0:0:
114,75,73422,1,2,2:0:0:0:
114,75,73579,2,0,P|129:113|137:153,1,82.5,2|0,3:2|3:2,2:0:0:0:
87,231,73893,1,8,2:0:0:0:
87,231,74050,1,2,2:0:0:0:
160,298,74207,70,0,P|212:235|308:237,1,165,2|8,3:2|2:0,2:0:0:0:
352,311,74678,1,0,2:0:0:0:
416,225,74835,1,2,3:2:0:0:
416,225,74992,2,0,P|406:184|390:146,1,82.5,0|0,3:2|2:0,2:0:0:0:
402,62,75307,6,0,B|351:49|320:90|334:84|304:126|254:115,1,165,8|0,2:0|3:2,2:0:0:0:
165,126,75778,2,0,P|136:54|59:58,1,165,8|2,2:0|3:2,2:0:0:0:
22,142,76249,1,0,3:2:0:0:
22,142,76406,2,0,P|37:180|45:220,1,82.5,10|0,2:0|2:0,2:0:0:0:
40,349,76720,70,0,P|72:298|131:290,1,123.75,0|0,3:2|2:0,2:0:0:0:
131,290,77034,2,0,P|162:317|202:320,1,82.5,10|0,2:0|2:0,2:0:0:0:
267,272,77348,2,0,P|257:231|242:193,1,82.5,2|0,3:2|3:2,2:0:0:0:
181,132,77663,2,0,P|190:91|205:53,1,82.5,2|8,2:0|2:0,2:0:0:0:
280,12,77977,5,2,2:0:0:0:
280,12,78134,1,0,3:0:0:0:
362,48,78291,2,0,P|402:52|432:79,1,82.5,10|0,2:0|2:0,2:0:0:0:
466,157,78605,70,0,P|457:175|451:195,3,41.25,0|8|8|8,3:2|2:3|2:3|2:3,2:0:0:0:
429,224,78919,2,0,P|438:243|444:263,3,41.25,8|8|4|4,2:3|2:3|2:3|2:3,2:0:0:0:
452,310,79233,6,0,P|401:249|302:265,1,165,6|8,3:2|2:0,2:0:0:0:
256,320,79704,1,0,2:0:0:0:
199,251,79862,2,0,B|183:202|222:169|217:182|256:148|239:99,1,165,2|0,3:2|2:0,2:0:0:0:
174,20,80333,1,8,2:0:0:0:
106,60,80490,70,0,P|90:98|81:138,1,82.5,2|0,2:0|3:2,2:0:0:0:
21,196,80804,2,0,P|36:234|45:274,1,82.5,10|0,2:0|2:0,2:0:0:0:
119,332,81118,2,0,P|146:301|186:297,1,82.5,2|0,3:2|3:2,2:0:0:0:
267,270,81432,2,0,P|294:300|334:304,1,82.5,10|0,2:0|2:0,2:0:0:0:
453,210,81746,6,0,P|421:286|403:366,2,165,2|10|2,3:2|2:0|3:2,2:0:0:0:
497,127,82532,1,0,3:2:0:0:
497,127,82689,2,0,P|456:117|418:101,1,82.5,2|8,2:0|2:0,2:0:0:0:
354,39,83003,70,0,B|302:35|279:81|291:73|269:119|218:117,2,165,2|10|2,2:0|2:0|3:2,2:0:0:0:
417,94,83788,1,0,3:2:0:0:
417,94,83945,1,10,2:0:0:0:
324,221,84259,6,0,P|286:148|182:141,1,165,2|8,3:2|2:0,2:0:0:0:
137,72,84731,1,0,2:0:0:0:
75,134,84888,1,0,3:2:0:0:
75,134,85045,2,0,P|59:172|50:212,1,82.5,0|0,3:2|2:0,2:0:0:0:
50,298,85359,2,0,B|99:287|129:328|116:322|146:364|197:351,1,165,8|0,2:0|3:2,2:0:0:0:
254,293,85830,69,8,2:0:0:0:
254,293,86144,6,0,B|285:227|357:243|357:243|333:254|323:276,1,165,2|8,3:2|2:0,2:0:0:0:
392,312,86615,1,0,2:0:0:0:
392,312,86773,1,14,2:0:0:0:
431,196,87401,22,2,B|380:158|384:99|384:99|358:152|296:159,2,225.000000000001,2|0|0,2:0|2:0|2:0,2:0:0:0:
