osu file format v14

[General]
AudioFilename: audio.mp3
AudioLeadIn: 0
PreviewTime: 48134
Countdown: 0
SampleSet: Soft
StackLeniency: 0.5
Mode: 0
LetterboxInBreaks: 0
EpilepsyWarning: 1
WidescreenStoryboard: 1

[Editor]
DistanceSpacing: 2.4
BeatDivisor: 4
GridSize: 32
TimelineZoom: 2.599999

[Metadata]
Title:Heikousen (TV Size)
TitleUnicode:平行線 (TV Size)
Artist:Sayuri
ArtistUnicode:さユり
Creator:Haruto
Version:Kalibe's Expert
Source:クズの本懐
Tags:Kuzu no honkai parallel line scum's scums wish ending tv size haruto_aizawa kibbleru irohas mugiwarasekai kalibe toybot vikala sotarks
BeatmapID:1181545
BeatmapSetID:558315

[Difficulty]
HPDrainRate:6
CircleSize:4
OverallDifficulty:8.4
ApproachRate:9.2
SliderMultiplier:1.68
SliderTickRate:1

[Events]
//Background and Video events
0,0,"Heikousen.jpg",0,0
//Break Periods
//Storyboard Layer 0 (Background)
//Storyboard Layer 1 (Fail)
//Storyboard Layer 2 (Pass)
//Storyboard Layer 3 (Foreground)
//Storyboard Layer 4 (Overlay)
//Storyboard Sound Samples

[TimingPoints]
151,405.405405405405,4,2,1,30,1,0
151,-200,4,2,1,30,0,0
23664,-250,4,2,1,30,0,0
24069,-250,4,2,1,20,0,0
24475,-300,4,2,1,35,0,0
24880,-300,4,2,1,20,0,0
25286,-300,4,2,1,40,0,0
25691,-300,4,2,1,20,0,0
26096,-300,4,2,1,23,0,0
26502,-300,4,2,1,25,0,0
26907,-300,4,2,1,28,0,0
27313,-300,4,2,1,30,0,0
27718,-300,4,2,1,35,0,0
28123,-300,4,2,1,40,0,0
28529,-300,4,2,1,45,0,0
28732,-300,4,2,1,5,0,0
28972,314.13612565445,4,2,1,50,1,0
28972,-100,4,2,1,50,0,0
32977,-100,4,2,1,5,0,0
33055,-100,4,2,1,50,0,0
33684,-151.515151515152,4,2,1,55,0,0
33919,-151.515151515152,4,2,1,5,0,0
33998,-100,4,2,1,60,0,0
37532,-100,4,2,1,5,0,0
37610,-100,4,2,1,60,0,0
39024,-200,4,2,1,45,0,0
39338,-200,4,2,1,35,0,0
44050,-80,4,2,1,65,0,0
44286,-80,4,2,1,5,0,0
44364,-80,4,2,1,53,0,0
44443,-80,4,2,1,40,0,0
44678,-80,4,2,1,55,0,0
44757,-80,4,2,1,40,0,0
44992,-80,4,2,1,58,0,0
45071,-80,4,2,1,40,0,0
45307,-80,4,2,1,60,0,0
45385,-80,4,2,1,40,0,0
45621,-80,4,2,1,63,0,0
45699,-80,4,2,1,40,0,0
45935,-80,4,2,1,65,0,0
46013,-80,4,2,1,40,0,0
46249,-80,4,2,1,68,0,0
46328,-80,4,2,1,40,0,0
46563,-80,4,2,1,70,0,0
46642,-80,4,2,1,50,0,0
46877,-80,4,2,1,73,0,0
46956,-80,4,2,1,50,0,0
47191,-80,4,2,1,75,0,0
47270,-80,4,2,1,50,0,0
47506,-71.4285714285714,4,2,1,78,0,0
47584,-71.4285714285714,4,2,1,50,0,0
47663,-71.4285714285714,4,2,1,70,0,0
48448,-90.9090909090909,4,2,0,30,0,0
48605,-90.9090909090909,4,2,0,50,0,0
48762,-90.9090909090909,4,2,0,70,0,0
48919,-90.9090909090909,4,2,0,90,0,0
48998,-90.9090909090909,4,2,1,5,0,0
49076,-100,4,2,1,65,0,1
51511,-100,4,2,1,5,0,1
51589,-100,4,2,1,65,0,1
52610,-100,4,2,1,5,0,1
52689,-100,4,2,1,65,0,1
55123,-100,4,2,1,5,0,1
55202,-100,4,2,1,65,0,1
56537,-100,4,2,1,5,0,1
56615,-100,4,2,1,65,0,1
61563,-100,4,2,1,5,0,1
61642,-100,4,2,1,65,0,1
68553,-100,4,2,1,65,0,0
69181,-100,4,2,1,65,0,1
74757,-100,4,2,1,5,0,1
74835,-100,4,2,1,65,0,1
78605,-80,4,2,1,65,0,1
79233,-100,4,2,1,65,0,1
79469,-100,4,2,1,5,0,1
79547,-100,4,2,1,65,0,1
83867,-100,4,2,1,5,0,1
83945,-100,4,2,1,65,0,1
86773,-100,4,2,1,65,0,0
87401,-133.333333333333,4,2,1,45,0,0
87951,-133.333333333333,4,2,1,5,0,0
88029,-133.333333333333,4,2,1,50,0,0
88579,-133.333333333333,4,2,1,5,0,0
88657,-133.333333333333,4,2,1,55,0,0
89129,-133.333333333333,4,2,1,5,0,0

[Colours]
Combo1 : 125,196,134
Combo2 : 79,210,184
Combo3 : 167,56,106
Combo4 : 150,32,174

[HitObjects]
64,232,151,6,0,P|100:280|208:268,1,168,2|2,0:0|0:0,0:0:0:0:
456,194,1772,2,0,P|420:242|312:230,1,168,2|2,0:0|0:0,0:0:0:0:
204,168,2988,1,2,0:0:0:0:
320,99,3394,6,0,P|359:109|420:123,1,84,2|2,0:0|0:0,0:0:0:0:
279,176,4205,2,0,P|262:247|246:316,1,126,2|0,0:0|0:0,0:0:0:0:
182,348,5015,2,0,B|276:311|248:383|344:351,1,168,2|2,0:0|0:0,0:0:0:0:
465,294,6232,1,0,0:0:0:0:
364,204,6637,6,0,P|269:158|205:151,1,168,2|2,0:0|0:0,0:0:0:0:
207,150,8259,2,0,P|289:136|363:96,1,168,2|2,0:0|0:0,0:0:0:0:
388,229,9475,1,2,0:0:0:0:
507,167,9880,6,0,P|463:156|417:145,1,84,0|2,0:0|0:0,0:0:0:0:
306,249,10691,2,0,P|350:238|396:227,1,84,2|0,0:0|0:0,0:0:0:0:
425,146,11299,2,0,B|364:96|289:146|289:146|252:112|288:80,1,210,2|2,0:0|0:0,0:0:0:0:
338,33,12515,1,0,0:0:0:0:
338,33,12718,2,0,L|386:42,1,42,0|2,0:0|0:0,0:0:0:0:
277,91,13123,6,0,P|227:97|184:103,1,84,2|0,0:0|0:0,0:0:0:0:
32,150,13934,2,0,P|82:156|125:162,1,84,2|0,0:0|0:0,0:0:0:0:
254,255,14745,2,0,P|206:261|156:271,2,84,2|2|2,0:0|0:0|0:0,0:0:0:0:
115,160,15961,1,2,0:0:0:0:
48,314,16367,6,0,L|18:221,1,84,2|2,0:0|0:0,0:0:0:0:
196,188,17178,2,0,L|170:267,1,84,2|2,0:0|0:0,0:0:0:0:
88,160,17988,5,2,0:0:0:0:
61,53,18394,1,0,0:0:0:0:
170,267,18799,5,2,0:0:0:0:
208,164,19205,1,0,0:0:0:0:
291,326,19610,6,0,P|283:284|274:236,1,84,2|0,0:0|0:0,0:0:0:0:
379,276,20421,2,0,P|387:233|396:185,1,84,2|0,0:0|0:0,0:0:0:0:
400,168,22042,2,0,P|320:184|256:120,1,168,2|2,0:0|0:0,0:0:0:0:
209,33,23259,5,0,0:0:0:0:
116,71,23664,2,0,P|70:57|36:51,1,67.2,2|0,0:0|0:0,0:0:0:0:
209,33,24475,2,0,P|241:25|272:12,1,56,2|0,0:0|0:0,0:0:0:0:
192,204,25286,6,0,B|140:249|144:339|198:379|288:372|333:327|334:245|272:199|272:199|315:167|315:167|309:202,1,476,2|0,0:0|0:0,0:0:0:0:
311,195,28972,6,0,L|340:16,1,168,2|10,3:2|0:1,0:0:0:0:
504,104,29443,1,2,0:0:0:0:
504,104,29521,1,0,0:0:0:0:
504,104,29600,2,0,P|456:108|410:121,1,84,2|0,0:1|0:0,0:0:0:0:
231,182,29914,1,10,0:1:0:0:
364,260,30071,1,0,0:0:0:0:
236,352,30228,6,0,P|251:304|264:264,1,84,2|2,3:2|0:0,0:0:0:0:
436,200,30542,1,8,0:1:0:0:
356,316,30699,1,2,0:0:0:0:
356,316,30778,1,0,0:0:0:0:
356,316,30856,1,0,0:0:0:0:
196,220,31013,2,0,B|263:197|277:263|363:223,1,168,2|2,3:2|0:0,0:0:0:0:
508,144,31485,6,0,P|400:148|336:112,1,168,2|8,0:1|0:1,0:0:0:0:
428,56,31956,1,0,0:0:0:0:
428,56,32034,1,0,0:0:0:0:
428,56,32113,1,2,0:0:0:0:
358,223,32270,1,0,3:1:0:0:
265,135,32427,2,0,L|361:119,1,84,10|0,0:1|0:0,0:0:0:0:
476,276,32741,6,0,L|344:244,1,126,2|0,0:1|0:0,0:0:0:0:
324,240,33055,1,10,0:1:0:0:
124,276,33212,1,0,0:0:0:0:
124,276,33291,1,0,0:0:0:0:
124,276,33369,2,0,P|112:324|128:360,1,84,2|0,0:0|3:1,0:0:0:0:
324,318,33684,2,0,P|336:278|322:237,1,83.1599997462158,8|0,0:0|0:0,0:0:0:0:
304,208,33998,5,2,3:1:0:0:
204,280,34155,1,2,0:0:0:0:
320,348,34312,2,0,L|420:380,1,84,10|2,0:0|0:0,0:0:0:0:
386,193,34626,2,0,L|292:210,1,84,2|0,3:2|3:0,0:0:0:0:
404,280,34940,1,2,0:0:0:0:
488,168,35097,6,0,P|404:148|324:128,1,168,8|0,0:0|3:0,0:0:0:0:
163,37,35568,2,0,P|204:30|257:23,1,84,8|0,0:0|0:0,0:0:0:0:
426,64,35882,1,2,0:0:0:0:
296,144,36040,1,2,3:2:0:0:
163,37,36197,1,10,0:0:0:0:
108,216,36354,1,2,0:0:0:0:
0,92,36511,6,0,L|100:116,1,84,2|0,3:2|0:0,0:0:0:0:
246,24,36825,2,0,L|142:40,1,84,10|0,0:0|0:0,0:0:0:0:
16,176,37139,1,2,3:1:0:0:
124,252,37296,2,0,P|196:264|252:224,1,126,2|0,3:1|0:0,0:0:0:0:
264,212,37610,1,10,0:0:0:0:
40,216,37767,6,0,P|23:264|12:320,1,84,2|0,0:0|3:1,0:0:0:0:
264,212,38081,2,0,P|253:171|240:131,1,84,8|0,0:0|0:0,0:0:0:0:
228,100,38317,1,0,0:0:0:0:
228,100,38396,5,10,0:0:0:0:
180,340,38553,1,0,3:1:0:0:
324,148,38710,5,6,3:3:0:0:
292,364,38867,1,4,3:3:0:0:
124,252,39024,1,6,0:0:0:0:
124,252,39652,6,0,P|111:207|97:157,1,84,10|2,0:1|0:0,0:0:0:0:
68,49,40280,2,0,P|113:62|163:76,1,84,2|0,0:0|0:0,0:0:0:0:
268,110,40909,2,0,P|240:141|212:173,1,84,10|2,0:1|0:0,0:0:0:0:
124,252,41537,5,2,0:0:0:0:
207,345,41851,2,0,P|239:361|294:351,1,84,2|10,0:0|0:1,0:0:0:0:
458,261,42479,2,0,P|420:278|380:272,1,84,0|2,0:0|0:0,0:0:0:0:
267,215,43108,1,2,0:0:0:0:
207,345,43422,1,10,0:1:0:0:
128,234,44050,6,0,P|219:251|269:210,1,157.5,4|0,0:0|0:0,0:0:0:0:
289,186,44364,5,10,0:0:0:0:
294,222,44443,1,0,0:0:0:0:
302,257,44521,1,0,0:0:0:0:
308,293,44600,1,0,0:0:0:0:
314,328,44678,2,0,L|323:391,3,52.5,10|0|0|0,0:0|0:0|0:0|0:0,0:0:0:0:
414,313,44992,5,10,0:0:0:0:
381,296,45071,1,0,0:0:0:0:
345,289,45149,1,0,0:0:0:0:
308,293,45228,1,0,0:0:0:0:
274,307,45306,5,10,0:0:0:0:
237,304,45385,1,0,0:0:0:0:
207,281,45464,1,0,0:0:0:0:
194,246,45542,1,0,0:0:0:0:
208,212,45621,1,10,0:0:0:0:
241,197,45699,1,0,0:0:0:0:
277,196,45778,1,0,0:0:0:0:
310,209,45856,1,0,0:0:0:0:
335,237,45935,6,0,P|341:263|346:298,1,52.5,10|0,0:0|0:0,0:0:0:0:
246,355,46092,2,0,P|241:329|236:303,1,52.5,0|0,0:0|0:0,0:0:0:0:
250,145,46249,6,0,P|244:170|240:196,1,52.5,8|0,0:0|0:0,0:0:0:0:
368,152,46406,2,0,P|363:126|358:100,1,52.5,0|0,0:0|0:0,0:0:0:0:
304,36,46563,5,10,0:0:0:0:
264,21,46642,1,0,0:0:0:0:
222,23,46720,1,0,0:0:0:0:
184,41,46799,1,0,0:0:0:0:
153,68,46877,1,8,0:0:0:0:
111,73,46956,1,0,0:0:0:0:
70,63,47034,1,0,0:0:0:0:
40,33,47113,1,0,0:0:0:0:
86,36,47191,5,8,0:0:0:0:
111,73,47270,1,0,0:0:0:0:
109,119,47348,1,0,0:0:0:0:
87,161,47427,1,0,0:0:0:0:
55,204,47506,1,8,0:0:0:0:
38,254,47584,1,0,0:0:0:0:
47,306,47663,1,8,0:0:0:0:
267,233,48448,6,2,B|315:251|330:211|330:211|241:142|185:278|95:197,1,323.400009869385,0|0,0:0|0:0,0:0:0:0:
87,161,49076,6,0,P|146:185|243:150,1,168,6|8,3:2|0:0,0:0:0:0:
364,80,49547,1,0,0:0:0:0:
172,16,49704,1,2,3:1:0:0:
172,16,49862,2,0,L|156:104,1,84,0|0,3:1|0:0,0:0:0:0:
264,48,50176,1,8,0:0:0:0:
89,179,50333,6,0,P|176:135|252:159,1,168,2|8,0:0|0:0,0:0:0:0:
364,220,50804,1,2,0:0:0:0:
168,272,50961,1,0,3:1:0:0:
264,368,51118,1,0,3:1:0:0:
476,296,51275,2,0,P|396:276|340:260,1,126,10|0,0:0|0:0,0:0:0:0:
320,256,51589,6,0,P|304:212|312:176,1,84,2|0,3:1|0:0,0:0:0:0:
440,120,51903,2,0,P|447:160|431:199,1,84,10|0,0:0|0:0,0:0:0:0:
292,276,52218,1,2,3:1:0:0:
230,154,52375,2,0,L|318:178,1,84,0|0,3:1|0:0,0:0:0:0:
472,104,52689,1,8,0:0:0:0:
304,24,52846,6,0,P|323:113|344:200,1,168,2|8,0:1|0:0,0:0:0:0:
372,328,53317,1,2,0:0:0:0:
220,188,53474,2,0,P|212:228|200:280,1,84,0|2,3:1|3:1,0:0:0:0:
56,352,53788,2,0,P|46:311|38:269,1,84,10|0,0:2|3:0,0:0:0:0:
0,100,54102,6,0,P|80:152|148:128,1,168,2|8,3:1|0:0,0:0:0:0:
223,12,54574,1,0,0:0:0:0:
81,64,54731,1,2,3:1:0:0:
200,196,54888,2,0,L|292:220,1,84,0|0,3:1|0:0,0:0:0:0:
168,96,55202,1,8,0:0:0:0:
68,232,55359,6,0,P|54:280|48:320,1,84,2|0,0:0|3:1,0:0:0:0:
312,224,55673,2,0,P|304:182|292:142,1,84,8|0,0:0|0:0,0:0:0:0:
136,292,55987,1,2,3:1:0:0:
216,200,56144,1,0,3:1:0:0:
332,312,56301,2,0,P|396:348|464:316,1,126,10|0,0:0|0:0,0:0:0:0:
460,252,56615,6,0,P|352:240|320:288,1,168,2|10,3:1|0:0,0:0:0:0:
443,335,57087,1,0,0:0:0:0:
468,220,57244,2,0,L|484:124,1,84,2|0,3:1|3:1,0:0:0:0:
322,278,57558,5,2,0:0:0:0:
296,146,57715,2,0,L|276:46,1,84,8|2,0:0|0:0,0:0:0:0:
396,100,58029,1,0,3:1:0:0:
196,208,58186,2,0,P|88:196|40:160,1,168,8|0,0:0|3:1,0:0:0:0:
176,60,58657,6,0,L|185:121,1,42,2|0,3:1|0:0,0:0:0:0:
200,232,58814,1,8,0:0:0:0:
364,196,58971,1,8,0:0:0:0:
84,296,59129,6,0,B|165:267|155:340|251:297,1,168,14|8,0:2|0:0,0:0:0:0:
384,228,59600,1,0,0:0:0:0:
260,132,59757,2,0,P|235:164|228:212,1,84,2|0,3:1|3:1,0:0:0:0:
396,368,60071,6,0,L|408:308,1,42,0|0,0:0|0:0,0:0:0:0:
419,235,60228,1,8,0:0:0:0:
244,280,60385,6,0,P|324:265|416:252,1,168,2|10,0:0|0:0,0:0:0:0:
256,172,60856,1,0,0:0:0:0:
168,336,61013,2,0,P|120:332|88:312,1,84,2|0,3:1|3:1,0:0:0:0:
8,188,61328,2,0,P|60:148|124:164,1,126,10|0,0:0|0:0,0:0:0:0:
144,256,61642,6,0,P|52:260|4:208,1,168,2|10,3:1|0:0,0:0:0:0:
76,64,62113,1,0,0:0:0:0:
188,188,62270,2,0,P|236:175|280:166,1,84,2|0,3:1|3:1,0:0:0:0:
207,75,62584,1,0,0:0:0:0:
144,256,62741,1,10,0:0:0:0:
351,188,62898,6,0,P|303:175|259:166,1,84,2|0,0:0|3:1,0:0:0:0:
36,96,63212,2,0,B|122:63|100:136|208:88,1,168,8|2,0:0|3:1,0:0:0:0:
312,0,63684,1,0,3:1:0:0:
148,28,63841,1,10,0:0:0:0:
236,192,63998,1,8,0:0:0:0:
353,97,64155,6,0,P|245:117|189:84,1,168,2|8,3:2|0:0,0:0:0:0:
74,160,64626,2,0,B|30:236|106:244|58:328,1,168,2|0,0:0|3:1,0:0:0:0:
144,208,65097,6,0,L|208:220,1,42,2|0,0:0|0:0,0:0:0:0:
292,244,65254,1,8,0:0:0:0:
451,219,65411,6,0,P|351:215|285:249,1,168,2|8,0:0|0:0,0:0:0:0:
164,364,65882,2,0,P|177:274|142:206,1,168,2|0,0:0|3:1,0:0:0:0:
36,76,66354,2,0,P|76:104|168:92,1,126,10|0,0:0|3:0,0:0:0:0:
228,64,66668,5,2,3:1:0:0:
184,215,66825,1,0,0:0:0:0:
240,24,66982,1,8,0:0:0:0:
304,232,67139,5,2,0:0:0:0:
260,60,67296,1,0,3:1:0:0:
316,268,67453,1,0,3:1:0:0:
150,178,67610,6,0,L|214:170,1,42,2|0,0:0|0:0,0:0:0:0:
294,162,67767,1,8,0:0:0:0:
455,180,67924,6,0,B|391:164|391:164|343:180|343:180|287:160,1,168,2|8,0:0|0:0,0:0:0:0:
330,53,68396,1,0,0:0:0:0:
154,109,68553,21,2,3:2:0:0:
132,144,68631,1,8,0:0:0:0:
128,186,68710,1,8,0:0:0:0:
146,223,68788,1,8,0:0:0:0:
158,263,68867,1,8,0:0:0:0:
155,304,68945,1,8,0:0:0:0:
121,329,69024,1,0,3:0:0:0:
79,322,69102,1,0,3:0:0:0:
98,284,69181,6,0,B|187:264|170:335|263:301,1,168,6|8,3:2|0:0,0:0:0:0:
412,240,69652,1,0,0:0:0:0:
286,155,69809,2,0,P|281:123|303:67,1,84,2|0,3:1|3:1,0:0:0:0:
404,128,70123,1,0,0:0:0:0:
220,232,70280,1,8,0:0:0:0:
122,114,70437,6,0,L|293:156,1,168,2|8,0:0|0:0,0:0:0:0:
216,52,70909,1,0,0:0:0:0:
137,246,71066,2,0,P|176:237|229:230,1,84,0|0,3:1|3:1,0:0:0:0:
404,200,71380,2,0,P|362:193|321:185,1,84,10|0,0:0|0:0,0:0:0:0:
152,328,71694,6,0,P|188:368|308:368,1,168,2|8,3:1|0:0,0:0:0:0:
431,300,72165,1,0,3:0:0:0:
312,216,72322,2,0,P|297:256|280:304,1,84,2|0,3:1|3:1,0:0:0:0:
132,380,72636,2,0,L|112:320,1,42,0|0,0:0|0:0,0:0:0:0:
155,249,72793,6,0,P|241:209|315:217,1,168,8|0,0:0|3:1,0:0:0:0:
456,328,73265,1,8,0:0:0:0:
328,184,73422,1,2,0:0:0:0:
264,376,73579,1,2,3:1:0:0:
155,249,73736,1,0,3:1:0:0:
264,376,73893,1,8,0:0:0:0:
480,240,74050,1,2,0:0:0:0:
356,320,74207,6,0,P|244:324|192:292,1,168,2|8,3:1|0:0,0:0:0:0:
104,116,74678,1,0,0:0:0:0:
0,224,74835,2,0,P|34:215|112:200,1,84,2|0,3:1|3:1,0:0:0:0:
208,264,75150,1,0,0:0:0:0:
12,324,75307,1,8,0:0:0:0:
120,372,75464,6,0,B|160:300|88:288|132:200,1,168,2|8,0:0|0:0,0:0:0:0:
211,84,75935,1,0,0:0:0:0:
348,172,76092,2,0,P|300:172|252:148,1,84,2|0,3:1|3:1,0:0:0:0:
108,36,76406,2,0,P|156:36|204:60,1,84,10|0,0:0|0:0,0:0:0:0:
411,113,76720,6,0,P|314:112|264:162,1,168,0|10,3:1|0:0,0:0:0:0:
328,324,77191,1,0,0:0:0:0:
464,264,77348,1,2,3:1:0:0:
248,184,77506,1,0,3:1:0:0:
356,188,77663,6,0,L|344:248,1,42,2|0,0:0|0:0,0:0:0:0:
328,324,77820,1,8,0:0:0:0:
171,344,77977,6,0,P|279:352|330:322,1,168,0|8,0:0|3:2,0:0:0:0:
232,124,78448,1,2,0:0:0:0:
148,272,78605,6,0,L|163:325,1,52.5,0|0,3:1|0:0,0:0:0:0:
333,241,78762,2,0,L|316:305,1,52.5,8|8,0:0|0:0,0:0:0:0:
236,248,78919,1,8,0:0:0:0:
229,206,78998,1,8,0:0:0:0:
236,164,79076,1,2,3:2:0:0:
232,124,79155,1,0,3:0:0:0:
211,87,79233,6,0,P|312:110|364:58,1,168,6|8,3:1|0:0,0:0:0:0:
276,20,79704,1,0,0:0:0:0:
124,116,79862,2,0,P|104:160|96:208,1,84,2|0,3:1|3:1,0:0:0:0:
211,87,80176,1,0,0:0:0:0:
2,139,80333,1,8,0:0:0:0:
136,312,80490,6,0,P|126:271|108:233,1,84,2|0,0:0|3:1,0:0:0:0:
31,61,80804,2,0,P|21:101|3:139,1,84,10|0,0:0|0:0,0:0:0:0:
0,348,81118,6,0,P|18:310|27:269,1,84,2|0,3:1|3:1,0:0:0:0:
128,88,81432,2,0,P|146:125|155:166,1,84,8|0,0:0|3:0,0:0:0:0:
92,340,81746,6,0,B|180:304|168:384|264:336,1,168,2|10,3:1|0:0,0:0:0:0:
364,228,82218,1,0,0:0:0:0:
488,332,82375,2,0,P|447:322|406:312,1,84,2|0,3:1|3:1,0:0:0:0:
204,224,82689,6,0,L|255:233,1,42,2|0,0:0|0:0,0:0:0:0:
336,212,82846,1,8,0:0:0:0:
475,175,83003,6,0,P|414:229|335:211,1,168,2|10,0:0|0:0,0:0:0:0:
211,139,83474,1,0,0:0:0:0:
364,72,83631,2,0,L|500:92,1,126,2|0,3:1|0:0,0:0:0:0:
512,112,83945,1,10,0:0:0:0:
408,0,84102,1,0,0:0:0:0:
293,123,84259,6,0,P|247:131|210:139,1,84,2|0,0:1|0:0,0:0:0:0:
40,72,84574,2,0,P|48:117|56:155,1,84,8|0,0:0|0:0,0:0:0:0:
168,308,84888,1,2,3:1:0:0:
132,144,85045,1,0,3:1:0:0:
276,200,85202,1,0,0:0:0:0:
80,352,85359,6,0,B|168:320|136:404|252:352,1,168,10|0,0:0|3:1,0:0:0:0:
408,300,85830,2,0,P|357:294|320:267,1,84,8|2,0:0|0:0,0:0:0:0:
114,220,86144,2,0,P|165:214|202:187,1,84,0|2,3:1|3:1,0:0:0:0:
308,4,86458,2,0,P|295:77|284:136,1,126,10|0,0:0|0:0,0:0:0:0:
276,168,86773,5,4,0:0:0:0:
188,156,87401,6,0,P|220:240|276:168,1,220.500008411408,2|0,0:0|0:0,0:0:0:0:
319,106,88029,6,0,B|266:196|377:227|311:316,1,220.500008411408,2|0,0:0|0:0,0:0:0:0:
248,356,88657,6,0,B|189:368|130:326|130:326|164:350|173:387,1,189.000007209778,2|0,0:0|0:0,0:0:0:0:
