osu file format v14

[General]
AudioFilename: audio.mp3
AudioLeadIn: 0
PreviewTime: 69788
Countdown: 0
SampleSet: Soft
StackLeniency: 0.7
Mode: 0
LetterboxInBreaks: 0
WidescreenStoryboard: 1

[Editor]
Bookmarks: 39788,120207,205652,242092
DistanceSpacing: 0.9
BeatDivisor: 2
GridSize: 32
TimelineZoom: 1.3

[Metadata]
Title:Heikousen
TitleUnicode:平行線
Artist:Sayuri
ArtistUnicode:さユり
Creator:Rizia
Version:Kisses' Normal
Source:クズの本懐
Tags:Kuzu no Honkai Scum's Wish anime ending kawaiwkyik Kisses DreaM117er m1223961117
BeatmapID:1351425
BeatmapSetID:583370

[Difficulty]
HPDrainRate:4
CircleSize:3.5
OverallDifficulty:4.5
ApproachRate:5
SliderMultiplier:1.4
SliderTickRate:1

[Events]
//Background and Video events
0,0,"bg.jpg",0,0
//Break Periods
2,39988,48326
2,110354,119007
2,195799,204452
2,225956,234609
//Storyboard Layer 0 (Background)
//Storyboard Layer 1 (Fail)
//Storyboard Layer 2 (Pass)
//Storyboard Layer 3 (Foreground)
//Storyboard Sound Samples

[TimingPoints]
898,810.810810810811,4,2,1,40,1,0
29736,314.13612565445,4,2,0,70,1,0
29736,-117.647058823529,4,2,0,70,0,0
49526,-125,4,2,0,70,0,0
59893,-166.666666666667,4,2,0,50,0,0
64919,-125,4,1,0,60,0,0
69945,-117.647058823529,4,2,0,80,0,1
107641,-125,4,2,0,80,0,0
108270,-125,4,2,0,40,0,0
110154,-125,4,1,0,80,0,0
120207,-125,4,2,0,60,0,0
145338,-166.666666666667,4,2,0,60,0,0
150364,-125,4,1,0,60,0,0
155390,-117.647058823529,4,2,0,80,0,1
193086,-125,4,2,0,80,0,0
193715,-125,4,2,0,40,0,0
195599,-125,4,1,0,80,0,0
205652,-142.857142857143,4,2,0,80,0,0
220730,-125,4,2,0,80,0,0
224500,-125,4,2,0,80,0,0
225756,-125,4,2,0,40,0,0
235809,-166.666666666667,4,2,0,40,0,0
240835,-142.857142857143,4,2,0,40,0,0
243348,-125,4,2,0,70,0,0
245861,-117.647058823529,4,2,0,80,0,1
283557,-125,4,2,0,80,0,0
284186,-125,4,2,0,40,0,0
286071,-125,4,2,0,80,0,0

[Colours]
Combo1 : 128,0,255
Combo2 : 191,223,255
Combo3 : 0,128,255
Combo4 : 255,0,0

[HitObjects]
133,368,898,6,0,L|223:357,1,70
311,312,1708,2,0,P|289:280|246:260,1,70,0|0,0:0|0:0,0:0:0:0:
155,211,2519,2,0,P|228:225|293:174,1,140,0|0,0:0|0:0,0:0:0:0:
227,85,3735,1,0,0:0:0:0:
335,36,4141,6,0,P|374:41|430:55,1,70,0|0,0:0|0:0,0:0:0:0:
458,153,4952,2,0,P|419:148|363:134,1,70,0|0,0:0|0:0,0:0:0:0:
338,249,5762,2,0,P|371:234|420:241,2,70,0|0|0,0:0|0:0|0:0,0:0:0:0:
168,128,7384,6,0,P|115:166|48:147,2,140,0|0|0,0:0|0:0|0:0,0:0:0:0:
209,327,9816,1,0,0:0:0:0:
287,237,10222,2,0,L|434:223,1,140,0|0,0:0|0:0,0:0:0:0:
489,122,11438,6,0,L|416:112,1,70,0|0,0:0|0:0,0:0:0:0:
394,64,12046,2,0,P|331:106|229:64,1,175,0|0,0:0|0:0,0:0:0:0:
51,178,13870,6,0,L|130:169,1,70,0|0,0:0|0:0,0:0:0:0:
213,244,14681,2,0,P|237:184|221:111,1,140,0|0,0:0|0:0,0:0:0:0:
272,4,15898,1,0,0:0:0:0:
383,44,16303,2,0,L|374:120,1,70,0|0,0:0|0:0,0:0:0:0:
316,217,17114,5,0,0:0:0:0:
403,297,17519,2,0,P|439:282|482:287,2,70,0|0|0,0:0|0:0|0:0,0:0:0:0:
298,354,18735,2,0,L|218:336,1,70,0|0,0:0|0:0,0:0:0:0:
161,241,19546,2,0,L|229:226,1,70,0|0,0:0|0:0,0:0:0:0:
111,175,20357,6,0,B|172:266|62:297|110:378,1,210,0|0,0:0|0:0,0:0:0:0:
410,265,22789,2,0,L|322:247,1,70,0|0,0:0|0:0,0:0:0:0:
249,174,23600,5,0,0:0:0:0:
99,321,24411,2,0,P|115:291|116:256,1,70,0|0,0:0|0:0,0:0:0:0:
29,173,25222,2,0,P|13:203|12:238,1,70,0|0,0:0|0:0,0:0:0:0:
256,192,26033,12,0,28465,0:0:0:0:
242,186,29736,6,0,L|370:177,1,119.000002269745,2|0,1:2|1:0,0:0:0:0:
414,179,30207,2,0,P|373:229|395:294,1,119.000002269745,2|0,0:0|0:0,0:0:0:0:
410,324,30678,2,0,B|338:301|338:301|287:379|191:338,1,238.00000453949,2|0,1:2|1:0,0:0:0:0:
139,249,31620,1,2,1:2:0:0:
67,329,31934,1,0,1:2:0:0:
19,232,32249,6,0,B|71:199|71:199|134:225,1,119.000002269745,2|0,1:2|1:0,0:0:0:0:
171,244,32720,2,0,L|160:114,1,119.000002269745,2|0,0:0|0:0,0:0:0:0:
189,80,33191,2,0,P|251:132|340:106,1,178.500003404617,2|0,1:2|0:0,0:0:0:0:
365,61,33819,1,2,1:2:0:0:
449,127,34133,2,0,L|530:116,2,59.5000011348725,0|0|0,1:0|0:0|1:0,0:0:0:0:
390,216,34762,6,0,L|268:198,1,119.000002269745,2|0,1:2|1:0,0:0:0:0:
233,235,35233,2,0,B|175:249|175:249|124:217,1,119.000002269745,2|0,0:0|0:0,0:0:0:0:
72,226,35704,2,0,P|141:137|92:35,1,238.00000453949,2|0,1:2|1:0,0:0:0:0:
197,15,36646,1,2,1:2:0:0:
248,109,36961,1,0,1:0:0:0:
336,48,37275,6,0,B|471:36,1,119.000002269745,2|0,1:2|1:0,0:0:0:0:
503,59,37746,2,0,P|468:111|482:169,1,119.000002269745,2|0,0:0|0:0,0:0:0:0:
450,209,38217,2,0,B|395:247|395:247|265:211,1,178.500003404617,2|0,1:2|0:0,0:0:0:0:
237,197,38845,1,2,1:2:0:0:
206,299,39160,2,0,B|156:283|117:319|117:319|100:302|100:302|30:325|0:265,1,238.00000453949,0|4,1:0|0:0,0:0:0:0:
83,256,49526,5,4,1:0:0:0:
135,342,49840,6,0,L|251:328,1,112,2|0,0:2|0:0,0:0:0:0:
289,354,50311,1,2,0:0:0:0:
289,354,50468,2,0,P|348:351|379:306,1,112,2|0,0:0|1:0,0:0:0:0:
349,214,51097,1,2,0:0:0:0:
349,214,51254,1,2,0:0:0:0:
443,179,51568,1,2,0:0:0:0:
384,96,51882,2,0,L|393:40,2,56,0|0|0,0:0|1:0|0:0,0:0:0:0:
339,119,52353,6,0,P|293:114|253:50,2,112,2|2|2,0:0|0:0|0:0,0:0:0:0:
439,113,53296,1,0,1:2:0:0:
423,212,53610,2,0,L|311:226,2,112,2|2|2,0:0|0:0|0:0,0:0:0:0:
487,289,54552,1,0,1:2:0:0:
394,329,54866,6,0,P|393:357|402:384,2,56,2|0|0,0:0|0:0|1:0,0:0:0:0:
350,301,55338,1,2,0:0:0:0:
350,301,55495,2,0,P|294:285|237:322,1,112,2|0,0:0|0:0,0:0:0:0:
213,344,55966,2,0,B|205:224,1,112,2|0,1:2|0:0,0:0:0:0:
226,186,56437,1,0,1:0:0:0:
159,109,56751,2,0,P|132:108|89:129,2,56,2|0|0,0:0|0:0|1:0,0:0:0:0:
202,84,57222,1,2,0:0:0:0:
202,84,57379,6,0,P|216:61|219:13,2,56,2|0|0,0:0|0:0|1:0,0:0:0:0:
252,171,58008,1,2,0:0:0:0:
252,171,58165,2,0,L|398:160,1,112,2|0,0:0|1:0,0:0:0:0:
386,117,58636,2,0,P|448:103|495:141,1,112,2|0,0:0|1:0,0:0:0:0:
466,226,59264,1,8,0:3:0:0:
481,324,59578,1,4,0:3:0:0:
386,289,59893,5,4,0:0:0:0:
229,350,60521,2,0,L|145:343,1,83.9999974365235,2|0,0:0|0:0,0:0:0:0:
86,272,61149,2,0,P|51:248|10:248,2,83.9999974365235,2|0|0,0:0|0:0|0:0,0:0:0:0:
157,213,62092,6,0,P|234:178|311:205,1,167.999994873047,2|0,0:0|0:0,0:0:0:0:
371,138,63034,1,0,0:0:0:0:
447,186,63348,2,0,P|479:260|441:331,1,167.999994873047,2|0,0:0|0:0,0:0:0:0:
385,257,64290,1,2,0:0:0:0:
179,144,64919,5,4,0:0:0:0:
145,239,65233,1,0,0:0:0:0:
176,334,65547,2,0,L|290:324,1,112
294,223,66175,2,0,L|405:248,1,112
483,186,66804,2,0,P|503:241|483:308,1,112,0|0,0:0|0:0,0:0:0:0:
417,359,67432,5,0,0:0:0:0:
325,316,67746,1,0,0:0:0:0:
233,359,68060,2,0,L|168:346,1,56,0|0,0:0|0:0,0:0:0:0:
143,310,68374,2,0,L|87:317,1,56,0|0,0:0|0:0,0:0:0:0:
87,316,69945,6,0,P|145:287|214:307,1,119.000002269745,4|0,0:0|1:0,0:0:0:0:
263,212,70573,2,0,P|263:184|249:147,2,59.5000011348725,2|0|0,0:0|0:0|0:0,0:0:0:0:
289,258,71044,2,0,L|421:244,1,119.000002269745,2|0,1:2|0:0,0:0:0:0:
453,217,71516,2,0,P|425:162|448:91,1,119.000002269745,0|0,1:2|0:0,0:0:0:0:
396,8,72144,1,2,1:2:0:0:
315,78,72458,6,0,P|252:84|198:49,1,119.000002269745,2|0,0:0|1:0,0:0:0:0:
100,78,73086,2,0,L|93:12,2,59.5000011348725,2|0|0,0:0|0:0|0:0,0:0:0:0:
59,113,73557,2,0,P|28:160|50:234,1,119.000002269745,0|0,1:0|0:0,0:0:0:0:
66,264,74029,2,0,L|225:244,1,119.000002269745,0|0,1:0|0:0,0:0:0:0:
253,167,74657,1,0,1:0:0:0:
318,251,74971,6,0,P|373:267|425:241,2,119.000002269745,2|0|2,0:0|1:0|0:0,0:0:0:0:
272,276,75756,2,0,P|248:239|269:144,1,119.000002269745,2|0,0:2|1:0,0:0:0:0:
283,122,76228,2,0,L|153:131,1,119.000002269745,2|0,0:0|1:0,0:0:0:0:
99,215,76856,1,2,0:0:0:0:
205,233,77170,1,2,1:2:0:0:
163,331,77484,6,0,P|221:338|274:314,1,119.000002269745,2|0,0:0|1:0,0:0:0:0:
343,232,78112,1,2,0:0:0:0:
286,140,78427,1,2,0:0:0:0:
286,140,78584,2,0,L|159:124,1,119.000002269745,2|0,1:2|0:0,0:0:0:0:
125,92,79055,2,0,P|169:51|236:56,1,119.000002269745,0|0,1:2|0:0,0:0:0:0:
319,1,79683,1,0,1:0:0:0:
385,84,79997,6,0,L|510:74,2,119.000002269745,6|0|2,0:0|1:0|0:0,0:0:0:0:
359,131,80783,2,0,P|296:138|232:105,1,119.000002269745,2|0,0:0|1:0,0:0:0:0:
206,80,81254,1,2,0:0:0:0:
100,99,81568,1,2,1:2:0:0:
121,203,81882,1,2,0:0:0:0:
227,184,82196,1,2,1:2:0:0:
333,165,82510,6,0,L|313:288,1,119.000002269745,2|0,0:0|1:0,0:0:0:0:
244,364,83139,2,0,P|171:374|121:340,1,119.000002269745,2|0,0:0|0:0,0:0:0:0:
126,300,83610,1,2,1:2:0:0:
126,300,83767,2,0,P|75:273|1:289,1,119.000002269745,2|0,0:0|1:0,0:0:0:0:
32,174,84395,2,0,P|9:123|29:51,1,119.000002269745,2|0,0:0|1:0,0:0:0:0:
113,13,85023,6,0,L|238:0,1,119.000002269745,2|0,0:0|1:0,0:0:0:0:
260,45,85495,2,0,L|396:58,1,119.000002269745,2|0,0:0|0:0,0:0:0:0:
427,34,85966,1,2,0:2:0:0:
500,111,86280,2,0,L|513:249,1,119.000002269745,2|0,0:0|1:0,0:0:0:0:
491,283,86751,2,0,P|443:309|373:291,1,119.000002269745,2|0,0:0|0:0,0:0:0:0:
356,250,87222,1,2,1:2:0:0:
261,301,87537,6,0,P|237:256|252:173,1,119.000002269745,2|0,0:0|1:0,0:0:0:0:
218,141,88008,2,0,L|349:126,1,119.000002269745,2|0,0:0|0:0,0:0:0:0:
384,103,88479,1,2,0:0:0:0:
311,24,88793,2,0,P|257:0|186:17,1,119.000002269745,2|0,0:0|1:0,0:0:0:0:
158,43,89264,1,2,0:0:0:0:
158,43,89421,2,0,B|183:203|183:203|160:175|107:170,1,238.00000453949,2|4,1:2|0:0,0:0:0:0:
21,222,90364,5,0,1:0:0:0:
108,278,90678,2,0,L|101:337,2,59.5000011348725,2|0|0,0:0|0:0|0:0,0:0:0:0:
156,256,91149,2,0,L|305:242,1,119.000002269745,2|0,1:2|0:0,0:0:0:0:
304,200,91620,2,0,P|374:193|421:237,1,119.000002269745,0|0,1:0|0:0,0:0:0:0:
512,186,92249,1,0,1:0:0:0:
485,289,92563,6,0,P|441:317|366:311,1,119.000002269745,2|0,0:0|1:0,0:0:0:0:
283,260,93191,2,0,L|294:166,2,59.5000011348725,2|0|0,0:0|0:0|0:0,0:0:0:0:
243,296,93662,2,0,P|197:271|114:284,1,119.000002269745,2|0,1:2|0:0,0:0:0:0:
47,340,94290,1,2,0:0:0:0:
47,340,94448,2,0,P|24:289|35:226,1,119.000002269745,2|0,0:0|1:0,0:0:0:0:
65,185,94919,1,2,0:0:0:0:
65,185,95076,5,2,0:0:0:0:
17,89,95390,1,0,1:0:0:0:
111,38,95704,1,2,0:0:0:0:
111,38,95861,2,0,P|174:53|236:21,1,119.000002269745,2|0,0:0|1:0,0:0:0:0:
267,3,96332,2,0,L|255:126,1,119.000002269745,2|0,0:0|1:0,0:0:0:0:
155,161,96961,1,2,0:0:0:0:
170,266,97275,1,0,1:0:0:0:
68,227,97589,6,0,P|46:175|61:103,2,119.000002269745,2|0|0,0:0|1:0|0:0,0:0:0:0:
24,319,98531,1,2,0:0:0:0:
24,319,98688,2,0,P|81:329|135:304,1,119.000002269745,2|0,1:2|0:0,0:0:0:0:
162,257,99160,1,0,1:0:0:0:
231,338,99474,2,0,B|271:317|318:330|318:330|327:303|327:303|384:350|452:315,1,238.00000453949,0|4,1:0|0:0,0:0:0:0:
503,235,100416,5,0,1:0:0:0:
396,217,100730,1,2,0:0:0:0:
396,217,100887,2,0,P|370:166|383:98,1,119.000002269745,2|0,0:0|1:0,0:0:0:0:
413,65,101359,2,0,L|277:47,2,119.000002269745,2|0|0,0:0|1:0|0:0,0:0:0:0:
482,146,102301,1,0,1:0:0:0:
396,217,102615,6,0,L|265:231,2,119.000002269745,2|0|0,0:0|1:0|0:0,0:0:0:0:
329,132,103557,1,0,1:0:0:0:
224,157,103872,2,0,P|188:209|197:268,1,119.000002269745,2|0,0:0|1:0,0:0:0:0:
112,331,104500,2,0,P|66:287|6:286,1,119.000002269745,2|0,0:0|1:0,0:0:0:0:
0,168,105128,6,0,L|129:152,1,119.000002269745,2|0,0:0|1:0,0:0:0:0:
207,212,105756,2,0,L|214:285,2,59.5000011348725,2|0|0,0:0|0:0|0:0,0:0:0:0:
252,182,106228,2,0,P|309:175|358:209,1,119.000002269745,2|0,1:2|0:0,0:0:0:0:
392,250,106699,2,0,L|405:129,1,119.000002269745,2|2,1:2|0:0,0:0:0:0:
366,31,107327,1,0,1:0:0:0:
273,71,107641,5,0,1:0:0:0:
256,192,108270,12,4,110154,0:0:0:0:
62,298,120207,6,0,P|109:262|171:277,1,112,6|0,0:0|1:0,0:0:0:0:
205,249,120678,1,2,0:0:0:0:
205,249,120835,2,0,P|176:201|193:123,1,112,2|0,0:0|1:0,0:0:0:0:
247,72,121463,2,0,L|239:11,2,56,2|0|0,0:0|0:0|1:0,0:0:0:0:
278,111,121934,2,0,P|326:83|404:103,1,112,2|0,0:0|0:0,0:0:0:0:
423,117,122406,2,0,L|412:178,1,56,2|0,1:2|0:0,0:0:0:0:
372,202,122720,6,0,L|387:340,1,112,2|0,0:0|1:0,0:0:0:0:
309,381,123348,2,0,P|290:349|290:275,1,112,2|0,0:0|1:0,0:0:0:0:
221,201,123976,1,2,0:0:0:0:
296,133,124290,1,2,1:2:0:0:
372,202,124605,2,0,P|396:153|390:96,1,112,2|0,0:0|1:0,0:0:0:0:
308,40,125233,6,0,L|313:-18,2,56,2|0|0,0:0|0:0|1:0,0:0:0:0:
209,73,125861,2,0,P|154:82|107:53,1,112,2|0,0:0|1:0,0:0:0:0:
63,29,126332,2,0,L|82:211,1,168,2|0,0:0|1:0,0:0:0:0:
154,264,127118,2,0,P|198:239|268:251,1,112,2|0,0:0|1:0,0:0:0:0:
293,279,127589,1,2,0:0:0:0:
293,279,127746,6,0,P|340:295|407:272,2,112,2|0|2,0:0|1:0|0:0,0:0:0:0:
218,346,128688,2,0,L|145:354,1,56,2|0,1:2|0:0,0:0:0:0:
116,373,129003,2,0,P|63:341|109:214,1,224,2|0,0:0|0:0,0:0:0:0:
76,118,129945,1,0,1:0:0:0:
163,67,130259,6,0,L|159:8,2,56,6|0|2,0:0|0:0|1:2,0:0:0:0:
189,110,130730,1,2,0:0:0:0:
189,110,130887,2,0,P|237:83|295:93,1,112,2|0,0:0|1:0,0:0:0:0:
383,49,131516,2,0,P|389:113|364:159,1,112,2|0,0:0|1:0,0:0:0:0:
333,191,131987,2,0,L|454:176,1,112,2|0,0:0|0:0,0:0:0:0:
494,170,132458,1,2,1:2:0:0:
481,70,132772,5,2,0:0:0:0:
383,49,133086,1,2,1:2:0:0:
306,114,133400,2,0,P|284:62|294:4,1,112,2|0,0:0|1:0,0:0:0:0:
195,37,134029,2,0,P|167:33|140:24,1,56,2|0,0:0|0:0,0:0:0:0:
92,11,134343,2,0,P|65:19|37:23,1,56,2|0,1:2|0:0,0:0:0:0:
9,65,134657,2,0,L|21:189,1,112,2|0,0:0|1:0,0:0:0:0:
110,219,135285,6,0,L|173:209,2,56,2|0|0,0:0|0:0|1:0,0:0:0:0:
32,283,135914,2,0,P|33:338|80:376,1,112,2|0,0:0|1:0,0:0:0:0:
121,357,136385,2,0,B|176:319|227:401|295:347,1,168,2|0,0:0|1:0,0:0:0:0:
238,265,137170,1,2,0:0:0:0:
308,193,137484,1,0,1:0:0:0:
372,270,137798,6,0,L|441:281,1,56,2|0,0:0|0:0,0:0:0:0:
465,246,138112,2,0,P|483:194|461:126,2,112,2|2|0,1:2|0:0|1:0,0:0:0:0:
493,343,139055,2,0,P|454:367|379:355,1,112,2|0,0:0|1:0,0:0:0:0:
347,334,139526,1,2,0:0:0:0:
347,334,139683,2,0,L|220:347,1,112,2|0,0:0|1:0,0:0:0:0:
146,294,140311,5,4,0:0:0:0:
185,200,140626,1,2,0:0:0:0:
87,174,140940,1,2,0:0:0:0:
87,174,141097,2,0,L|79:115,1,56,2|0,1:2|0:0,0:0:0:0:
57,73,141411,2,0,P|154:97|207:58,1,168,2|0,1:2|1:0,0:0:0:0:
287,3,142196,1,2,0:0:0:0:
345,84,142510,1,2,1:2:0:0:
420,16,142825,6,0,P|445:68|435:131,1,112,2|0,0:0|1:0,0:0:0:0:
482,211,143453,1,2,0:0:0:0:
391,254,143767,2,0,P|382:229|382:198,1,56,0|0,1:2|0:0,0:0:0:0:
340,170,144081,2,0,L|226:180,1,112,2|0,0:0|1:0,0:0:0:0:
149,117,144709,1,2,0:0:0:0:
229,54,145023,1,2,0:0:0:0:
132,23,145338,5,6,0:0:0:0:
359,162,146280,1,2,0:0:0:0:
423,95,146594,2,0,P|465:86|507:98,2,83.9999974365235,2|0|0,0:0|0:0|0:0,0:0:0:0:
347,41,147537,6,0,P|278:83|196:52,1,167.999994873047,2|0,0:0|0:0,0:0:0:0:
117,96,148479,1,2,0:0:0:0:
174,168,148793,2,0,B|211:222|134:272|172:338,1,167.999994873047,2|0,0:0|0:0,0:0:0:0:
253,295,149735,1,2,0:0:0:0:
75,198,150364,6,0,B|54:148|54:148|71:91,1,112,4|0,0:0|0:0,0:0:0:0:
169,62,150992,2,0,B|190:112|190:112|173:169,1,112,0|0,0:0|0:0,0:0:0:0:
250,232,151620,1,0,0:0:0:0:
346,204,151934,1,0,0:0:0:0:
339,103,152249,1,0,0:0:0:0:
243,75,152563,1,0,0:0:0:0:
176,154,152877,6,0,B|128:128|128:128|56:140,2,112,0|0|0,0:0|0:0|0:0,0:0:0:0:
250,232,153819,2,0,L|329:226,1,56,0|0,0:0|0:0,0:0:0:0:
453,71,155390,6,0,P|395:100|326:80,1,119.000002269745,4|0,0:0|1:0,0:0:0:0:
257,154,156018,2,0,L|266:212,2,59.5000011348725,2|2|0,0:0|0:0|0:0,0:0:0:0:
211,126,156489,2,0,P|154:108|96:144,1,119.000002269745,0|0,1:2|0:0,0:0:0:0:
50,134,156961,2,0,P|20:190|45:260,1,119.000002269745,0|0,1:2|0:0,0:0:0:0:
13,347,157589,1,0,1:0:0:0:
120,344,157903,6,0,L|248:335,2,119.000002269745,2|0|2,0:0|1:0|0:0,0:0:0:0:
136,238,158845,1,2,0:0:0:0:
136,238,159003,2,0,P|182:206|252:222,1,119.000002269745,0|0,1:0|0:0,0:0:0:0:
287,242,159474,1,0,1:0:0:0:
331,144,159788,2,0,P|384:170|454:153,1,119.000002269745,2|0,0:0|1:0,0:0:0:0:
486,261,160416,6,0,L|497:386,2,119.000002269745,2|0|2,0:0|1:0|0:0,0:0:0:0:
433,252,161201,2,0,P|380:278|310:261,1,119.000002269745,2|0,0:0|1:0,0:0:0:0:
273,289,161673,2,0,L|285:167,1,119.000002269745,2|0,0:0|1:0,0:0:0:0:
366,101,162301,1,2,0:0:0:0:
289,26,162615,1,2,1:2:0:0:
204,91,162929,6,0,P|159:120|92:113,1,119.000002269745,2|0,0:0|1:0,0:0:0:0:
9,51,163557,1,2,0:0:0:0:
4,158,163872,1,2,0:0:0:0:
4,158,164029,2,0,P|33:203|26:269,1,119.000002269745,2|0,1:2|0:0,0:0:0:0:
8,315,164500,1,0,1:0:0:0:
93,379,164814,2,0,L|164:370,2,59.5000011348725,0|0|0,0:0|0:0|1:0,0:0:0:0:
117,274,165442,6,0,P|186:271|230:302,2,119.000002269745,4|0|2,0:0|1:0|0:0,0:0:0:0:
64,261,166228,2,0,P|39:213|57:143,1,119.000002269745,2|0,0:0|1:0,0:0:0:0:
99,129,166699,1,2,0:0:0:0:
81,23,167013,1,2,1:2:0:0:
188,0,167327,1,2,0:0:0:0:
206,106,167641,2,0,L|275:117,1,59.5000011348725,0|0,1:2|0:0,0:0:0:0:
290,162,167955,6,0,P|347:180|409:145,1,119.000002269745,2|0,0:0|1:0,0:0:0:0:
478,84,168584,2,0,P|505:146|488:212,1,119.000002269745,2|0,0:0|0:0,0:0:0:0:
462,236,169055,1,2,1:2:0:0:
462,236,169212,2,0,L|477:381,1,119.000002269745,2|0,0:0|1:0,0:0:0:0:
371,383,169840,1,2,0:0:0:0:
325,286,170154,1,2,1:2:0:0:
234,343,170468,6,0,P|186:372|121:361,1,119.000002269745,2|0,0:0|1:0,0:0:0:0:
87,326,170940,2,0,L|101:195,1,119.000002269745,2|0,0:0|0:0,0:0:0:0:
109,155,171411,1,2,0:0:0:0:
79,52,171725,2,0,B|146:17|186:99|262:47,2,178.500003404617,2|2|2,0:0|0:0|0:0,0:0:0:0:
22,143,172982,6,0,L|33:267,1,119.000002269745,2|0,0:0|1:0,0:0:0:0:
56,309,173453,2,0,P|115:289|172:304,1,119.000002269745,2|0,0:0|0:0,0:0:0:0:
210,334,173924,1,2,0:0:0:0:
302,384,174238,2,0,P|315:329|294:272,1,119.000002269745,2|0,0:0|1:0,0:0:0:0:
261,229,174709,1,2,0:0:0:0:
261,229,174866,2,0,B|325:253|372:222|372:222|381:244|381:244|436:218|495:248,1,238.00000453949,0|6,1:2|0:2,0:0:0:0:
434,338,175809,5,0,1:0:0:0:
332,372,176123,1,2,0:0:0:0:
332,372,176280,2,0,P|288:347|208:359,1,119.000002269745,2|0,0:0|1:0,0:0:0:0:
181,317,176751,2,0,P|133:335|57:312,2,119.000002269745,2|0|0,0:0|1:0|0:0,0:0:0:0:
123,226,177694,1,0,1:0:0:0:
208,161,178008,6,0,L|350:144,1,119.000002269745,2|0,0:0|1:0,0:0:0:0:
296,44,178636,2,0,P|362:32|409:54,1,119.000002269745,2|0,0:0|0:0,0:0:0:0:
448,86,179107,1,2,1:2:0:0:
448,86,179264,2,0,P|465:153|443:217,1,119.000002269745,2|0,0:0|1:0,0:0:0:0:
360,253,179893,2,0,P|367:289|385:322,2,59.5000011348725,0|0|0,0:0|0:0|1:0,0:0:0:0:
285,176,180521,6,0,P|239:149|164:164,2,119.000002269745,2|0|2,0:0|1:0|0:0,0:0:0:0:
330,148,181306,2,0,P|382:125|444:137,1,119.000002269745,2|0,0:0|1:0,0:0:0:0:
483,169,181777,2,0,L|475:301,1,119.000002269745,2|0,0:0|1:0,0:0:0:0:
406,369,182406,1,2,0:2:0:0:
331,291,182720,1,2,1:2:0:0:
249,359,183034,6,0,P|226:310|241:236,1,119.000002269745,2|0,0:0|1:0,0:0:0:0:
142,192,183662,2,0,L|75:186,2,59.5000011348725,2|0|0,0:0|0:0|0:0,0:0:0:0:
167,144,184133,2,0,P|221:123|285:134,1,119.000002269745,2|0,1:2|0:0,0:0:0:0:
321,166,184605,1,0,1:0:0:0:
401,100,184919,2,0,B|445:96|468:68|468:68|443:228,1,238.00000453949,0|6,1:0|0:0,0:0:0:0:
498,319,185861,5,0,1:0:0:0:
398,357,186175,1,2,0:0:0:0:
397,356,186332,2,0,P|341:342|319:265,1,119.000002269745,2|0,0:0|1:0,0:0:0:0:
324,237,186804,2,0,L|490:224,2,119.000002269745,2|0|2,0:0|1:0|0:0,0:0:0:0:
248,160,187746,1,0,1:2:0:0:
213,261,188060,6,0,P|152:273|90:238,1,119.000002269745,2|0,0:0|1:0,0:0:0:0:
31,169,188688,2,0,P|-3:223|9:297,1,119.000002269745,2|0,0:0|0:0,0:0:0:0:
26,329,189160,1,2,1:2:0:0:
26,329,189317,2,0,L|167:315,1,119.000002269745,2|0,0:0|1:0,0:0:0:0:
233,370,189945,1,2,0:0:0:0:
338,353,190259,1,0,1:0:0:0:
266,273,190573,6,0,P|255:219|276:158,1,119.000002269745,2|0,0:0|1:0,0:0:0:0:
200,82,191201,2,0,L|208:21,2,59.5000011348725,2|0|0,0:0|0:0|0:0,0:0:0:0:
159,117,191673,2,0,P|107:94|36:105,1,119.000002269745,0|0,1:2|0:0,0:0:0:0:
25,149,192144,2,0,L|40:291,1,119.000002269745,0|2,1:0|0:0,0:0:0:0:
51,319,192615,1,0,1:0:0:0:
51,319,192772,1,2,1:2:0:0:
145,283,193086,5,0,1:0:0:0:
256,192,193715,12,4,195599,0:0:0:0:
31,106,205652,6,0,P|78:83|133:92,1,97.9999970092774,2|0,0:0|0:0,0:0:0:0:
176,157,206280,1,0,1:0:0:0:
113,219,206594,1,0,0:0:0:0:
188,264,206908,2,0,P|289:254|400:246,1,195.999994018555,2|0,0:0|1:0,0:0:0:0:
381,158,207851,6,0,P|464:204|456:302,2,195.999994018555,2|2|2,0:0|0:0|0:0,0:0:0:0:
314,100,209421,2,0,L|309:43,2,48.9999985046387,2|0|0,0:0|0:0|1:0,0:0:0:0:
235,140,210050,2,0,P|184:133|123:128,1,97.9999970092774,0|0,1:0|0:0,0:0:0:0:
76,193,210678,6,0,P|51:155|57:94,2,97.9999970092774,2|0|0,0:0|0:0|1:0,0:0:0:0:
113,272,211620,2,0,P|185:321|231:247,1,195.999994018555,2|0,0:0|0:0,0:0:0:0:
297,187,212563,1,2,1:2:0:0:
251,111,212877,6,0,B|185:75|123:163|50:115,1,195.999994018555,2|0,0:0|0:0,0:0:0:0:
11,194,213819,1,2,1:2:0:0:
91,230,214133,1,2,0:0:0:0:
173,198,214448,2,0,P|263:191|283:280,1,195.999994018555,2|0,0:0|1:0,0:0:0:0:
337,348,215390,1,2,0:0:0:0:
254,380,215704,6,0,P|205:383|162:361,1,97.9999970092774,2|0,0:0|0:0,0:0:0:0:
125,281,216332,1,2,1:2:0:0:
190,222,216646,2,0,L|412:202,1,195.999994018555,2|2,0:0|0:0,0:0:0:0:
433,130,217589,1,0,1:0:0:0:
376,50,217903,6,0,P|286:86|199:31,1,195.999994018555,2|2,0:0|0:0,0:0:0:0:
135,94,218845,1,2,1:2:0:0:
278,197,219474,1,2,0:0:0:0:
210,246,219788,2,0,P|193:299|215:348,2,97.9999970092774,2|0|0,0:0|1:0|1:0,0:0:0:0:
167,173,220730,6,0,L|41:182,1,112,4|0,1:0|0:0,0:0:0:0:
18,147,221201,2,0,L|35:271,1,112,0|0,1:0|0:0,0:0:0:0:
28,308,221673,2,0,B|88:292|88:292|144:326,1,112,0|0,1:0|0:0,0:0:0:0:
164,354,222144,2,0,L|299:336,1,112,0|0,1:0|0:0,0:0:0:0:
325,333,222615,1,0,1:0:0:0:
267,250,222929,1,0,1:0:0:0:
342,183,223243,6,0,B|363:129|363:129|344:65,1,112,0|0,1:0|0:0,0:0:0:0:
356,27,223715,2,0,L|232:41,1,112,0|0,1:0|0:0,0:0:0:0:
195,50,224186,1,0,1:0:0:0:
215,148,224500,1,0,1:0:0:0:
256,192,224578,12,2,225756,0:0:0:0:
389,63,235809,5,0,0:0:0:0:
223,35,236437,1,0,0:0:0:0:
115,169,237065,2,0,P|80:186|28:184,2,83.9999974365235,0|0|0,0:0|0:0|0:0,0:0:0:0:
194,196,238008,6,0,P|260:245|353:230,1,167.999994873047
381,310,238950,1,0,0:0:0:0:
498,190,239578,2,0,P|449:140|350:162,1,167.999994873047,0|0,0:0|0:0,0:0:0:0:
275,126,240521,1,0,0:0:0:0:
247,209,240835,6,0,L|96:197,2,146.999995513916,2|2|2,0:0|0:0|0:0,0:0:0:0:
297,281,242092,1,2,0:0:0:0:
232,340,242406,2,0,P|188:319|140:326,2,97.9999970092774,2|0|0,0:0|0:0|0:0,0:0:0:0:
220,239,243348,5,0,1:0:0:0:
119,249,243662,1,0,1:0:0:0:
158,156,243976,2,0,L|215:148,2,56,0|4|0,1:0|0:3|0:0,0:0:0:0:
115,118,244448,1,4,1:0:0:0:
361,168,245233,2,0,L|354:236,1,56,0|0,1:0|0:0,0:0:0:0:
305,248,245547,2,0,L|312:316,1,56,0|0,1:0|0:0,0:0:0:0:
344,345,245861,6,0,P|397:321|453:338,1,119.000002269745,4|0,0:0|1:0,0:0:0:0:
451,231,246489,2,0,L|523:220,2,59.5000011348725,2|0|0,0:0|0:0|0:0,0:0:0:0:
408,198,246960,2,0,P|388:148|406:84,1,119.000002269745,0|0,1:0|0:0,0:0:0:0:
433,41,247432,2,0,L|290:28,1,119.000002269745,0|0,1:0|0:0,0:0:0:0:
254,119,248060,1,0,1:0:0:0:
298,218,248374,6,0,P|349:190|407:197,1,119.000002269745,2|0,0:0|1:0,0:0:0:0:
491,264,249002,2,0,P|506:232|509:204,2,59.5000011348725,2|0|0,0:0|0:0|0:0,0:0:0:0:
487,318,249473,2,0,L|370:303,1,119.000002269745,0|0,1:0|0:0,0:0:0:0:
327,336,249945,2,0,P|265:339|210:302,1,119.000002269745,2|0,1:2|0:0,0:0:0:0:
173,213,250573,1,0,1:0:0:0:
82,269,250887,6,0,P|66:218|84:153,2,119.000002269745,2|0|2,0:0|1:0|0:0,0:0:0:0:
114,312,251673,2,0,P|166:327|245:300,1,119.000002269745,2|0,0:0|1:0,0:0:0:0:
269,345,252144,2,0,L|406:331,1,119.000002269745,2|0,0:0|1:0,0:0:0:0:
350,232,252772,1,2,0:0:0:0:
449,193,253086,1,2,1:2:0:0:
412,92,253400,6,0,P|364:68|290:81,1,119.000002269745,2|0,0:0|1:0,0:0:0:0:
198,41,254029,1,2,0:0:0:0:
172,144,254343,1,2,0:0:0:0:
172,144,254500,2,0,P|110:147|61:112,1,119.000002269745,2|0,0:0|1:0,0:0:0:0:
16,92,254971,2,0,L|26:220,1,119.000002269745,2|0,1:2|0:0,0:0:0:0:
125,247,255599,1,2,1:2:0:0:
105,352,255914,6,0,P|159:329|219:341,1,119.000002269745,6|0,0:0|1:0,0:0:0:0:
286,259,256542,2,0,L|274:125,1,119.000002269745,2|0,0:0|0:0,0:0:0:0:
295,90,257013,1,2,1:2:0:0:
295,90,257170,2,0,P|339:52|399:69,1,119.000002269745,2|0,0:0|1:0,0:0:0:0:
478,130,257798,1,2,0:0:0:0:
414,215,258112,1,2,1:2:0:0:
312,181,258427,6,0,L|172:169,1,119.000002269745,2|0,0:0|1:0,0:0:0:0:
88,193,259055,1,2,0:0:0:0:
88,193,259212,2,0,P|57:244|77:308,1,119.000002269745,2|0,0:0|1:0,0:0:0:0:
103,340,259683,1,2,0:0:0:0:
196,286,259997,1,0,1:0:0:0:
273,360,260311,2,0,L|395:349,1,119.000002269745,2|0,0:0|1:0,0:0:0:0:
499,295,260940,6,0,P|481:248|403:228,1,119.000002269745,2|0,1:2|1:0,0:0:0:0:
375,195,261411,2,0,L|385:69,1,119.000002269745,2|0,0:0|0:0,0:0:0:0:
387,22,261882,1,2,0:0:0:0:
280,10,262196,2,0,P|233:37|166:27,1,119.000002269745,2|0,0:0|1:0,0:0:0:0:
117,36,262667,2,0,P|51:40|15:97,1,119.000002269745,2|0,0:0|0:0,0:0:0:0:
11,131,263139,1,2,0:0:0:0:
45,232,263453,6,0,L|185:218,1,119.000002269745,2|0,0:0|1:0,0:0:0:0:
209,248,263924,2,0,P|258:278|330:268,1,119.000002269745,2|0,0:0|0:0,0:0:0:0:
362,244,264395,1,2,0:0:0:0:
347,137,264709,2,0,L|221:123,1,119.000002269745,2|0,0:0|1:0,0:0:0:0:
185,92,265181,1,2,0:0:0:0:
185,92,265338,2,0,P|97:162|132:271,1,238.00000453949,2|4,1:2|0:0,0:0:0:0:
203,331,266280,5,0,1:0:0:0:
281,258,266594,2,0,L|273:189,2,59.5000011348725,2|0|0,0:0|0:0|0:0,0:0:0:0:
316,298,267065,2,0,P|372:274|432:289,1,119.000002269745,0|0,1:2|0:0,0:0:0:0:
465,324,267537,2,0,L|476:200,1,119.000002269745,0|0,1:0|0:0,0:0:0:0:
432,107,268165,1,0,1:0:0:0:
346,171,268479,6,0,L|211:180,1,119.000002269745,2|0,0:0|1:0,0:0:0:0:
138,239,269107,2,0,P|150:269|151:303,2,59.5000011348725,2|0|0,0:0|0:0|0:0,0:0:0:0:
120,188,269578,2,0,P|127:136|175:88,1,119.000002269745,2|0,1:2|0:0,0:0:0:0:
252,18,270207,1,2,0:0:0:0:
252,18,270364,2,0,P|309:49|368:40,1,119.000002269745,0|0,0:0|1:0,0:0:0:0:
412,28,270835,1,2,0:0:0:0:
412,28,270992,5,2,0:0:0:0:
482,108,271306,1,0,1:0:0:0:
411,188,271620,1,2,0:0:0:0:
411,188,271777,2,0,L|294:169,1,119.000002269745,2|0,0:0|1:0,0:0:0:0:
255,131,272249,2,0,P|184:115|153:150,1,119.000002269745,2|0,0:0|1:0,0:0:0:0:
119,244,272877,1,2,0:0:0:0:
50,162,273191,1,2,1:2:0:0:
8,260,273505,6,0,L|22:379,2,119.000002269745,2|0|0,0:0|1:0|0:0,0:0:0:0:
119,244,274448,1,2,0:0:0:0:
119,244,274605,2,0,P|153:206|158:139,1,119.000002269745
139,90,275076,1,0,1:0:0:0:
229,32,275390,2,0,B|264:61|267:96|267:96|325:27|420:60,1,238.00000453949,0|4,1:0|0:0,0:0:0:0:
470,148,276332,5,0,1:0:0:0:
366,175,276646,1,2,0:0:0:0:
366,175,276804,2,0,L|380:304,1,119.000002269745,2|0,0:0|1:0,0:0:0:0:
404,340,277275,2,0,P|469:354|524:320,2,119.000002269745,2|0|0,0:0|1:0|0:0,0:0:0:0:
451,244,278217,1,0,1:0:0:0:
367,176,278531,6,0,L|241:184,2,119.000002269745,2|0|0,0:0|1:0|0:0,0:0:0:0:
313,269,279474,1,0,1:0:0:0:
205,257,279788,2,0,P|168:212|185:130,1,119.000002269745,2|0,0:0|1:0,0:0:0:0:
214,57,280416,2,0,P|152:49|96:77,1,119.000002269745,2|0,0:0|1:0,0:0:0:0:
53,173,281044,6,0,L|171:154,1,119.000002269745,2|0,0:0|1:0,0:0:0:0:
267,200,281673,2,0,P|294:211|323:211,2,59.5000011348725,2|2|0,0:0|0:0|0:0,0:0:0:0:
221,228,282144,2,0,L|231:363,1,119.000002269745,0|0,1:0|0:0,0:0:0:0:
190,383,282615,2,0,P|139:355|82:370,1,119.000002269745,0|2,1:0|0:0,0:0:0:0:
17,285,283243,1,0,1:0:0:0:
90,216,283557,5,0,1:0:0:0:
256,192,284186,12,4,286071,0:0:0:0:
