osu file format v14

[General]
AudioFilename: audio.mp3
AudioLeadIn: 0
PreviewTime: 69788
Countdown: 0
SampleSet: Soft
StackLeniency: 0.7
Mode: 0
LetterboxInBreaks: 0
WidescreenStoryboard: 1

[Editor]
Bookmarks: 39788,205652,242092
DistanceSpacing: 1.5
BeatDivisor: 4
GridSize: 4
TimelineZoom: 1.3

[Metadata]
Title:Heikousen
TitleUnicode:平行線
Artist:Sayuri
ArtistUnicode:さユり
Creator:Rizia
Version:117's Hard
Source:クズの本懐
Tags:Kuzu no Honkai Scum's Wish anime ending kawaiwkyik Kisses DreaM117er m1223961117
BeatmapID:1276753
BeatmapSetID:583370

[Difficulty]
HPDrainRate:6
CircleSize:4
OverallDifficulty:6
ApproachRate:8
SliderMultiplier:1.6
SliderTickRate:1

[Events]
//Background and Video events
0,0,"bg.jpg",0,0
//Break Periods
2,39988,48584
2,110354,119457
2,195799,204902
2,225956,234552
//Storyboard Layer 0 (Background)
//Storyboard Layer 1 (Fail)
//Storyboard Layer 2 (Pass)
//Storyboard Layer 3 (Foreground)
//Storyboard Sound Samples

[TimingPoints]
898,810.810810810811,4,2,1,40,1,0
29276,-100,4,2,1,40,0,0
29736,314.13612565445,4,2,1,70,1,0
39160,-100,4,2,1,70,0,0
39866,-100,4,1,1,50,0,0
40259,-125,4,2,1,50,0,0
59893,-200,4,2,1,50,0,0
64919,-100,4,1,1,60,0,0
68610,-100,4,1,1,5,0,0
69945,-100,4,2,1,80,0,1
107641,-100,4,2,1,80,0,0
108270,-200,4,2,1,40,0,0
110154,-200,4,1,1,80,0,0
120207,-125,4,2,1,60,0,0
145338,-200,4,2,1,60,0,0
150364,-100,4,1,1,60,0,0
155390,-100,4,2,1,80,0,1
193086,-100,4,2,1,80,0,0
193715,-200,4,2,1,40,0,0
195599,-200,4,1,1,80,0,0
205652,-111.111111111111,4,2,1,80,0,0
224500,-142.857142857143,4,2,1,80,0,0
225756,-200,4,2,1,40,0,0
240835,-133.333333333333,4,2,1,40,0,0
243348,-111.111111111111,4,2,1,70,0,0
244448,-133.333333333333,4,2,1,70,0,0
245233,-100,4,2,1,70,0,0
245861,-100,4,2,1,80,0,1
283557,-100,4,2,1,80,0,0
284186,-100,4,2,1,40,0,0

[Colours]
Combo1 : 128,0,255
Combo2 : 191,223,255
Combo3 : 0,128,255
Combo4 : 255,0,0

[HitObjects]
434,131,898,6,0,P|439:176|449:216,1,80,0|0,0:0|0:0,0:0:0:0:
496,282,1708,2,0,P|459:231|362:264,1,160,0|0,0:0|0:0,0:0:0:0:
343,330,2925,2,0,L|291:324,1,40,0|0,0:0|0:0,0:0:0:0:
280,287,3330,2,0,B|242:304|242:304|185:298,1,80,0|0,0:0|0:0,0:0:0:0:
125,258,4141,6,0,P|83:265|30:277,1,80,0|0,0:0|0:0,0:0:0:0:
23,187,4952,2,0,P|70:189|115:124,1,120,0|0,0:0|0:0,0:0:0:0:
121,93,5762,2,0,P|160:101|199:107,1,80,0|0,0:0|0:0,0:0:0:0:
237,85,6370,1,0,0:0:0:0:
237,85,6573,2,0,P|279:81|337:67,1,80,0|0,0:0|0:0,0:0:0:0:
363,147,7384,6,0,B|413:161|470:168|470:168|493:149|518:127,2,160,0|0|0,0:0|0:0|0:0,0:0:0:0:
288,193,9411,2,0,L|278:249,1,40,0|0,0:0|0:0,0:0:0:0:
322,247,9816,2,0,L|336:344,1,80,0|0,0:0|0:0,0:0:0:0:
258,372,10627,5,0,0:0:0:0:
189,316,11033,1,0,0:0:0:0:
189,316,11438,2,0,P|174:270|181:186,1,120,0|0,0:0|0:0,0:0:0:0:
197,159,12249,2,0,L|116:145,1,80,0|0,0:0|0:0,0:0:0:0:
137,59,13060,2,0,B|199:73|211:76|211:76|272:63,1,120,0|0,0:0|0:0,0:0:0:0:
296,57,13870,6,0,P|315:92|316:141,1,80,0|0,0:0|0:0,0:0:0:0:
363,206,14681,2,0,P|426:192|491:281,1,160,0|0,0:0|0:0,0:0:0:0:
475,340,15898,1,0,0:0:0:0:
392,370,16303,2,0,L|381:278,1,80,0|0,0:0|0:0,0:0:0:0:
302,254,17114,5,0,0:0:0:0:
248,184,17519,2,0,L|257:104,2,80,0|0|0,0:0|0:0|0:0,0:0:0:0:
236,271,18735,1,0,0:0:0:0:
225,358,19141,1,0,0:0:0:0:
152,308,19546,1,0,0:0:0:0:
96,376,19952,1,0,0:0:0:0:
64,293,20357,6,0,P|60:253|52:213,1,80,0|0,0:0|0:0,0:0:0:0:
81,179,20965,1,0,0:0:0:0:
81,179,21168,2,0,P|86:136|93:92,1,80,0|0,0:0|0:0,0:0:0:0:
342,16,22789,2,0,P|301:23|239:39,1,80,0|0,0:0|0:0,0:0:0:0:
186,74,23600,5,0,0:0:0:0:
257,125,24006,2,0,L|311:137,2,40,0|0|0,0:0|0:0|0:0,0:0:0:0:
172,102,24816,1,0,0:0:0:0:
86,79,25222,2,0,P|98:135|117:250,1,160,0|0,0:0|0:0,0:0:0:0:
256,192,26235,12,0,29276,0:0:0:0:
327,263,29736,6,0,B|363:257|396:247|396:247|476:282|476:282|528:261|510:191,1,240,0|2,1:0|0:0,0:0:0:0:
459,148,30364,2,0,B|448:99|435:22|435:22|413:66,1,160,0|0,0:0|1:0,0:0:0:0:
376,126,30835,1,0,0:0:0:0:
290,104,30992,5,0,1:0:0:0:
217,153,31149,2,0,P|166:165|127:170,2,80,0|0|2,0:0|0:0|0:0,0:0:0:0:
292,198,31620,2,0,P|354:203|457:215,1,160,0|0,0:0|1:0,0:0:0:0:
509,280,32092,1,0,0:0:0:0:
433,324,32249,6,0,B|376:335|334:348|334:348|266:316|266:316|299:378,1,240,0|2,1:0|0:0,0:0:0:0:
335,268,32877,2,0,P|344:200|359:104,1,160,0|0,0:0|1:0,0:0:0:0:
373,12,33348,1,0,0:0:0:0:
293,52,33505,6,0,P|249:67|191:66,1,80,0|0,1:0|0:0,0:0:0:0:
128,55,33819,1,0,1:0:0:0:
156,138,33976,1,2,0:0:0:0:
189,219,34133,2,0,P|227:209|267:201,1,80,0|0,0:0|0:0,0:0:0:0:
119,164,34448,2,0,P|63:177|16:185,1,80,0|0,1:0|0:0,0:0:0:0:
2,301,34762,6,0,P|40:291|80:283,1,80,0|0,1:0|0:0,0:0:0:0:
154,237,35076,1,0,1:0:0:0:
219,295,35233,2,0,P|233:352|219:393,2,80,2|0|0,0:0|0:0|0:0,0:0:0:0:
175,218,35704,2,0,P|182:166|190:123,1,80,0|0,1:0|0:0,0:0:0:0:
76,163,36018,6,0,P|70:123|64:83,2,80,0|2|0,1:0|0:0|1:0,0:0:0:0:
94,249,36489,2,0,P|169:236|219:295,1,160,2|0,0:0|0:0,0:0:0:0:
259,373,36961,2,0,L|359:359,1,80,0|0,1:0|0:0,0:0:0:0:
387,289,37275,6,0,B|450:298|513:309|513:309|483:257,1,160,0|0,1:0|1:0,0:0:0:0:
445,209,37746,2,0,P|444:166|463:118,1,80,2|0,0:0|0:0,0:0:0:0:
509,61,38060,1,0,0:0:0:0:
438,8,38217,2,0,L|314:28,1,120,0|0,1:0|0:0,0:0:0:0:
277,40,38531,6,0,P|285:83|295:130,1,80,0|2,1:0|0:0,0:0:0:0:
314,203,38845,1,0,1:0:0:0:
376,140,39003,1,2,0:0:0:0:
292,118,39160,2,0,L|233:138,3,40,8|8|8|8,1:2|1:2|1:2|1:2,0:0:0:0:
226,165,39474,2,0,L|163:153,3,40,8|8|0|0,0:3|0:3|0:0|0:0,0:0:0:0:
143,148,39788,5,4,1:0:0:0:
442,325,49526,5,8,0:0:0:0:
318,258,49840,2,0,P|263:265|168:282,1,128,4|0,0:0|0:0,0:0:0:0:
111,301,50311,1,0,0:0:0:0:
129,219,50468,1,0,0:0:0:0:
112,203,50783,5,8,0:0:0:0:
248,108,51097,2,0,P|288:114|327:119,1,64,4|0,0:0|0:0,0:0:0:0:
370,176,51411,2,0,P|410:169|449:165,1,64,0|0,0:0|0:0,0:0:0:0:
473,175,51646,1,0,0:0:0:0:
473,175,51725,2,0,P|483:144|491:41,1,128,0|8,0:0|0:0,0:0:0:0:
475,33,52353,6,0,P|434:39|396:44,1,64,4|0,0:0|0:0,0:0:0:0:
329,32,52667,2,0,P|334:63|338:95,1,64,0|0,0:0|0:0,0:0:0:0:
392,159,52982,2,0,P|426:201|414:285,1,128,0|8,0:0|0:0,0:0:0:0:
254,355,53610,6,0,P|222:353|193:364,1,64,4|0,0:0|0:0,0:0:0:0:
263,321,53924,2,0,P|293:331|324:329,1,64
303,248,54238,2,0,P|250:240|184:295,1,128,0|8,0:0|0:0,0:0:0:0:
173,265,54866,6,0,P|167:233|163:201,2,64,4|0|8,0:0|0:0|0:0,0:0:0:0:
114,325,55338,1,0,0:0:0:0:
47,275,55495,2,0,B|55:229|59:189|59:189|48:160|34:132,1,128,4|0,0:0|0:0,0:0:0:0:
103,78,55966,6,0,B|112:83|140:93|140:93|181:89|226:81,1,128,8|4,0:0|0:0,0:0:0:0:
283,20,56437,2,0,P|255:3|224:0,1,64,8|0,0:0|0:0,0:0:0:0:
306,99,56751,2,0,P|343:105|381:108,2,64,4|0|8,0:0|0:0|0:0,0:0:0:0:
251,162,57222,1,0,0:0:0:0:
284,238,57379,5,4,0:0:0:0:
256,316,57537,1,0,0:0:0:0:
256,316,57694,2,0,P|224:342|138:337,1,128,8|4,0:0|0:0,0:0:0:0:
71,292,58165,2,0,L|61:355,2,64,4|0|8,0:0|0:0|0:0,0:0:0:0:
37,215,58636,5,4,0:0:0:0:
37,215,58793,2,0,L|24:128,1,64,0|8,0:0|0:0,0:0:0:0:
78,85,59107,2,0,L|83:39,2,32,8|8|8,0:0|0:0|0:0,0:0:0:0:
113,160,59421,1,0,0:0:0:0:
185,200,59578,1,0,0:0:0:0:
243,141,59735,1,0,0:0:0:0:
255,58,59893,5,4,0:1:0:0:
484,226,60521,2,0,L|389:213,1,80,0|0,0:0|0:0,0:0:0:0:
266,295,61149,2,0,P|250:336|246:380,2,80,0|0|0,0:0|0:0|0:0,0:0:0:0:
255,274,62092,1,0,0:0:0:0:
305,139,62406,6,0,L|290:56,1,80,0|0,0:0|0:0,0:0:0:0:
226,12,62877,1,0,0:0:0:0:
215,91,63034,1,0,0:0:0:0:
196,101,63348,1,0,0:0:0:0:
342,212,63662,2,0,B|361:202|381:195|381:195|409:200|433:205,1,80
480,251,64133,1,0,0:0:0:0:
480,251,64290,2,0,P|473:290|467:330,1,80,0|0,0:0|0:0,0:0:0:0:
296,374,64919,6,0,L|251:368,3,40,0|0|0|0,0:0|0:0|0:0|0:0,0:0:0:0:
229,333,65233,2,0,L|175:339,3,40,0|0|0|0,0:0|0:0|0:0|0:0,0:0:0:0:
154,365,65547,2,0,L|120:340,3,40,0|0|0|0,0:0|0:0|0:0|0:0,0:0:0:0:
77,343,65861,2,0,L|69:298,3,40,0|0|0|0,0:0|0:0|0:0|0:0,0:0:0:0:
36,275,66175,6,0,L|65:217,3,40,0|0|0|0,0:0|0:0|0:0|0:0,0:0:0:0:
92,218,66489,2,0,L|76:178,3,40,0|0|0|0,0:0|0:0|0:0|0:0,0:0:0:0:
42,152,66804,2,0,L|51:98,3,40,0|0|0|0,0:0|0:0|0:0|0:0,0:0:0:0:
86,89,67118,2,0,L|78:36,3,40,0|0|0|0,0:0|0:0|0:0|0:0,0:0:0:0:
73,5,67432,6,0,B|131:29|172:38|172:38|242:21,1,160,0|0,0:0|0:0,0:0:0:0:
301,70,67903,1,0,0:0:0:0:
301,70,68060,2,0,P|346:61|397:52,2,80,8|0|8,0:2|0:0|0:2,0:0:0:0:
197,121,68531,1,4,0:0:0:0:
64,304,69945,6,0,P|120:357|201:331,2,160,4|8|6,1:0|0:0|0:0,0:0:0:0:
3,240,70730,2,0,P|12:165|21:78,1,160,4|8,0:2|0:0,0:0:0:0:
99,7,71201,6,0,P|103:47|108:87,1,80,0|4,0:0|0:2,0:0:0:0:
122,174,71516,1,8,0:0:0:0:
202,138,71673,2,0,B|261:123|324:116|324:116|297:163,1,160,0|4,0:0|0:0,0:0:0:0:
253,217,72144,2,0,P|241:264|251:302,1,80,8|0,0:0|0:0,0:0:0:0:
304,361,72458,6,0,L|467:339,2,160,4|8|2,0:0|0:0|0:0,0:0:0:0:
228,316,73243,2,0,P|175:312|137:298,1,80,4|0,0:2|0:0,0:0:0:0:
77,253,73557,1,8,0:0:0:0:
9,310,73715,5,0,0:0:0:0:
57,236,73872,2,0,L|41:138,1,80,6|8,0:0|0:0,0:0:0:0:
218,181,74343,1,6,0:0:0:0:
170,107,74500,2,0,L|186:9,2,80,4|8|6,0:2|0:0|0:2,0:0:0:0:
142,224,74971,6,0,P|92:208|6:266,2,160,0|8|6,0:0|0:0|0:0,0:0:0:0:
182,302,75756,2,0,P|235:322|260:321,1,80,4|0,0:0|0:0,0:0:0:0:
334,364,76071,6,0,P|374:320|368:215,1,160,8|4,0:0|0:0,0:0:0:0:
318,154,76542,1,8,0:0:0:0:
288,236,76699,1,0,0:0:0:0:
373,223,76856,2,0,L|458:210,1,80,2|4,0:0|0:0,0:0:0:0:
509,112,77170,2,0,L|430:125,1,80,8|0,0:0|0:0,0:0:0:0:
348,91,77484,6,0,P|332:61|331:13,1,80,4|0,0:0|0:0,0:0:0:0:
284,150,77798,2,0,B|217:139|158:134|158:134|188:176,1,160,8|6,0:0|0:0,0:0:0:0:
215,240,78270,2,0,P|214:279|197:315,1,80,4|0,0:0|0:0,0:0:0:0:
93,350,78584,6,0,P|49:322|40:215,1,160,8|4,0:0|0:0,0:0:0:0:
97,149,79055,2,0,L|176:160,1,80,8|0,0:0|0:0,0:0:0:0:
248,210,79369,1,2,0:0:0:0:
248,210,79526,1,4,0:0:0:0:
333,191,79683,1,8,0:0:0:0:
333,191,79840,1,0,0:0:0:0:
414,224,79997,6,0,P|425:152|437:55,2,160,4|8|6,1:0|0:0|0:0,0:0:0:0:
439,308,80783,2,0,P|393:350|292:326,1,160,4|8,0:0|0:0,0:0:0:0:
243,270,81254,6,0,P|217:314|215:349,1,80,0|4,0:0|0:0,0:0:0:0:
300,204,81568,2,0,P|241:184|213:188,1,80,8|0,0:0|0:0,0:0:0:0:
130,204,81882,2,0,P|86:169|87:63,1,160,2|8,0:0|0:0,0:0:0:0:
145,10,82353,1,0,0:0:0:0:
166,116,82510,6,0,L|4:147,2,160,0|8|6,0:0|0:0|0:0,0:0:0:0:
266,36,83296,2,0,B|299:62|332:78|332:78|367:74|427:59,1,160,0|8,0:0|0:0,0:0:0:0:
511,164,83767,6,0,P|475:148|436:147,1,80,0|0,0:0|0:0,0:0:0:0:
365,198,84081,1,8,0:0:0:0:
354,213,84395,2,0,P|372:255|366:311,1,80,6|4,0:0|0:0,0:0:0:0:
332,367,84709,2,0,L|282:360,3,40,8|0|0|0,0:0|0:0|0:0|0:0,0:0:0:0:
261,330,85023,6,0,B|219:338|138:351|138:351|163:308,1,160,4|8,0:0|0:0,0:0:0:0:
217,228,85495,2,0,P|274:242|352:170,1,160,0|4,0:0|0:0,0:0:0:0:
366,97,85966,1,0,0:0:0:0:
266,152,86123,6,0,L|296:322,1,160,8|0,0:0|0:0,0:0:0:0:
208,370,86594,2,0,L|193:287,1,80,8|0,0:0|0:0,0:0:0:0:
178,204,86908,1,6,0:0:0:0:
178,204,87065,1,4,0:0:0:0:
96,247,87222,2,0,L|110:325,1,80,8|0,0:0|0:0,0:0:0:0:
178,204,87537,6,0,P|136:163|32:175,1,160,4|8,0:0|0:0,0:0:0:0:
12,288,88008,2,0,P|54:329|158:317,1,160,0|4,0:0|0:0,0:0:0:0:
267,251,88479,1,0,0:0:0:0:
267,251,88636,6,0,B|388:273|388:273|352:292,1,160,8|0,0:0|0:0,0:0:0:0:
245,353,89107,2,0,P|225:304|233:267,1,80,8|0,0:0|0:0,0:0:0:0:
295,176,89421,2,0,L|304:133,3,40,8|8|8|0,0:0|0:0|0:0|0:0,0:0:0:0:
338,110,89735,2,0,L|318:64,3,40,0|0|0|0,0:0|0:0|0:0|0:0,0:0:0:0:
289,42,90050,6,0,P|389:29|459:18,2,160,4|8|4,1:0|0:0|0:0,0:0:0:0:
213,87,90835,2,0,P|147:73|72:138,1,160,4|8,0:0|0:0,0:0:0:0:
86,212,91306,6,0,P|33:203|11:185,1,80,0|4,0:0|0:0,0:0:0:0:
76,125,91620,1,8,0:0:0:0:
157,158,91777,2,0,B|167:228|176:283|176:283|200:232,1,160,2|4,0:0|0:0,0:0:0:0:
245,183,92249,2,0,P|278:161|317:158,1,80,8|0,0:0|0:0,0:0:0:0:
388,268,92563,6,0,P|329:321|248:305,2,160,4|8|2,0:0|0:0|0:0,0:0:0:0:
460,217,93348,2,0,P|454:178|446:124,1,80,4|0,0:0|0:0,0:0:0:0:
491,61,93662,6,0,B|464:47|435:35|435:35|386:43|321:66,1,160,8|6,0:0|0:0,0:0:0:0:
259,95,94133,1,8,0:0:0:0:
188,42,94290,1,0,0:0:0:0:
243,110,94448,2,0,L|229:214,1,80,6|0,0:0|0:0,0:0:0:0:
140,233,94762,2,0,L|151:154,1,80,8|4,0:0|0:0,0:0:0:0:
69,90,95076,6,0,L|59:170,1,80,4|0,0:0|0:0,0:0:0:0:
47,257,95390,1,8,0:0:0:0:
37,268,95704,1,6,0:0:0:0:
77,346,95861,2,0,B|101:367|121:378|121:378|174:371|235:354,1,160,4|10,0:0|0:0,0:0:0:0:
291,300,96332,6,0,P|311:346|310:377,1,80,0|4,3:0|0:0,0:0:0:0:
208,268,96646,1,8,0:0:0:0:
208,268,96804,1,0,0:0:0:0:
275,211,96961,2,0,P|318:218|358:229,1,80,6|0,0:0|0:0,0:0:0:0:
434,193,97275,2,0,P|454:147|453:116,1,80,8|2,0:0|0:0,0:0:0:0:
352,57,97589,6,0,P|358:96|366:135,1,80,4|0,0:0|0:0,0:0:0:0:
275,211,97903,2,0,P|259:132|241:50,1,160,8|4,0:0|0:0,0:0:0:0:
146,42,98374,2,0,P|100:44|65:71,1,80,4|0,0:0|0:0,0:0:0:0:
67,177,98688,6,0,P|111:190|215:132,1,160,8|6,0:0|0:0,0:0:0:0:
156,71,99160,2,0,P|110:73|75:100,1,80,8|2,0:0|0:0,0:0:0:0:
59,210,99474,2,0,L|70:264,3,40,4|0|8|8,0:0|0:0|0:0|0:0,0:0:0:0:
108,263,99788,2,0,L|98:329,3,40,0|0|0|0,0:0|0:0|0:0|0:0,0:0:0:0:
97,346,100102,6,0,B|131:326|150:319|150:319|199:324|254:343,1,160,4|8,1:0|0:0,0:0:0:0:
258,358,100730,1,4,0:0:0:0:
310,278,100887,2,0,B|385:268|436:260|436:260|391:234,1,160,4|8,0:0|0:0,0:0:0:0:
344,181,101359,6,0,P|330:147|330:93,1,80,0|4,0:0|0:0,0:0:0:0:
240,106,101673,2,0,P|247:67|267:33,1,80,8|2,0:0|0:0,0:0:0:0:
166,156,101987,2,0,P|127:148|88:141,1,80,4|4,0:0|0:0,0:0:0:0:
196,238,102301,2,0,P|235:230|274:223,1,80,8|0,0:0|0:0,0:0:0:0:
159,318,102615,6,0,P|64:300|-6:288,2,160,4|8|4,0:0|0:0|0:0,0:0:0:0:
229,371,103400,1,4,0:0:0:0:
312,342,103557,1,0,0:0:0:0:
395,311,103715,6,0,P|355:266|255:275,1,160,8|6,0:0|0:0,0:0:0:0:
312,342,104186,2,0,L|337:175,1,160,8|6,0:0|0:0,0:0:0:0:
406,113,104657,1,4,0:0:0:0:
406,113,104814,2,0,L|422:191,1,80,8|0,0:0|0:0,0:0:0:0:
323,83,105128,6,0,P|380:30|456:42,2,160,4|8|6,0:0|0:0|0:0,0:0:0:0:
335,183,105914,2,0,P|295:184|260:166,1,80,4|0,0:0|0:0,0:0:0:0:
196,97,106228,6,0,P|209:176|225:268,1,160,8|0,0:0|0:0,0:0:0:0:
142,336,106699,2,0,P|75:355|5:300,1,160,8|4,0:0|0:0,0:0:0:0:
61,217,107170,1,4,0:0:0:0:
61,217,107327,2,0,P|97:216|154:251,1,80,8|0,0:0|0:0,0:0:0:0:
231,344,107641,5,8,0:0:0:0:
256,192,108270,12,4,110154,0:0:0:0:
467,206,120207,6,0,P|432:243|343:233,1,128,4|8,1:0|0:0,0:0:0:0:
299,185,120678,1,0,0:0:0:0:
277,265,120835,1,0,0:0:0:0:
285,280,121149,1,8,0:0:0:0:
236,120,121463,6,0,P|201:83|112:93,1,128,4|8,0:0|0:0,0:0:0:0:
55,123,121934,1,0,0:0:0:0:
43,112,122249,2,0,L|32:44,2,64,0|8|0,0:0|0:0|0:0,0:0:0:0:
65,210,122720,5,4,0:0:0:0:
186,152,123034,1,8,0:0:0:0:
243,274,123348,1,0,0:0:0:0:
122,331,123662,1,8,0:0:0:0:
115,207,123976,6,0,P|84:199|53:196,1,64,4|0,0:0|0:0,0:0:0:0:
189,206,124290,2,0,P|197:175|200:144,1,64,8|0,0:0|0:0,0:0:0:0:
190,280,124605,2,0,P|221:288|253:292,1,64,0|0,0:0|0:0,0:0:0:0:
116,281,124919,2,0,P|108:312|105:344,1,64,8|0,0:0|0:0,0:0:0:0:
48,219,125233,6,0,P|42:186|32:144,1,64,4|0,0:0|0:0,0:0:0:0:
5,78,125547,1,8,0:0:0:0:
17,60,125861,2,0,P|64:20|126:29,1,128,0|8,0:0|0:0,0:0:0:0:
189,82,126332,1,0,0:0:0:0:
271,73,126489,6,0,L|280:4,2,64,0|0|8,0:0|0:0|0:0,0:0:0:0:
259,155,126961,1,0,0:0:0:0:
249,238,127118,2,0,P|311:227|379:217,1,128,0|8,0:0|0:0,0:0:0:0:
452,247,127589,1,0,0:0:0:0:
444,164,127746,6,0,P|458:129|457:96,1,64,4|0,0:0|0:0,0:0:0:0:
389,56,128060,2,0,P|363:112|366:190,1,128,8|0,0:0|0:0,0:0:0:0:
341,257,128531,1,0,0:0:0:0:
261,279,128688,1,8,0:0:0:0:
197,225,128845,1,0,0:0:0:0:
212,142,129003,6,0,P|263:151|279:154,2,64,0|0|8,0:0|0:0|0:0,0:0:0:0:
46,107,129631,1,2,0:0:0:0:
254,52,129945,2,0,L|285:47,2,32,8|8|8,0:0|0:0|0:3,0:0:0:0:
173,33,130259,6,0,P|161:78|161:109,1,64,4|0,1:0|0:0,0:0:0:0:
77,104,130573,2,0,P|86:155|104:189,1,64,8|0,0:0|0:0,0:0:0:0:
51,239,130887,2,0,P|90:274|181:252,1,128,2|8,0:0|0:0,0:0:0:0:
231,204,131359,1,0,0:0:0:0:
231,204,131516,6,0,P|293:195|366:182,1,128,4|8,0:0|0:0,0:0:0:0:
437,207,131987,1,0,0:0:0:0:
446,217,132301,2,0,P|439:248|432:279,1,64,0|8,0:0|0:0,0:0:0:0:
387,349,132615,1,0,0:0:0:0:
315,305,132772,6,0,P|285:294|233:298,1,64,4|0,0:0|0:0,0:0:0:0:
181,348,133086,2,0,P|211:337|263:341,1,64,8|0,0:0|0:0,0:0:0:0:
363,242,133400,2,0,B|325:219|275:209|222:218,1,128,2|8,0:0|0:0,0:0:0:0:
47,117,134029,6,0,P|93:111|116:95,1,64,4|0,0:0|0:0,0:0:0:0:
188,85,134343,2,0,P|142:79|119:63,1,64,8|0,0:0|0:0,0:0:0:0:
32,193,134657,2,0,B|70:199|114:190|155:161,1,128,2|8,0:0|0:0,0:0:0:0:
340,80,135285,6,0,L|330:16,1,64,4|0,1:0|0:0,0:0:0:0:
257,93,135599,2,0,L|266:156,1,64,8|0,0:0|0:0,0:0:0:0:
275,197,135835,1,0,0:0:0:0:
275,197,135914,2,0,B|244:242|232:268|232:268|234:302|243:338,2,128,2|8|0,0:0|0:0|0:0,0:0:0:0:
350,161,136699,5,0,0:0:0:0:
430,182,136856,1,8,0:0:0:0:
471,253,137013,1,0,0:0:0:0:
466,336,137170,2,0,L|355:353,1,96,2|0,0:0|0:0,0:0:0:0:
371,350,137484,2,0,L|380:286,1,64,8|0,0:0|0:0,0:0:0:0:
307,206,137798,6,0,L|298:270,1,64,4|0,1:0|0:0,0:0:0:0:
251,338,138112,2,0,P|199:345|136:300,1,128,8|2,0:0|0:0,0:0:0:0:
104,228,138584,1,0,0:0:0:0:
30,267,138741,1,8,0:0:0:0:
62,343,138898,1,0,0:0:0:0:
138,304,139055,6,0,P|151:236|161:169,1,128,4|8,0:0|0:0,0:0:0:0:
151,93,139526,1,0,0:0:0:0:
151,93,139683,2,0,P|121:101|96:120,1,64,2|0,0:0|0:0,0:0:0:0:
218,44,139997,2,0,L|208:-2,2,32,8|8|8,0:0|0:0|0:0,0:0:0:0:
232,125,140311,6,0,P|296:115|366:105,1,128,4|0,1:0|0:0,0:0:0:0:
432,145,140783,2,0,P|452:191|449:212,1,64,8|0,0:0|0:0,0:0:0:0:
309,253,141097,2,0,P|289:207|292:186,1,64,8|0,0:0|0:0,0:0:0:0:
372,200,141411,6,0,L|353:354,1,128,4|0,1:0|0:0,0:0:0:0:
281,363,141882,2,0,P|246:345|215:344,1,64,8|0,0:0|0:0,0:0:0:0:
157,290,142196,2,0,L|101:298,3,32,0|0|8|8,0:0|0:0|0:0|0:0,0:0:0:0:
102,329,142510,2,0,L|58:311,3,32,8|8|8|8,0:0|0:0|0:0|0:0,0:0:0:0:
30,324,142825,6,0,P|9:293|21:193,1,128,4|0,1:0|0:0,0:0:0:0:
72,148,143296,2,0,P|66:105|55:72,1,64,8|0,0:0|0:0,0:0:0:0:
130,10,143610,2,0,P|133:42|142:73,1,64,8|0,0:0|0:0,0:0:0:0:
179,147,143924,1,8,0:0:0:0:
190,229,144081,6,0,P|158:228|130:214,1,64,4|0,0:0|0:0,0:0:0:0:
269,205,144395,1,8,0:0:0:0:
292,284,144552,2,0,L|285:322,2,32,8|8|0,0:3|0:3|0:0,0:0:0:0:
347,222,144866,1,0,0:0:0:0:
429,209,145023,1,0,0:0:0:0:
494,262,145181,1,0,0:0:0:0:
510,343,145338,5,4,1:0:0:0:
277,362,145809,1,0,0:0:0:0:
277,362,145966,2,0,P|285:317|295:266,1,80,2|0,0:0|0:0,0:0:0:0:
356,113,146594,2,0,P|306:111|270:87,1,80,0|0,0:0|0:0,0:0:0:0:
159,201,147222,2,0,P|118:206|66:215,1,80,2|0,0:0|0:0,0:0:0:0:
61,202,147851,5,0,0:0:0:0:
200,280,148165,2,0,P|186:318|184:363,2,80,0|2|0,0:0|0:0|0:0,0:0:0:0:
259,226,148950,1,0,0:0:0:0:
335,249,149107,2,0,B|358:252|377:252|377:252|391:243|411:227,1,80
503,92,149735,2,0,P|470:68|423:71,1,80,2|0,0:0|0:0,0:0:0:0:
271,141,150364,6,0,L|229:152,3,40,0|0|0|0,0:0|0:0|0:0|0:0,0:0:0:0:
209,188,150678,2,0,L|163:169,3,40,0|0|0|0,0:0|0:0|0:0|0:0,0:0:0:0:
145,137,150992,2,0,L|94:159,3,40,0|0|0|0,0:0|0:0|0:0|0:0,0:0:0:0:
64,146,151306,2,0,L|39:200,3,40,0|0|0|0,0:0|0:0|0:0|0:0,0:0:0:0:
6,199,151620,6,0,L|16:258,3,40
1,281,151934,2,0,L|41:309,3,40,0|0|0|0,0:0|0:0|0:0|0:0,0:0:0:0:
52,344,152249,2,0,L|106:330,3,40
125,360,152563,2,0,L|179:346,3,40
202,370,152877,6,0,P|210:327|220:271,1,80
167,183,153191,2,0,P|209:207|246:205,1,80
315,162,153505,1,0,0:0:0:0:
303,74,153662,1,0,0:0:0:0:
228,121,153819,1,0,0:0:0:0:
239,206,153976,1,4,0:0:0:0:
224,79,155390,6,0,P|181:110|185:220,2,160,4|8|2,1:0|0:0|0:0,0:0:0:0:
278,9,156175,2,0,P|349:18|447:33,1,160,4|8,0:0|0:0,0:0:0:0:
498,93,156646,6,0,P|458:117|414:116,2,80,0|4|8,0:0|0:0|0:0,0:0:0:0:
487,207,157118,2,0,P|421:202|352:264,1,160,0|4,0:0|0:0,0:0:0:0:
273,298,157589,2,0,P|281:337|287:376,1,80,8|0,0:0|0:0,0:0:0:0:
353,260,157903,6,0,P|344:220|338:181,1,80,4|0,0:0|0:0,0:0:0:0:
203,150,158217,2,0,P|209:190|217:229,1,80,8|2,0:0|0:0,0:0:0:0:
280,108,158531,1,0,0:0:0:0:
202,65,158688,2,0,B|136:76|90:87|90:87|37:61,1,160,4|8,0:0|0:0,0:0:0:0:
5,144,159160,5,0,0:0:0:0:
61,211,159317,2,0,P|106:210|144:186,1,80,4|8,0:0|0:0,0:0:0:0:
298,261,159788,1,6,0:0:0:0:
249,334,159945,2,0,P|213:316|173:316,2,80,4|8|0,0:0|0:0|0:0,0:0:0:0:
298,261,160416,6,0,P|285:172|271:78,2,160,4|8|0,0:0|0:0|0:0,0:0:0:0:
389,327,161201,2,0,P|395:281|403:242,1,80,4|0,0:0|0:0,0:0:0:0:
487,227,161516,6,0,P|459:184|355:173,1,160,8|4,0:0|0:0,0:0:0:0:
278,246,161987,2,0,P|222:241|198:218,1,80,8|0,0:0|0:0,0:0:0:0:
171,145,162301,2,0,B|181:85|192:22|192:22|212:62,1,160,6|8,0:0|0:0,0:0:0:0:
265,163,162772,1,0,0:0:0:0:
204,227,162929,6,0,B|146:242|95:252|95:252|31:229,2,160,4|8|6,0:0|0:0|0:0,0:0:0:0:
273,281,163715,2,0,P|290:245|289:205,1,80,0|0,0:0|0:0,0:0:0:0:
159,149,164029,6,0,P|119:198|140:293,1,160,8|4,0:0|0:0,0:0:0:0:
203,343,164500,2,0,P|240:335|293:328,1,80,8|0,0:0|0:0,0:0:0:0:
432,311,164814,2,0,P|393:309|360:288,1,80,6|4,0:0|0:0,0:0:0:0:
316,208,165128,1,8,0:0:0:0:
308,188,165442,6,0,P|345:150|451:163,2,160,4|8|6,1:0|0:0|0:0,0:0:0:0:
219,182,166228,2,0,P|209:137|201:96,2,80,4|0|8,0:0|0:0|0:0,0:0:0:0:
243,293,166699,6,0,P|164:278|74:266,2,160,0|8|6,0:0|0:0|0:0,0:0:0:0:
324,326,167484,1,4,0:0:0:0:
390,223,167641,2,0,L|311:237,1,80,8|0,0:0|0:0,0:0:0:0:
246,172,167955,6,0,P|194:181|118:112,2,160,4|8|6,0:0|0:0|0:0,0:0:0:0:
316,117,168741,2,0,P|308:71|303:37,1,80,4|0,0:0|0:0,0:0:0:0:
205,96,169055,1,8,0:0:0:0:
246,172,169212,6,0,P|254:218|258:251,1,80,0|4,0:0|0:0,0:0:0:0:
254,338,169526,1,8,0:0:0:0:
266,351,169840,2,0,P|310:341|363:333,1,80,6|4,0:0|0:0,0:0:0:0:
408,275,170154,2,0,L|458:285,3,40,8|0|0|0,0:0|0:0|0:0|0:0,0:0:0:0:
490,290,170468,6,0,B|473:233|461:186|461:186|467:160|485:112,1,160,4|8,0:0|0:0,0:0:0:0:
503,51,170940,2,0,P|426:63|340:78,1,160,0|4,0:0|0:0,0:0:0:0:
280,136,171411,1,0,0:0:0:0:
280,136,171568,6,0,B|216:121|156:112|156:112|189:162,1,160,8|6,0:0|0:0,0:0:0:0:
226,211,172039,1,8,0:0:0:0:
280,279,172196,2,0,L|266:373,2,80,0|6|4,0:0|0:0|0:0,0:0:0:0:
352,202,172667,2,0,P|359:241|367:281,1,80,8|0,0:0|0:0,0:0:0:0:
438,164,172982,6,0,P|381:115|282:142,1,160,4|8,1:0|0:0,0:0:0:0:
194,39,173453,2,0,B|136:47|67:58|67:58|110:78,1,160,0|4,0:0|0:0,0:0:0:0:
212,127,173924,2,0,P|204:168|196:222,1,80,0|4,0:0|1:0,0:0:0:0:
176,324,174238,6,0,B|233:313|233:313|273:331|273:331|340:319,1,160,0|8,0:0|0:0,0:0:0:0:
417,307,174709,1,0,0:0:0:0:
448,225,174866,2,0,L|435:165,3,40,0|0|8|8,0:0|0:0|0:0|0:0,0:0:0:0:
401,162,175181,2,0,L|414:115,3,40,8|8|4|4,0:0|0:0|0:0|0:0,0:0:0:0:
389,85,175495,6,0,P|454:98|514:18,2,160,4|8|6,1:0|0:0|0:0,0:0:0:0:
319,30,176280,2,0,P|305:73|316:122,1,80,4|0,0:0|0:0,0:0:0:0:
349,185,176594,6,0,P|301:125|225:134,1,160,10|0,0:0|0:0,0:0:0:0:
141,161,177065,2,0,P|144:121|131:84,1,80,8|0,0:0|0:0,0:0:0:0:
60,136,177379,1,6,0:0:0:0:
60,136,177537,1,4,0:0:0:0:
77,222,177694,2,0,P|86:269|95:318,1,80,8|0,0:0|0:0,0:0:0:0:
164,350,178008,6,0,L|-2:326,2,160,4|8|6,0:0|0:0|0:0,0:0:0:0:
242,310,178793,1,4,0:0:0:0:
325,337,178950,1,0,0:0:0:0:
367,261,179107,6,0,P|427:213|502:231,1,160,8|6,0:0|0:0,0:0:0:0:
447,299,179578,2,0,L|416:124,1,160,8|4,0:0|0:0,0:0:0:0:
400,56,180050,2,0,B|434:35|434:35|491:42,2,80,6|8|0,0:0|0:0|0:0,0:0:0:0:
331,111,180521,6,0,L|240:98,1,80,4|0,0:0|0:0,0:0:0:0:
164,86,180835,2,0,B|59:69|59:69|0:93,1,160,8|4,0:0|0:0,0:0:0:0:
45,169,181306,1,6,0:0:0:0:
45,169,181463,1,0,0:0:0:0:
3,246,181620,6,0,P|57:256|133:184,1,160,8|4,0:0|0:0,0:0:0:0:
207,144,182092,2,0,P|181:113|144:102,1,80,8|0,0:0|0:0,0:0:0:0:
45,169,182406,2,0,P|59:252|72:326,1,160,6|8,0:0|0:0,0:0:0:0:
148,371,182877,1,0,0:0:0:0:
209,308,183034,6,0,P|247:287|325:306,1,120,4|0,0:0|0:0,0:0:0:0:
319,301,183348,2,0,L|335:212,1,80,8|0,0:0|0:0,0:0:0:0:
413,293,183662,1,0,0:0:0:0:
413,293,183819,2,0,L|427:371,1,80,6|0,0:0|0:0,0:0:0:0:
304,292,184133,6,0,L|337:110,1,160,8|4,0:0|0:0,0:0:0:0:
262,52,184605,2,0,P|255:99|230:153,1,80,8|2,0:0|0:0,0:0:0:0:
216,212,184919,2,0,L|151:227,3,40,8|8|8|8,0:0|0:0|0:0|0:0,0:0:0:0:
156,260,185233,2,0,L|95:245,3,40,4|4|4|4,0:0|0:0|0:0|0:0,0:0:0:0:
86,282,185547,6,0,P|40:250|39:138,2,160,4|8|0,1:0|0:0|0:0,0:0:0:0:
144,347,186332,2,0,P|220:334|314:323,1,160,6|8,0:0|0:0,0:0:0:0:
377,247,186804,6,0,P|338:240|299:235,1,80,0|4,0:0|0:0,0:0:0:0:
228,182,187118,2,0,B|193:210|129:210|129:210|72:186,1,160,8|6,0:0|0:0,0:0:0:0:
9,134,187589,1,4,0:0:0:0:
57,207,187746,2,0,P|47:263|41:302,1,80,8|0,0:0|0:0,0:0:0:0:
143,369,188060,6,0,L|131:291,1,80,4|2,0:0|0:0,0:0:0:0:
231,336,188374,2,0,L|218:257,1,80,8|0,0:0|0:0,0:0:0:0:
334,184,188688,2,0,B|316:305|316:305|358:266,1,160,6|0,0:0|0:0,0:0:0:0:
421,169,189160,6,0,P|386:115|276:118,1,160,8|4,0:0|0:0,0:0:0:0:
234,167,189631,2,0,P|210:111|214:78,1,80,8|0,0:0|0:0,0:0:0:0:
243,11,189945,2,0,P|160:26|66:40,1,160,2|8,0:0|0:0,0:0:0:0:
10,83,190416,1,0,0:0:0:0:
50,160,190573,6,0,P|95:183|135:177,1,80,4|2,0:0|0:0,0:0:0:0:
203,216,190887,2,0,P|236:195|276:194,1,80,8|0,0:0|0:0,0:0:0:0:
347,245,191201,1,6,0:0:0:0:
347,245,191359,2,0,P|364:197|358:161,1,80,4|0,0:0|0:0,0:0:0:0:
237,122,191673,6,0,L|263:280,1,160,8|0,0:0|0:0,0:0:0:0:
206,352,192144,2,0,P|272:367|349:307,1,160,8|6,0:0|0:0,0:0:0:0:
429,298,192615,1,4,0:0:0:0:
429,298,192772,2,0,P|422:257|415:199,1,80,8|0,0:0|0:0,0:0:0:0:
390,90,193086,5,8,0:0:0:0:
256,192,193715,12,4,195599,0:0:0:0:
55,281,205652,6,0,P|101:320|186:311,1,143.999995605469,4|4,1:0|0:0,0:0:0:0:
133,241,206123,1,4,0:0:0:0:
210,203,206280,2,0,P|164:164|79:173,2,143.999995605469,8|0|0,0:0|0:0|0:0,0:0:0:0:
263,270,207065,6,0,B|358:256|358:256|422:281,1,143.999995605469,8|4,0:0|0:0,0:0:0:0:
459,339,207537,2,0,P|448:267|436:184,1,143.999995605469,8|0,0:0|0:0,0:0:0:0:
421,111,208008,1,0,0:0:0:0:
373,38,208165,6,0,P|420:25|502:77,1,143.999995605469,4|4,0:0|0:0,0:0:0:0:
421,111,208636,1,4,0:0:0:0:
345,152,208793,2,0,L|248:136,1,71.9999978027344,8|0,0:0|0:0,0:0:0:0:
188,125,209107,1,0,0:0:0:0:
172,110,209421,5,0,0:0:0:0:
89,137,209578,2,0,L|75:45,2,71.9999978027344,8|0|4,0:0|0:0|0:0,0:0:0:0:
34,202,210050,2,0,P|66:218|102:222,1,71.9999978027344,8|0,0:0|0:0,0:0:0:0:
99,308,210364,2,0,P|143:298|173:273,1,71.9999978027344,0|0,0:0|0:0,0:0:0:0:
228,224,210678,6,0,P|286:236|354:178,1,143.999995605469,4|4,0:0|0:0,0:0:0:0:
272,150,211149,1,4,0:0:0:0:
272,150,211306,2,0,L|295:303,1,143.999995605469,8|0,0:0|0:0,0:0:0:0:
313,376,211777,1,8,0:0:0:0:
377,318,211934,6,0,P|413:323|454:335,1,71.9999978027344,0|8,0:0|0:0,0:0:0:0:
293,292,212249,2,0,P|243:304|162:237,2,143.999995605469,0|8|0,0:0|0:0|0:0,0:0:0:0:
466,196,213191,6,0,P|405:206|315:221,1,143.999995605469,4|4,0:0|0:0,0:0:0:0:
254,167,213662,1,4,0:0:0:0:
254,167,213819,2,0,P|182:155|111:143,1,143.999995605469,8|0,0:0|0:0,0:0:0:0:
37,186,214290,6,0,P|1:238|23:330,1,143.999995605469,4|8,0:0|0:0,0:0:0:0:
82,365,214762,1,0,0:0:0:0:
162,334,214919,1,0,0:0:0:0:
242,302,215076,2,0,P|236:265|225:206,1,71.9999978027344,8|0,0:0|0:0,0:0:0:0:
132,179,215390,2,0,P|138:214|145:249,1,71.9999978027344,0|0,0:0|0:0,0:0:0:0:
271,312,215704,6,0,P|261:247|243:150,1,143.999995605469,4|4,1:0|0:0,0:0:0:0:
272,87,216175,1,4,0:0:0:0:
335,27,216332,2,0,P|409:21|464:87,1,143.999995605469,8|0,0:0|0:0,0:0:0:0:
494,167,216804,6,0,B|441:174|441:174|409:199|409:199|341:208,1,143.999995605469,0|8,0:0|0:0,0:0:0:0:
297,265,217275,2,0,P|276:237|271:202,1,71.9999978027344,0|4,0:0|0:0,0:0:0:0:
361,324,217589,2,0,P|290:315|207:306,1,143.999995605469,8|0,0:0|0:0,0:0:0:0:
154,249,218060,1,4,0:0:0:0:
154,249,218217,6,0,P|110:287|14:265,2,143.999995605469,4|4|8,0:0|0:0|0:0,0:0:0:0:
168,228,219160,1,0,0:0:0:0:
232,95,219474,5,0,0:0:0:0:
232,95,219631,2,0,P|163:82|107:123,1,143.999995605469,8|4,0:0|0:0,0:0:0:0:
77,205,220102,2,0,P|71:167|49:46,2,143.999995605469,8|8|4,0:0|0:0|1:0,0:0:0:0:
173,239,220887,6,0,L|183:168,1,71.9999978027344,0|0,0:0|0:0,0:0:0:0:
97,288,221201,2,0,P|136:321|241:303,1,143.999995605469,8|0,0:0|0:0,0:0:0:0:
357,274,221673,2,0,P|323:264|288:257,1,71.9999978027344,8|0,0:0|0:0,0:0:0:0:
183,168,221987,1,0,0:0:0:0:
183,168,222144,6,0,P|218:160|252:150,1,71.9999978027344,8|0,0:0|0:0,0:0:0:0:
288,257,222458,1,0,0:0:0:0:
224,315,222615,2,0,P|203:276|214:219,1,71.9999978027344,8|0,0:0|0:0,0:0:0:0:
314,90,222929,2,0,P|332:120|335:155,1,71.9999978027344,8|0,0:0|0:0,0:0:0:0:
202,249,223243,6,0,B|152:233|152:233|43:258,1,143.999995605469,8|0,0:0|0:0,0:0:0:0:
1,144,223715,2,0,B|51:160|51:160|140:139,1,143.999995605469,8|0,0:0|0:0,0:0:0:0:
215,96,224186,1,8,0:0:0:0:
287,142,224343,1,0,0:0:0:0:
277,228,224500,5,8,1:2:0:0:
256,192,224578,12,0,225756,0:0:0:0:
444,317,235809,5,2,0:0:0:0:
99,234,236751,2,0,L|105:274,1,40,0|0,0:0|0:0,0:0:0:0:
118,348,237065,5,2,0:0:0:0:
118,348,237694,2,0,P|152:345|193:376,1,80,2|0,0:0|0:0,0:0:0:0:
324,300,238322,6,0,L|311:207,2,80,2|0|2,0:0|0:0|0:0,0:0:0:0:
202,21,239578,6,0,L|190:100,1,80,2|0,0:0|0:0,0:0:0:0:
161,277,240207,1,0,0:0:0:0:
131,167,240521,1,0,0:0:0:0:
124,345,240835,6,0,P|168:356|234:308,1,120.000004577637,2|0,0:0|0:0,0:0:0:0:
270,246,241306,2,0,P|301:280|386:275,1,120.000004577637,2|0,0:0|0:0,0:0:0:0:
442,238,241777,2,0,P|436:195|430:162,1,60.0000022888184,2|0,0:0|0:0,0:0:0:0:
420,93,242092,6,0,P|415:63|411:33,1,60.0000022888184,2|0,0:0|0:0,0:0:0:0:
352,152,242406,2,0,P|325:138|298:124,1,60.0000022888184,0|0,0:0|0:0,0:0:0:0:
322,234,242720,2,0,P|262:244|204:255,1,120.000004577637,2|0,0:0|0:0,0:0:0:0:
184,239,243348,6,0,P|113:251|57:201,2,143.999995605469,4|4|8,1:0|1:0|1:2,0:0:0:0:
249,172,244133,1,4,0:0:0:0:
230,80,244290,1,4,0:0:0:0:
135,170,244448,6,0,P|123:232|113:308,1,120.000004577637,4|0,1:0|0:0,0:0:0:0:
4,373,244919,2,0,P|33:368|63:362,1,60.0000022888184,0|0,3:0|0:0,0:0:0:0:
152,368,245233,6,0,L|198:359,7,40,0|0|0|0|0|0|0|0,1:0|1:0|1:0|1:0|1:0|1:0|1:0|1:0,0:0:0:0:
211,334,245861,6,0,B|265:347|265:347|303:335|303:335|327:355|365:356,2,160,4|8|6,1:0|0:0|0:0,0:0:0:0:
151,269,246646,2,0,P|102:283|15:207,1,160,4|8,0:0|0:0,0:0:0:0:
65,148,247118,6,0,P|73:111|81:56,1,80,0|4,0:0|0:0,0:0:0:0:
182,22,247432,1,8,0:0:0:0:
182,22,247589,2,0,P|167:91|146:203,1,160,0|4,0:0|0:0,0:0:0:0:
179,261,248060,2,0,P|219:281|260:279,1,80,8|0,0:0|0:0,0:0:0:0:
332,318,248374,6,0,P|396:305|469:378,2,160,4|8|6,0:0|0:0|0:0,0:0:0:0:
253,280,249160,2,0,L|239:201,1,80,4|0,0:0|0:0,0:0:0:0:
227,113,249474,6,0,B|334:130|334:130|387:116,1,160,8|4,0:0|0:0,0:0:0:0:
443,52,249945,2,0,P|465:84|468:124,1,80,8|0,0:0|0:0,0:0:0:0:
499,215,250259,2,0,L|421:198,1,80,6|0,0:0|0:0,0:0:0:0:
333,205,250573,1,8,0:0:0:0:
333,205,250730,1,2,0:0:0:0:
248,228,250887,6,0,P|214:292|226:385,2,160,4|8|4,0:0|0:0|0:0,0:0:0:0:
324,182,251673,2,0,P|315:123|307:92,1,80,6|0,0:0|0:0,0:0:0:0:
215,71,251987,6,0,P|232:149|248:228,1,160,8|6,0:0|0:0,0:0:0:0:
192,296,252458,1,8,0:0:0:0:
272,332,252615,1,0,0:0:0:0:
190,313,252772,2,0,P|146:318|111:328,1,80,6|4,0:0|0:0,0:0:0:0:
19,224,253086,2,0,P|58:236|98:241,1,80,8|0,0:0|0:0,0:0:0:0:
190,313,253400,6,0,P|266:327|325:278,2,160,4|8|4,0:0|0:0|0:0,0:0:0:0:
123,254,254186,2,0,P|105:293|106:342,1,80,6|0,0:0|0:0,0:0:0:0:
207,225,254500,6,0,P|163:175|56:191,1,160,8|4,0:0|0:0,0:0:0:0:
0,66,254971,2,0,P|34:85|74:88,1,80,8|2,0:0|0:0,0:0:0:0:
160,72,255285,1,4,0:0:0:0:
160,72,255442,1,2,0:0:0:0:
222,9,255599,1,8,0:0:0:0:
222,9,255756,1,0,0:0:0:0:
304,41,255914,6,0,P|292:111|276:208,2,160,4|8|6,1:0|0:0|0:0,0:0:0:0:
401,16,256699,2,0,P|392:61|382:124,1,80,4|0,0:0|0:0,0:0:0:0:
373,181,257013,1,8,0:0:0:0:
373,181,257170,6,0,P|419:175|456:145,1,80,0|4,0:0|0:0,0:0:0:0:
307,246,257484,2,0,P|341:266|380:272,1,80,8|0,0:0|0:0,0:0:0:0:
242,186,257798,2,0,P|202:189|168:210,1,80,6|4,0:0|0:0,0:0:0:0:
306,125,258112,2,0,P|271:104|232:99,1,80,8|0,0:0|0:0,0:0:0:0:
146,118,258427,6,0,B|100:143|67:139|67:139|17:111|9:75,1,160,6|8,0:0|0:0,0:0:0:0:
92,50,258898,1,0,0:0:0:0:
92,50,259055,2,0,L|61:232,1,160,6|0,0:0|0:0,0:0:0:0:
78,294,259526,6,0,P|141:352|230:323,1,160,8|4,0:0|0:0,0:0:0:0:
274,266,259997,1,8,0:0:0:0:
285,282,260311,2,0,P|324:288|363:296,1,80,4|4,0:0|0:0,0:0:0:0:
447,323,260626,2,0,L|458:263,3,40,8|0|0|0,0:0|0:0|0:0|0:0,0:0:0:0:
496,270,260940,6,0,P|486:210|473:107,1,160,6|8,0:0|0:0,0:0:0:0:
396,40,261411,2,0,P|391:80|385:120,1,80,2|4,0:0|0:0,0:0:0:0:
287,179,261725,2,0,P|292:139|299:100,1,80,4|0,0:0|0:0,0:0:0:0:
366,218,262039,6,0,P|312:263|214:236,1,160,8|0,0:0|0:0,0:0:0:0:
173,180,262510,2,0,L|77:197,1,80,8|0,0:0|0:0,0:0:0:0:
13,158,262825,1,6,0:0:0:0:
13,158,262982,1,4,0:0:0:0:
32,72,263139,2,0,L|110:85,1,80,8|0,0:0|0:0,0:0:0:0:
197,70,263453,6,0,B|225:34|260:19|260:19|310:28|352:57,1,160,4|8,0:0|0:0,0:0:0:0:
356,166,263924,2,0,B|328:202|293:217|293:217|243:208|219:190,1,160,0|4,0:0|0:0,0:0:0:0:
276,121,264395,1,0,0:0:0:0:
276,121,264552,6,0,P|288:194|305:297,1,160,4|0,1:0|0:0,0:0:0:0:
199,362,265023,2,0,P|205:323|214:284,1,80,8|0,0:0|0:0,0:0:0:0:
331,193,265338,2,0,L|392:207,3,40,8|8|8|8,0:0|0:0|0:0|0:0,0:0:0:0:
401,232,265652,2,0,L|445:216,3,40,4|4|4|4,0:0|0:0|0:0|0:0,0:0:0:0:
477,198,265966,6,0,B|497:258|507:303|507:303|491:370,2,160,4|8|4,1:0|0:0|0:0,0:0:0:0:
494,111,266751,2,0,P|441:102|409:94,1,80,6|0,0:0|0:0,0:0:0:0:
331,22,267065,6,0,P|371:15|410:7,2,80,8|0|6,0:0|0:0|0:0,0:0:0:0:
329,127,267537,1,8,0:0:0:0:
329,127,267694,2,0,P|254:109|162:93,1,160,0|6,0:0|0:0,0:0:0:0:
92,147,268165,2,0,P|66:193|66:237,1,80,8|0,0:0|0:0,0:0:0:0:
163,300,268479,6,0,P|156:260|151:220,1,80,4|2,0:0|0:0,0:0:0:0:
271,301,268793,2,0,P|262:340|255:379,1,80,8|0,0:0|0:0,0:0:0:0:
140,313,269107,2,0,P|129:252|113:142,1,160,4|0,0:0|0:0,0:0:0:0:
154,76,269578,6,0,B|187:90|211:97|211:97|254:90|321:67,1,160,4|2,1:0|0:0,0:0:0:0:
381,119,270050,2,0,P|395:82|391:43,1,80,8|0,0:0|0:0,0:0:0:0:
303,161,270364,1,4,0:0:0:0:
303,161,270521,1,6,0:0:0:0:
332,243,270678,1,8,0:0:0:0:
332,243,270835,1,0,0:0:0:0:
366,324,270992,6,0,P|439:331|509:259,2,160,4|8|4,0:0|0:0|0:0,0:0:0:0:
301,250,271777,2,0,P|261:258|219:265,1,80,6|0,0:0|0:0,0:0:0:0:
146,129,272092,6,0,P|224:143|302:160,1,160,4|6,1:0|0:0,0:0:0:0:
413,242,272563,2,0,P|402:183|397:150,1,80,8|0,0:0|0:0,0:0:0:0:
317,81,272877,2,0,P|310:120|302:159,1,80,4|6,0:0|0:0,0:0:0:0:
222,264,273191,2,0,P|261:257|301:250,1,80,8|0,0:0|0:0,0:0:0:0:
354,334,273505,6,0,L|524:361,2,160,4|8|4,0:0|0:0|0:0,0:0:0:0:
253,278,274290,2,0,B|247:319|247:319|260:356,1,80,6|0,0:0|0:0,0:0:0:0:
326,214,274605,6,0,P|243:227|167:239,1,160,4|4,1:0|0:0,0:0:0:0:
74,218,275076,2,0,P|49:179|50:137,1,80,8|0,0:0|0:0,0:0:0:0:
86,58,275390,2,0,L|132:36,3,40,4|0|8|8,0:0|0:0|0:0|0:0,0:0:0:0:
158,8,275704,2,0,L|216:25,3,40,8|8|4|4,0:0|0:0|0:0|0:0,0:0:0:0:
242,33,276018,6,0,P|232:86|214:203,1,160,4|8,1:0|0:0,0:0:0:0:
198,285,276489,1,0,0:0:0:0:
126,221,276646,1,4,0:0:0:0:
215,190,276804,2,0,B|275:203|318:212|318:212|391:197,1,160,0|4,0:0|1:0,0:0:0:0:
465,180,277275,6,0,P|478:244|486:274,1,80,0|6,0:0|0:0,0:0:0:0:
378,367,277589,2,0,P|386:328|391:289,1,80,8|0,0:0|0:0,0:0:0:0:
480,160,277903,6,0,P|493:224|501:254,1,80,4|6,0:0|0:0,0:0:0:0:
358,357,278217,2,0,P|366:318|371:279,1,80,8|0,0:0|0:0,0:0:0:0:
396,119,278531,6,0,P|430:82|538:92,2,160,4|8|6,1:0|0:0|0:0,0:0:0:0:
334,193,279317,2,0,P|291:185|236:177,1,80,4|8,0:0|0:0,0:0:0:0:
212,302,279631,6,0,P|291:289|370:278,1,160,4|4,1:0|0:0,0:0:0:0:
321,169,280102,2,0,P|278:161|223:153,1,80,8|2,0:0|0:0,0:0:0:0:
165,213,280416,2,0,P|118:210|83:180,1,80,4|4,0:0|0:0,0:0:0:0:
43,108,280730,2,0,P|55:165|61:206,1,80,8|0,0:0|0:0,0:0:0:0:
133,309,281044,6,0,P|66:293|-3:374,2,160,4|8|6,1:0|0:0|0:0,0:0:0:0:
208,369,281830,2,0,P|226:327|224:278,1,80,4|0,0:0|0:0,0:0:0:0:
285,172,282144,6,0,B|276:120|261:50|261:50|246:101,1,160,4|2,1:0|0:0,0:0:0:0:
369,141,282615,2,0,P|406:154|446:156,1,80,8|0,0:0|0:0,0:0:0:0:
355,235,282929,1,4,0:0:0:0:
355,235,283086,1,6,0:0:0:0:
268,193,283243,2,0,P|228:195|190:208,1,80,8|0,0:0|0:0,0:0:0:0:
88,309,283557,5,8,0:0:0:0:
256,192,284186,12,4,286071,1:0:0:0:
