osu file format v14

[General]
AudioFilename: audio.mp3
AudioLeadIn: 0
PreviewTime: 69788
Countdown: 0
SampleSet: Soft
StackLeniency: 0.7
Mode: 0
LetterboxInBreaks: 0
WidescreenStoryboard: 1

[Editor]
DistanceSpacing: 0.4
BeatDivisor: 4
GridSize: 4
TimelineZoom: 1

[Metadata]
Title:Heikousen
TitleUnicode:平行線
Artist:Sayuri
ArtistUnicode:さユり
Creator:Rizia
Version:Insane
Source:クズの本懐
Tags:Kuzu no Honkai Scum's Wish anime ending kawaiwkyik Kisses DreaM117er m1223961117
BeatmapID:1236367
BeatmapSetID:583370

[Difficulty]
HPDrainRate:7
CircleSize:4
OverallDifficulty:7
ApproachRate:8
SliderMultiplier:1.8
SliderTickRate:1

[Events]
//Background and Video events
0,0,"bg.jpg",0,0
//Break Periods
2,110354,119457
2,195799,204902
//Storyboard Layer 0 (Background)
//Storyboard Layer 1 (Fail)
//Storyboard Layer 2 (Pass)
//Storyboard Layer 3 (Foreground)
//Storyboard Sound Samples

[TimingPoints]
898,810.810810810811,4,2,1,40,1,0
29736,314.13612565445,4,2,1,70,1,0
39160,-100,4,2,1,70,0,0
39866,-100,4,1,1,50,0,0
40102,-100,4,2,1,50,0,0
40259,-125,4,2,1,50,0,0
59893,-200,4,2,1,50,0,0
64919,-100,4,1,1,60,0,0
68060,-83.3333333333333,4,1,1,60,0,0
68217,-71.4285714285714,4,1,1,60,0,0
68374,-62.5,4,1,1,60,0,0
68531,-55.5555555555556,4,1,1,60,0,0
68610,-55.5555555555556,4,1,1,5,0,0
69945,-100,4,2,1,80,0,0
108270,-200,4,2,1,40,0,0
110154,-200,4,1,1,80,0,0
120207,-125,4,2,1,60,0,0
145338,-200,4,2,1,60,0,0
150364,-100,4,1,1,60,0,0
153505,-83.3333333333333,4,1,1,60,0,0
153662,-71.4285714285714,4,1,1,60,0,0
153819,-62.5,4,1,1,60,0,0
153976,-55.5555555555556,4,1,1,60,0,0
154055,-55.5555555555556,4,1,1,5,0,0
154762,-200,4,1,1,25,0,0
155390,-100,4,2,1,80,0,0
193715,-200,4,2,1,40,0,0
195599,-200,4,1,1,80,0,0
205652,-100,4,2,1,80,0,0
224500,-142.857142857143,4,2,1,80,0,0
225756,-200,4,2,1,40,0,0
243348,-100,4,2,1,70,0,0
245861,-83.3333333333333,4,2,1,80,0,0
284186,-200,4,2,1,20,0,0
284657,-200,4,2,1,5,0,0
284814,-125,4,2,1,20,0,0
285285,-125,4,2,1,5,0,0
285442,-166.666666666667,4,2,1,40,0,0

[Colours]
Combo1 : 128,0,255
Combo2 : 191,223,255
Combo3 : 0,128,255
Combo4 : 255,0,0

[HitObjects]
400,280,898,6,0,P|344:312|232:296,1,180,0|0,0:0|0:0,0:0:0:0:
100,176,2519,2,0,P|72:136|176:160,1,270,0|0,0:0|0:0,0:0:0:0:
128,264,4141,2,0,L|16:256,2,90,0|0|0,0:0|0:0|0:0,0:0:0:0:
128,264,5762,2,0,P|208:256|312:248,1,180,0|0,0:0|0:0,0:0:0:0:
468,132,7384,6,0,P|488:80|388:24,2,180,0|0|0,0:0|0:0|0:0,0:0:0:0:
368,304,9816,1,0,0:0:0:0:
368,304,10222,2,0,P|356:260|396:120,1,180,0|0,0:0|0:0,0:0:0:0:
288,20,11438,2,0,P|300:64|260:204,1,180,0|0,0:0|0:0,0:0:0:0:
96,308,13668,5,0,0:0:0:0:
96,308,13870,2,0,P|140:300|284:284,1,180,0|0,0:0|0:0,0:0:0:0:
364,128,15492,1,0,0:0:0:0:
376,40,15898,1,0,0:0:0:0:
288,44,16303,2,0,L|176:28,2,90,0|0|0,0:0|0:0|0:0,0:0:0:0:
336,120,17519,6,0,L|448:104,2,90,0|0|0,0:0|0:0|0:0,0:0:0:0:
264,176,18735,2,0,L|248:280,1,90,0|0,0:0|0:0,0:0:0:0:
164,284,19546,2,0,L|177:195,1,90,0|0,0:0|0:0,0:0:0:0:
108,140,20357,6,0,P|104:96|288:88,1,270,0|0,0:0|0:0,0:0:0:0:
404,296,22789,1,0,0:0:0:0:
236,364,23600,2,0,L|48:344,1,180,0|0,0:0|0:0,0:0:0:0:
152,192,25222,2,0,P|172:132|124:16,1,180,0|0,0:0|0:0,0:0:0:0:
256,192,26235,12,0,29276,0:0:0:0:
136,204,29736,6,0,P|152:160|136:100,1,90,0|0,1:0|0:0,0:0:0:0:
96,44,30050,1,0,1:0:0:0:
48,152,30207,2,0,L|236:136,1,180,2|0,0:0|0:0,0:0:0:0:
316,124,30678,1,0,1:0:0:0:
396,284,30992,5,0,1:0:0:0:
328,344,31149,1,0,0:0:0:0:
276,272,31306,1,0,0:0:0:0:
344,212,31463,2,0,P|372:168|332:52,1,180,2|0,0:0|0:0,0:0:0:0:
192,100,31934,2,0,P|236:132|292:124,1,90,0|0,1:0|0:0,0:0:0:0:
136,192,32249,6,0,P|91:196|57:224,1,90,0|0,1:0|0:0,0:0:0:0:
52,128,32563,1,0,1:0:0:0:
132,280,32720,2,0,P|176:308|312:292,1,180,2|0,0:0|0:0,0:0:0:0:
380,104,33191,2,0,P|336:76|200:92,1,180,0|0,1:0|1:0,0:0:0:0:
140,140,33662,1,0,0:0:0:0:
104,220,33819,1,0,1:0:0:0:
104,308,33976,1,2,0:0:0:0:
308,376,34290,1,0,0:0:0:0:
284,272,34448,1,0,1:0:0:0:
184,236,34605,1,0,0:0:0:0:
104,308,34762,6,0,P|48:280|60:160,1,180,0|0,1:0|1:0,0:0:0:0:
24,88,35233,2,0,B|108:100|108:100|116:116|116:116|220:132,1,180,2|0,0:0|0:0,0:0:0:0:
280,140,35704,1,0,1:0:0:0:
492,108,36018,5,0,1:0:0:0:
508,0,36175,1,2,0:0:0:0:
492,108,36332,1,0,1:0:0:0:
508,0,36489,2,0,P|472:40|512:180,1,180,2|0,0:0|0:0,0:0:0:0:
504,264,36961,2,0,L|392:248,1,90,0|0,1:0|0:0,0:0:0:0:
328,236,37275,5,0,1:0:0:0:
200,164,37432,2,0,L|304:152,1,90,0|0,0:0|1:0,0:0:0:0:
152,252,37746,2,0,P|108:200|144:84,1,180,2|0,0:0|0:0,0:0:0:0:
200,44,38217,1,0,1:0:0:0:
368,136,38531,6,0,B|484:148|484:148|444:208,1,180,0|0,1:0|1:0,0:0:0:0:
392,280,39003,1,2,0:0:0:0:
392,280,39081,1,0,0:0:0:0:
392,280,39160,2,0,L|404:352,1,45,8|8,1:2|1:2,0:0:0:0:
312,332,39317,2,0,L|324:404,1,45,8|8,1:2|1:2,0:0:0:0:
236,284,39474,1,8,0:3:0:0:
208,280,39552,1,8,0:3:0:0:
180,276,39631,1,0,0:0:0:0:
152,272,39709,1,0,0:0:0:0:
124,268,39788,5,4,1:0:0:0:
48,96,40102,1,0,0:0:0:0:
140,40,40259,1,0,0:0:0:0:
140,40,40416,2,0,P|152:120|160:212,1,144,0|0,0:0|0:0,0:0:0:0:
100,340,41044,5,4,0:0:0:0:
100,340,41201,2,0,P|144:332|184:328,1,72,0|0,0:0|0:0,0:0:0:0:
232,280,41516,2,0,P|260:272|332:360,1,144,0|0,0:0|0:0,0:0:0:0:
334,342,41987,1,0,0:0:0:0:
404,184,42301,6,0,P|408:124|416:28,1,144,4|0,0:0|0:0,0:0:0:0:
328,56,42772,1,0,0:0:0:0:
328,56,42851,1,0,0:0:0:0:
328,56,42929,2,0,P|324:120|324:156,1,72,0|0,0:0|0:0,0:0:0:0:
292,208,43243,1,0,0:0:0:0:
80,88,43557,5,4,0:0:0:0:
80,88,43872,1,0,0:0:0:0:
160,120,44029,1,0,0:0:0:0:
160,120,44107,1,0,0:0:0:0:
160,120,44186,1,0,0:0:0:0:
84,208,44343,1,0,0:0:0:0:
124,316,44500,1,0,0:0:0:0:
124,316,44814,6,0,P|172:312|232:360,1,108,4|0,0:0|0:0,0:0:0:0:
228,368,45128,1,0,0:0:0:0:
340,336,45285,1,0,0:0:0:0:
456,348,45442,2,0,P|464:280|472:192,1,144,0|0,0:0|0:0,0:0:0:0:
444,92,45914,2,0,P|400:76|384:204,1,216,0|0,0:0|0:0,0:0:0:0:
367,196,46699,1,0,0:0:0:0:
352,312,46856,1,0,0:0:0:0:
260,244,47013,1,0,0:0:0:0:
245,360,47170,1,0,0:0:0:0:
156,288,47327,5,4,0:0:0:0:
156,288,47484,2,0,P|144:248|160:196,1,72,0|0,0:0|0:0,0:0:0:0:
228,136,47798,2,0,L|312:148,2,72,0|0|0,0:0|0:0|0:0,0:0:0:0:
140,60,48270,1,0,0:0:0:0:
140,60,48427,1,0,0:0:0:0:
44,124,48584,6,0,B|12:208|12:208|44:252|44:252|16:324,1,216,4|0,0:0|0:0,0:0:0:0:
18,318,49212,2,0,L|92:336,1,72,0|0,0:0|0:0,0:0:0:0:
136,248,49526,2,0,L|208:225,1,72,8|0,0:0|0:0,0:0:0:0:
172,132,49840,6,0,L|188:40,2,72,4|0|0,0:0|0:0|0:0,0:0:0:0:
212,248,50311,2,0,L|196:340,2,72,0|0|0,0:0|0:0|0:0,0:0:0:0:
320,192,50783,1,8,0:0:0:0:
320,192,50940,1,0,0:0:0:0:
320,192,51097,2,0,P|360:200|460:164,1,144,4|0,0:0|0:0,0:0:0:0:
428,36,51568,2,0,P|388:28|288:64,1,144,0|0,0:0|0:0,0:0:0:0:
232,120,52039,1,8,0:0:0:0:
212,204,52196,1,0,0:0:0:0:
224,288,52353,6,0,B|200:332|200:332|88:352,1,144,4|0,0:0|0:0,0:0:0:0:
28,280,52825,1,0,0:0:0:0:
28,280,52903,1,0,0:0:0:0:
28,280,52982,2,0,B|120:263|120:263,1,72,0|0,0:0|0:0,0:0:0:0:
156,172,53296,2,0,B|85:184,1,72,8|0,0:0|0:0,0:0:0:0:
32,104,53610,6,0,P|56:64|164:60,1,144,4|0,0:0|0:0,0:0:0:0:
220,96,54081,1,0,0:0:0:0:
220,96,54160,1,0,0:0:0:0:
220,96,54238,1,0,0:0:0:0:
304,84,54395,1,0,0:0:0:0:
388,72,54552,1,8,0:0:0:0:
440,328,54866,5,4,0:0:0:0:
372,380,55023,1,0,0:0:0:0:
360,292,55181,1,8,0:0:0:0:
440,328,55338,1,0,0:0:0:0:
296,344,55495,5,4,0:0:0:0:
432,240,55652,1,4,0:0:0:0:
268,180,55809,1,0,0:0:0:0:
268,180,55966,2,0,P|232:200|124:196,1,144,8|4,0:0|0:0,0:0:0:0:
48,268,56437,2,0,P|84:248|192:252,1,144,8|4,0:0|0:0,0:0:0:0:
248,308,56908,1,0,0:0:0:0:
332,336,57065,1,8,0:0:0:0:
420,336,57222,1,0,0:0:0:0:
500,300,57379,5,4,0:0:0:0:
488,212,57537,2,0,L|476:128,2,72,0|8|0,0:0|0:0|0:0,0:0:0:0:
376,80,58008,1,4,0:0:0:0:
364,164,58165,2,0,L|353:235,2,72,4|0|8,0:0|0:0|0:0,0:0:0:0:
204,72,58636,5,4,0:0:0:0:
268,144,58793,1,0,0:0:0:0:
184,160,58950,1,8,0:0:0:0:
100,176,59107,1,8,0:0:0:0:
100,176,59186,1,8,0:0:0:0:
100,176,59264,5,8,0:0:0:0:
212,308,59421,1,0,0:0:0:0:
268,144,59578,1,0,0:0:0:0:
100,176,59735,1,0,0:0:0:0:
212,308,59893,5,4,0:1:0:0:
440,352,60521,2,0,L|452:260,1,90,0|0,0:0|0:0,0:0:0:0:
404,168,61149,2,0,P|452:152|504:160,2,90,0|0|0,0:0|0:0|0:0,0:0:0:0:
296,232,62092,2,0,P|256:252|128:196,1,180,0|0,0:0|0:0,0:0:0:0:
72,100,63034,1,0,0:0:0:0:
184,44,63348,2,0,L|160:244,1,180,0|0,0:0|0:0,0:0:0:0:
148,352,64290,1,0,0:0:0:0:
432,208,64919,6,0,L|440:156,3,45,0|0|0|0,0:0|0:0|0:0|0:0,0:0:0:0:
360,112,65233,2,0,L|352:164,3,45,0|0|0|0,0:0|0:0|0:0|0:0,0:0:0:0:
264,208,65547,2,0,L|272:156,3,45,0|0|0|0,0:0|0:0|0:0|0:0,0:0:0:0:
192,112,65861,2,0,L|184:164,3,45,0|0|0|0,0:0|0:0|0:0|0:0,0:0:0:0:
56,240,66175,6,0,L|105:220,3,45,0|0|0|0,0:0|0:0|0:0|0:0,0:0:0:0:
224,304,66489,2,0,L|182:271,3,45,0|0|0|0,0:0|0:0|0:0|0:0,0:0:0:0:
220,140,66804,2,0,L|232:204,1,45,0|0,0:0|0:0,0:0:0:0:
312,252,66961,2,0,L|324:188,1,45,0|0,0:0|0:0,0:0:0:0:
428,208,67118,2,0,L|484:196,3,45,0|0|0|0,0:0|0:0|0:0|0:0,0:0:0:0:
512,304,67432,6,0,L|467:313,3,45,0|0|0|0,0:0|0:0|0:0|0:0,0:0:0:0:
376,364,67746,2,0,L|331:373,3,45,0|0|0|0,0:0|0:0|0:0|0:0,0:0:0:0:
244,340,68060,6,0,L|164:326,1,53.9999983520508,8|0,0:2|0:0,0:0:0:0:
28,300,68217,6,0,L|107:286,1,62.9999980773926,0|0,0:0|0:0,0:0:0:0:
257,243,68374,6,0,L|177:229,1,72,8|0,0:2|0:0,0:0:0:0:
32,200,68531,6,0,L|111:186,1,80.9999975280763,4|0,0:0|0:0,0:0:0:0:
88,180,69945,6,0,P|152:188|272:140,1,180,4|8,1:0|0:0,0:0:0:0:
328,68,70416,2,0,P|301:126|309:246,1,180,0|4,0:2|0:2,0:0:0:0:
356,344,70887,1,0,0:0:0:0:
488,256,71044,6,0,B|512:208|512:208|372:232,1,180,8|4,0:0|0:2,0:0:0:0:
267,327,71516,2,0,L|356:344,1,90,8|0,0:0|0:0,0:0:0:0:
387,229,71830,1,6,0:0:0:0:
288,164,71987,1,4,0:0:0:0:
196,232,72144,2,0,P|168:280|164:344,1,90,8|0,0:0|0:0,0:0:0:0:
88,200,72458,6,0,P|96:144|52:4,2,180,4|8|2,0:0|0:0|0:0,0:0:0:0:
32,280,73243,2,0,P|88:268|184:348,1,180,4|8,0:2|0:0,0:0:0:0:
272,372,73715,6,0,L|376:364,1,90,0|4,0:0|0:0,0:0:0:0:
460,356,74029,1,8,0:0:0:0:
484,260,74186,1,0,0:0:0:0:
484,260,74264,1,0,0:0:0:0:
484,260,74343,1,6,0:0:0:0:
420,184,74500,1,4,0:2:0:0:
436,88,74657,1,8,0:0:0:0:
420,184,74814,1,6,0:2:0:0:
436,88,74971,6,0,B|364:80|364:80|336:88|336:88|256:80,1,180,0|8,0:0|0:0,0:0:0:0:
132,160,75442,2,0,B|204:168|204:168|232:160|232:160|312:168,1,180,0|4,0:0|0:0,0:0:0:0:
380,240,75914,1,0,0:0:0:0:
332,324,76071,6,0,B|184:284|220:384|60:336,1,270,8|8,0:0|0:0,0:0:0:0:
69,338,76699,1,0,0:0:0:0:
20,264,76856,2,0,P|12:216|28:156,1,90,2|4,0:0|0:0,0:0:0:0:
100,140,77170,2,0,P|128:100|182:69,1,90,8|0,0:0|0:0,0:0:0:0:
284,116,77484,6,0,P|332:128|452:80,2,180,4|8|6,0:0|0:0|0:0,0:0:0:0:
164,76,78270,1,4,0:0:0:0:
180,184,78427,1,0,0:0:0:0:
196,292,78584,1,8,0:0:0:0:
460,196,78898,5,4,0:0:0:0:
356,172,79055,1,8,0:0:0:0:
384,276,79212,1,0,0:0:0:0:
384,276,79290,1,0,0:0:0:0:
384,276,79369,2,0,L|392:392,1,90,2|4,0:0|0:0,0:0:0:0:
256,148,79683,1,8,0:0:0:0:
256,148,79997,6,0,L|264:264,1,90,4|0,1:0|0:0,0:0:0:0:
224,320,80311,1,8,0:0:0:0:
144,276,80468,1,0,0:0:0:0:
144,276,80547,1,0,0:0:0:0:
144,276,80626,1,6,0:0:0:0:
64,316,80783,1,4,0:0:0:0:
36,232,80940,1,0,0:0:0:0:
76,104,81097,6,0,P|140:88|240:152,1,180,8|4,0:0|0:0,0:0:0:0:
184,348,81568,2,0,P|138:300|143:181,1,180,8|2,0:0|0:0,0:0:0:0:
184,116,82039,1,4,0:0:0:0:
264,76,82196,1,8,0:0:0:0:
352,72,82353,1,0,0:0:0:0:
432,112,82510,6,0,L|528:140,1,90,0|0,0:0|0:0,0:0:0:0:
284,216,82825,2,0,L|188:188,1,90,8|0,0:0|0:0,0:0:0:0:
352,72,83139,1,6,0:0:0:0:
352,72,83296,2,0,L|372:280,1,180,0|8,0:0|0:0,0:0:0:0:
384,340,83767,5,0,0:0:0:0:
280,308,83924,1,0,0:0:0:0:
188,364,84081,1,8,0:0:0:0:
16,172,84395,5,6,0:0:0:0:
120,204,84552,1,4,0:0:0:0:
212,148,84709,1,8,0:0:0:0:
316,180,84866,1,0,0:0:0:0:
416,92,85023,6,0,P|376:48|264:76,1,180,4|8,0:0|0:0,0:0:0:0:
332,148,85495,2,0,L|524:140,1,180,0|4,0:0|0:0,0:0:0:0:
480,280,85966,1,0,0:0:0:0:
412,176,86123,6,0,P|376:224|396:364,1,180,8|0,0:0|0:0,0:0:0:0:
276,200,86594,2,0,P|252:144|121:92,1,180,8|6,0:0|0:0,0:0:0:0:
48,128,87065,1,4,0:0:0:0:
16,232,87222,1,8,0:0:0:0:
76,324,87379,1,0,0:0:0:0:
224,336,87537,6,0,L|420:316,1,180,4|8,0:0|0:0,0:0:0:0:
288,48,88008,2,0,L|92:68,1,180,0|4,0:0|0:0,0:0:0:0:
84,228,88479,1,0,0:0:0:0:
132,312,88636,6,0,P|168:276|144:156,1,180,8|0,0:0|0:0,0:0:0:0:
4,228,89107,2,0,L|93:239,1,90,8|0,0:0|0:0,0:0:0:0:
220,344,89421,5,8,0:0:0:0:
248,324,89500,1,8,0:0:0:0:
284,316,89578,1,8,0:0:0:0:
320,324,89657,1,0,0:0:0:0:
368,348,89735,2,0,L|412:336,3,45,0|0|0|0,0:0|0:0|0:0|0:0,0:0:0:0:
452,352,90050,6,0,P|464:304|440:240,1,90,4|0,1:0|0:0,0:0:0:0:
352,140,90364,2,0,P|340:188|364:252,1,90,8|2,0:0|0:0,0:0:0:0:
440,76,90678,1,4,0:0:0:0:
344,32,90835,1,4,0:0:0:0:
256,92,90992,1,0,0:0:0:0:
160,48,91149,6,0,B|112:40|112:40|56:88|84:172,1,180,8|4,0:0|0:0,0:0:0:0:
152,296,91620,2,0,P|208:240|172:140,1,180,8|4,0:0|0:0,0:0:0:0:
185,150,92092,1,4,0:0:0:0:
272,212,92249,1,8,0:0:0:0:
380,224,92406,1,0,0:0:0:0:
480,184,92563,6,0,L|492:88,1,90,4|2,0:0|0:0,0:0:0:0:
380,224,92877,2,0,L|391:313,1,90,8|0,0:0|0:0,0:0:0:0:
480,364,93191,1,2,0:0:0:0:
480,364,93348,2,0,B|412:348|412:348|372:356|372:356|284:336,1,180,4|8,0:0|0:0,0:0:0:0:
208,360,93819,6,0,P|144:380|48:320,1,180,0|8,0:0|0:0,0:0:0:0:
44,220,94290,1,0,0:0:0:0:
44,220,94369,1,0,0:0:0:0:
44,220,94448,1,6,0:0:0:0:
152,212,94605,1,0,0:0:0:0:
44,220,94762,1,8,0:0:0:0:
152,212,94919,1,4,0:0:0:0:
244,264,95076,6,0,L|444:248,1,180,4|8,0:0|0:0,0:0:0:0:
201,44,95704,2,0,P|158:122|152:212,1,180,6|0,0:0|0:0,0:0:0:0:
364,280,96332,2,0,P|318:203|244:153,1,180,2|8,0:0|0:0,0:0:0:0:
64,244,96961,2,0,P|108:240|150:225,1,90,6|0,0:0|0:0,0:0:0:0:
0,116,97275,2,0,P|40:135|84:142,1,90,8|2,0:0|0:0,0:0:0:0:
244,76,97589,6,0,P|192:96|60:104,2,180,4|8|4,0:0|0:0|0:0,0:0:0:0:
316,24,98374,1,4,0:0:0:0:
376,92,98531,1,0,0:0:0:0:
464,76,98688,6,0,B|496:112|488:160|488:160|448:188|440:272,1,180,8|6,0:0|0:0,0:0:0:0:
480,328,99160,2,0,B|435:345|392:321|392:321|380:274|304:238,1,180,8|4,0:0|0:0,0:0:0:0:
240,232,99631,2,0,L|228:164,1,45,8|8,0:0|0:0,0:0:0:0:
192,320,99788,2,0,L|184:364,1,45,0|0,0:0|0:0,0:0:0:0:
120,248,99945,2,0,L|108:180,1,45,0|0,0:0|0:0,0:0:0:0:
72,336,100102,5,4,1:0:0:0:
72,336,100416,1,8,0:0:0:0:
12,236,100573,1,2,0:0:0:0:
52,128,100730,1,4,0:0:0:0:
12,236,100887,1,4,0:0:0:0:
128,216,101044,1,0,0:0:0:0:
52,128,101201,6,0,P|100:96|240:112,1,180,8|4,0:0|0:0,0:0:0:0:
152,216,101673,2,0,P|239:228|318:187,1,180,8|4,0:0|0:0,0:0:0:0:
352,104,102144,1,4,0:0:0:0:
356,16,102301,1,8,0:0:0:0:
360,116,102458,1,0,0:0:0:0:
408,204,102615,5,4,0:0:0:0:
488,264,102772,1,0,0:0:0:0:
428,344,102929,1,8,0:0:0:0:
348,284,103086,1,2,0:0:0:0:
348,284,103243,2,0,P|304:288|264:352,1,90,4|4,0:0|0:0,0:0:0:0:
152,288,103557,1,0,0:0:0:0:
204,384,103715,6,0,P|232:336|212:180,1,180,8|6,0:0|0:0,0:0:0:0:
84,80,104186,1,8,0:0:0:0:
24,148,104343,1,0,0:0:0:0:
0,236,104500,2,0,P|4:292|12:344,1,90,6|4,0:0|0:0,0:0:0:0:
230,214,104814,2,0,P|227:169|222:125,1,90,8|0,0:0|0:0,0:0:0:0:
156,64,105128,5,4,0:0:0:0:
138,153,105285,1,2,0:0:0:0:
222,125,105442,1,8,0:0:0:0:
156,64,105599,1,0,0:0:0:0:
204,212,105756,5,6,0:0:0:0:
364,180,105914,1,4,0:0:0:0:
400,336,106071,1,0,0:0:0:0:
240,368,106229,1,8,0:0:0:0:
240,368,106542,5,0,0:0:0:0:
308,296,106699,1,8,0:0:0:0:
400,336,106856,1,0,0:0:0:0:
484,284,107013,1,4,0:0:0:0:
468,188,107170,1,4,0:0:0:0:
368,180,107327,1,8,0:0:0:0:
336,88,107484,1,0,0:0:0:0:
416,32,107641,5,8,0:0:0:0:
416,32,108270,6,0,P|360:64|236:48,2,180,0|0|0,0:0|0:0|0:0,0:0:0:0:
416,32,110154,5,4,0:0:0:0:
84,236,120207,6,0,P|68:292|116:388,1,144,4|8,1:0|0:0,0:0:0:0:
208,292,120678,1,0,0:0:0:0:
208,292,120835,2,0,P|224:236|176:140,1,144,0|8,0:0|0:0,0:0:0:0:
72,60,121463,6,0,L|-8:76,2,72,4|0|8,0:0|0:0|0:0,0:0:0:0:
148,36,121934,2,0,P|196:52|296:72,1,144,0|0,0:0|0:0,0:0:0:0:
368,68,122406,1,8,0:0:0:0:
476,184,122720,6,0,P|405:197|336:218,1,144,4|8,0:0|0:0,0:0:0:0:
284,276,123191,1,0,0:0:0:0:
284,276,123270,1,0,0:0:0:0:
284,276,123348,2,0,P|280:324|276:368,1,72
204,376,123662,1,8,0:0:0:0:
44,268,123976,6,0,P|48:220|52:176,1,72,4|0,0:0|0:0,0:0:0:0:
48,116,124290,1,8,0:0:0:0:
260,16,124605,2,0,P|256:64|252:108,1,72,0|0,0:0|0:0,0:0:0:0:
280,164,124919,1,8,0:0:0:0:
280,164,125233,6,0,P|232:176|188:200,1,72,4|0,0:0|0:0,0:0:0:0:
372,196,125547,2,0,P|388:156|396:104,1,72,8|0,0:0|0:0,0:0:0:0:
296,256,125861,2,0,P|304:312|320:376,1,108,0|0,0:0|0:0,0:0:0:0:
315,362,126175,2,0,L|236:356,1,72,8|0,0:0|0:0,0:0:0:0:
72,284,126646,1,0,0:0:0:0:
72,284,126804,1,8,0:0:0:0:
196,144,127118,6,0,L|267:149,1,72,0|0,0:0|0:0,0:0:0:0:
368,140,127432,1,8,0:0:0:0:
448,200,127589,1,0,0:0:0:0:
448,200,127746,6,0,P|456:260|404:348,1,144,4|8,0:0|0:0,0:0:0:0:
336,296,128217,2,0,P|284:288|204:348,1,144,0|0,0:0|0:0,0:0:0:0:
124,368,128688,1,8,0:0:0:0:
124,368,128845,1,0,0:0:0:0:
48,316,129003,5,0,0:0:0:0:
44,224,129160,1,0,0:0:0:0:
40,132,129317,1,8,0:0:0:0:
40,132,129631,2,0,L|48:296,1,144,2|8,0:0|0:0,0:0:0:0:
48,292,130023,1,8,0:0:0:0:
48,308,130102,1,8,0:3:0:0:
184,352,130259,6,0,P|200:312|192:268,1,72,4|0,1:0|0:0,0:0:0:0:
164,192,130573,2,0,P|121:198|87:227,1,72,8|0,0:0|0:0,0:0:0:0:
208,300,130887,2,0,L|288:308,2,72,2|0|8,0:0|0:0|0:0,0:0:0:0:
120,304,131359,1,0,0:0:0:0:
64,240,131516,5,4,0:0:0:0:
100,148,131673,1,0,0:0:0:0:
188,104,131830,1,8,0:0:0:0:
284,132,131987,1,0,0:0:0:0:
340,216,132144,5,2,0:0:0:0:
304,292,132301,1,0,0:0:0:0:
252,220,132458,1,8,0:0:0:0:
340,216,132615,1,0,0:0:0:0:
304,292,132772,6,0,L|296:376,1,72,4|0,0:0|0:0,0:0:0:0:
461,331,133086,2,0,L|468:260,1,72,8|0,0:0|0:0,0:0:0:0:
384,204,133400,1,2,0:0:0:0:
404,104,133557,1,0,0:0:0:0:
428,4,133715,1,8,0:0:0:0:
428,4,134029,5,4,0:0:0:0:
368,112,134186,1,0,0:0:0:0:
256,64,134343,1,8,0:0:0:0:
256,64,134657,5,2,0:0:0:0:
196,172,134814,1,0,0:0:0:0:
84,124,134971,1,8,0:0:0:0:
84,124,135285,6,0,L|56:224,1,72,4|0,1:0|0:0,0:0:0:0:
16,256,135599,2,0,P|72:244|168:236,1,144,8|2,0:0|0:0,0:0:0:0:
260,236,136071,1,0,0:0:0:0:
232,332,136228,1,8,0:0:0:0:
332,332,136385,2,0,P|403:326|474:312,1,144,0|0,0:0|0:0,0:0:0:0:
436,116,136856,2,0,P|364:121|293:135,1,144,8|2,0:0|0:0,0:0:0:0:
260,236,137327,1,0,0:0:0:0:
164,268,137484,1,8,0:0:0:0:
92,200,137641,1,0,0:0:0:0:
120,104,137798,6,0,L|128:32,2,72,4|0|8,0:0|0:0|0:0,0:0:0:0:
76,196,138270,1,0,0:0:0:0:
76,196,138427,2,0,L|88:340,1,144,2|8,0:0|0:0,0:0:0:0:
184,312,138898,1,0,0:0:0:0:
268,368,139055,6,0,P|308:364|424:352,1,144,4|8,0:0|0:0,0:0:0:0:
348,272,139526,1,0,0:0:0:0:
460,112,139683,2,0,L|448:208,1,72,2|0,0:0|0:0,0:0:0:0:
440,268,139997,1,8,0:0:0:0:
440,268,140076,1,8,0:0:0:0:
440,268,140154,1,8,0:0:0:0:
212,168,140311,6,0,P|268:158|365:146,1,144,4|0,1:0|0:0,0:0:0:0:
136,256,140783,2,0,P|100:251|64:245,1,72,8|0,0:0|0:0,0:0:0:0:
124,64,141097,2,0,P|119:99|113:135,1,72,8|0,0:0|0:0,0:0:0:0:
172,336,141411,6,0,P|181:264|192:193,1,144,4|0,1:0|0:0,0:0:0:0:
228,100,141882,1,8,0:0:0:0:
412,184,142196,2,0,P|456:180|504:168,1,72,0|8,0:0|0:0,0:0:0:0:
483,174,142432,2,0,L|472:224,4,36,8|8|8|8|8,0:0|0:0|0:0|0:0|0:0,0:0:0:0:
464,252,142825,6,0,P|424:256|312:224,1,144,4|0,1:0|0:0,0:0:0:0:
280,68,143296,2,0,P|294:100|301:136,1,72,8|0,0:0|0:0,0:0:0:0:
208,132,143610,2,0,P|204:167|192:201,1,72,8|0,0:0|0:0,0:0:0:0:
112,144,143924,2,0,P|90:173|63:196,2,72,8|4|0,0:0|0:0|0:0,0:0:0:0:
124,284,144395,6,0,L|136:380,1,72,8|8,0:0|0:3,0:0:0:0:
132,355,144631,1,8,0:3:0:0:
132,355,144709,1,0,0:0:0:0:
308,308,144866,1,0,0:0:0:0:
212,304,145023,1,0,0:0:0:0:
376,376,145180,1,0,0:0:0:0:
368,188,145338,5,4,0:1:0:0:
172,56,145966,2,0,L|184:160,1,90,2|0,0:0|0:0,0:0:0:0:
252,228,146594,2,0,P|212:252|156:244,2,90,0|0|2,0:0|0:0|0:0,0:0:0:0:
308,136,147537,6,0,P|352:192|324:308,1,180,0|0,0:0|0:0,0:0:0:0:
240,344,148479,2,0,L|150:336,1,90,2|0,0:0|0:0,0:0:0:0:
144,228,149107,2,0,L|233:235,2,90,0|0|2,0:0|0:0|0:0,0:0:0:0:
64,80,150364,6,0,L|56:28,3,45,0|0|0|0,0:0|0:0|0:0|0:0,0:0:0:0:
140,144,150678,2,0,L|133:188,3,45,0|0|0|0,0:0|0:0|0:0|0:0,0:0:0:0:
236,96,150992,2,0,L|228:44,3,45,0|0|0|0,0:0|0:0|0:0|0:0,0:0:0:0:
312,160,151306,2,0,L|305:204,3,45,0|0|0|0,0:0|0:0|0:0|0:0,0:0:0:0:
364,284,151620,6,0,L|436:272,3,45,0|0|0|0,0:0|0:0|0:0|0:0,0:0:0:0:
240,256,151934,2,0,L|224:298,3,45,0|0|0|0,0:0|0:0|0:0|0:0,0:0:0:0:
280,376,152249,2,0,L|324:368,1,45,0|0,0:0|0:0,0:0:0:0:
364,284,152406,2,0,L|317:227,1,45,0|0,0:0|0:0,0:0:0:0:
264,156,152563,2,0,L|268:96,3,45,0|0|0|0,0:0|0:0|0:0|0:0,0:0:0:0:
372,40,152877,6,0,L|369:84,3,45,0|0|0|0,0:0|0:0|0:0|0:0,0:0:0:0:
480,160,153191,2,0,L|435:157,3,45,0|0|0|0,0:0|0:0|0:0|0:0,0:0:0:0:
428,296,153505,6,0,P|412:248|372:216,1,53.9999983520508,0|0,0:0|0:0,0:0:0:0:
320,356,153662,6,0,P|330:306|311:257,1,62.9999980773926,0|0,0:0|0:0,0:0:0:0:
188,360,153819,6,0,P|221:321|229:270,1,72,0|0,0:0|0:0,0:0:0:0:
56,300,153976,6,0,P|103:283|136:243,1,80.9999975280763,4|0,0:0|0:0,0:0:0:0:
356,112,154762,6,0,B|300:140|260:100|260:100|292:80,1,135,0|0,0:0|2:0,0:0:0:0:
344,32,155390,6,0,P|384:80|372:208,1,180,4|8,1:0|0:0,0:0:0:0:
424,276,155861,2,0,P|392:240|248:220,1,180,0|4,0:0|0:0,0:0:0:0:
184,268,156332,1,0,0:0:0:0:
332,352,156489,6,0,L|348:160,1,180,8|4,0:0|0:0,0:0:0:0:
260,92,156961,2,0,P|215:90|174:107,1,90,8|0,0:0|0:0,0:0:0:0:
96,192,157275,2,0,P|51:189|11:168,2,90,6|4|8,0:0|0:0|0:0,0:0:0:0:
184,268,157746,1,0,0:0:0:0:
276,340,157903,6,0,P|220:352|88:312,2,180,4|8|0,0:0|0:0|0:0,0:0:0:0:
361,365,158688,2,0,L|384:160,1,180,4|8,0:0|0:0,0:0:0:0:
284,108,159160,6,0,P|260:152|268:220,1,90,0|4,0:0|0:0,0:0:0:0:
392,52,159474,1,8,0:0:0:0:
244,0,159631,1,0,0:0:0:0:
244,0,159709,1,0,0:0:0:0:
244,0,159788,1,6,0:0:0:0:
284,108,159945,1,4,0:0:0:0:
136,48,160102,1,8,0:0:0:0:
284,108,160259,1,0,0:0:0:0:
100,160,160416,6,0,P|48:188|76:308,1,180,4|8,0:0|0:0,0:0:0:0:
192,384,160887,2,0,L|180:200,1,180,2|4,0:0|0:0,0:0:0:0:
252,120,161359,1,0,0:0:0:0:
348,212,161516,6,0,P|408:232|368:104,1,270,8|8,0:0|0:0,0:0:0:0:
394,97,162144,1,0,0:0:0:0:
252,164,162301,2,0,P|240:220|256:276,1,90,6|0,0:0|0:0,0:0:0:0:
136,268,162615,2,0,P|153:322|195:362,1,90,8|0,0:0|0:0,0:0:0:0:
344,216,162929,6,0,P|364:160|356:40,2,180,4|8|6,0:0|0:0|0:0,0:0:0:0:
360,324,163715,1,0,0:0:0:0:
256,300,163872,1,0,0:0:0:0:
152,276,164029,1,8,0:0:0:0:
356,100,164343,5,4,0:0:0:0:
252,76,164500,1,8,0:0:0:0:
280,180,164657,1,0,0:0:0:0:
280,180,164735,1,0,0:0:0:0:
280,180,164814,2,0,L|176:192,1,90,6|4,0:0|0:0,0:0:0:0:
84,204,165128,1,8,0:0:0:0:
84,204,165442,6,0,P|96:256|92:312,1,90,4|0,1:0|0:0,0:0:0:0:
164,352,165756,1,8,0:0:0:0:
240,304,165913,1,0,0:0:0:0:
240,304,165992,1,0,0:0:0:0:
240,304,166071,1,6,0:0:0:0:
324,336,166228,1,4,0:0:0:0:
340,248,166385,1,0,0:0:0:0:
304,64,166542,6,0,P|248:124|276:240,1,180,8|4,0:0|0:0,0:0:0:0:
508,168,167013,2,0,B|384:132|384:132|332:160,1,180,8|6,0:0|0:0,0:0:0:0:
396,228,167484,1,4,0:0:0:0:
468,344,167641,1,8,0:0:0:0:
468,344,167798,2,0,B|423:368|423:368|299:332,1,180,0|0,0:0|0:0,0:0:0:0:
184,272,168270,6,0,L|200:372,1,90,8|0,0:0|0:0,0:0:0:0:
104,168,168584,1,6,0:0:0:0:
104,168,168741,2,0,P|64:220|72:352,1,180,4|8,0:0|0:0,0:0:0:0:
316,304,169212,5,0,0:0:0:0:
184,272,169369,1,4,0:0:0:0:
280,176,169526,1,8,0:0:0:0:
64,12,169840,1,6,0:0:0:0:
32,132,169997,1,4,0:0:0:0:
120,220,170154,1,8,0:0:0:0:
152,100,170311,1,0,0:0:0:0:
272,68,170468,6,0,P|332:56|408:164,1,180,4|8,0:0|0:0,0:0:0:0:
504,216,170940,1,0,0:0:0:0:
504,216,171097,2,0,B|436:224|436:224|408:252|408:252|320:264,1,180,6|0,0:0|0:0,0:0:0:0:
200,216,171568,2,0,B|268:208|268:208|296:180|296:180|384:168,1,180,8|6,0:0|0:0,0:0:0:0:
224,124,172039,2,0,P|156:116|104:12,1,180,8|4,0:0|0:0,0:0:0:0:
208,20,172510,1,4,0:0:0:0:
312,48,172667,1,8,0:0:0:0:
372,140,172824,1,0,0:0:0:0:
312,268,172982,6,0,P|276:304|152:284,1,180,4|8,1:0|0:0,0:0:0:0:
60,220,173453,2,0,B|168:184|168:184|240:228,1,180,0|4,0:0|0:0,0:0:0:0:
224,218,173924,1,0,0:0:0:0:
333,89,174081,6,0,L|312:268,1,180,4|6,1:0|0:0,0:0:0:0:
168,368,174552,2,0,P|152:320|160:272,1,90,8|0,0:0|0:0,0:0:0:0:
200,136,174866,1,0,0:0:0:0:
176,112,174945,1,0,0:0:0:0:
144,100,175023,1,8,0:0:0:0:
108,100,175102,1,8,0:0:0:0:
76,116,175181,2,0,L|64:172,1,45,8|8,0:0|0:0,0:0:0:0:
0,224,175338,2,0,L|24:272,1,45,4|4,0:0|0:0,0:0:0:0:
72,352,175495,6,0,L|180:336,1,90,4|0,1:0|0:0,0:0:0:0:
312,272,175809,2,0,L|204:256,1,90,8|0,0:0|0:0,0:0:0:0:
48,148,176123,1,6,0:0:0:0:
176,112,176280,1,4,0:0:0:0:
144,244,176437,1,0,0:0:0:0:
48,148,176594,6,0,B|36:96|36:96|60:28|152:32,1,180,10|0,0:0|0:0,0:0:0:0:
292,96,177065,2,0,P|256:144|132:116,1,180,8|6,0:0|0:0,0:0:0:0:
204,64,177537,1,4,0:0:0:0:
232,168,177694,1,8,0:0:0:0:
200,272,177851,1,0,0:0:0:0:
260,360,178008,6,0,L|368:344,1,90,4|2,0:0|0:0,0:0:0:0:
388,188,178322,2,0,P|412:240|392:308,1,90,8|0,0:0|0:0,0:0:0:0:
288,180,178636,1,6,0:0:0:0:
288,180,178793,2,0,P|312:120|452:116,1,180,4|8,0:0|0:0,0:0:0:0:
410,271,179264,6,0,L|230:252,1,180,0|8,0:0|0:0,0:0:0:0:
68,180,179735,1,0,0:0:0:0:
68,180,179814,1,0,0:0:0:0:
68,180,179893,1,4,0:0:0:0:
140,272,180050,1,6,0:0:0:0:
24,288,180207,1,8,0:0:0:0:
140,272,180364,1,0,0:0:0:0:
68,180,180521,6,0,P|52:124|140:44,1,180,4|8,0:0|0:0,0:0:0:0:
248,12,180992,1,0,0:0:0:0:
248,12,181149,2,0,P|220:64|212:196,1,180,4|0,0:0|0:0,0:0:0:0:
156,288,181620,2,0,P|215:286|333:227,1,180,8|4,0:0|0:0,0:0:0:0:
360,64,182092,2,0,P|330:105|275:135,1,90,8|0,0:0|0:0,0:0:0:0:
124,136,182406,2,0,P|167:123|203:97,1,90,6|4,0:0|0:0,0:0:0:0:
256,16,182720,1,8,0:0:0:0:
256,16,182877,1,0,0:0:0:0:
160,224,183034,6,0,P|140:164|128:28,2,180,4|8|0,0:0|0:0|0:0,0:0:0:0:
264,196,183819,1,6,0:0:0:0:
288,300,183976,1,0,0:0:0:0:
184,324,184133,6,0,B|136:364|80:352|80:352|76:312|32:284,1,180,8|4,0:0|0:0,0:0:0:0:
128,256,184605,2,0,B|88:208|36:208|36:208|88:176|88:120,1,180,8|8,0:0|0:0,0:0:0:0:
104,28,185076,6,0,L|168:48,1,45,8|8,0:0|0:0,0:0:0:0:
264,56,185233,2,0,L|214:101,1,45,4|4,0:0|0:0,0:0:0:0:
164,176,185390,2,0,L|149:110,1,45,4|4,0:0|0:0,0:0:0:0:
212,0,185547,5,4,1:0:0:0:
480,152,185861,1,8,0:0:0:0:
420,252,186018,1,0,0:0:0:0:
304,252,186175,1,0,0:0:0:0:
364,152,186332,1,6,0:0:0:0:
420,252,186489,1,0,0:0:0:0:
360,352,186646,6,0,P|296:368|172:308,1,180,8|4,0:0|0:0,0:0:0:0:
104,276,187118,2,0,P|168:292|292:232,1,180,8|6,0:0|0:0,0:0:0:0:
316,176,187589,1,4,0:0:0:0:
328,88,187746,1,8,0:0:0:0:
292,180,187903,1,0,0:0:0:0:
204,228,188060,5,4,0:0:0:0:
108,200,188217,1,2,0:0:0:0:
136,104,188374,1,8,0:0:0:0:
232,132,188531,1,0,0:0:0:0:
232,132,188688,2,0,P|284:136|336:108,1,90,6|4,0:0|0:0,0:0:0:0:
388,48,189003,1,0,0:0:0:0:
488,176,189160,6,0,P|496:232|416:336,1,180,8|4,0:0|0:0,0:0:0:0:
340,352,189631,2,0,P|296:360|232:324,1,90,8|0,0:0|0:0,0:0:0:0:
160,336,189945,2,0,P|175:293|238:256,1,90,2|4,0:0|0:0,0:0:0:0:
268,188,190259,2,0,P|296:222|297:295,1,90,8|0,0:0|0:0,0:0:0:0:
248,368,190573,6,0,L|152:360,1,90,4|2,0:0|0:0,0:0:0:0:
92,288,190887,1,8,0:0:0:0:
68,384,191044,1,0,0:0:0:0:
116,192,191201,5,6,0:0:0:0:
92,288,191358,1,4,0:0:0:0:
40,144,191516,1,0,0:0:0:0:
184,92,191673,1,10,0:0:0:0:
184,92,191987,5,4,0:0:0:0:
236,236,192144,1,8,0:0:0:0:
152,188,192301,1,0,0:0:0:0:
236,136,192458,1,6,0:0:0:0:
324,184,192615,1,4,0:0:0:0:
400,120,192772,1,8,0:0:0:0:
360,28,192929,1,0,0:0:0:0:
260,40,193086,1,8,0:0:0:0:
260,40,193715,6,0,P|280:126|253:210,2,180,0|0|0,0:0|0:0|0:0,0:0:0:0:
260,40,195599,1,4,0:0:0:0:
80,212,205652,6,0,P|140:228|236:140,1,180,4|4,1:0|0:0,0:0:0:0:
136,132,206123,1,4,0:0:0:0:
64,200,206280,2,0,L|80:396,1,180,8|0,0:0|0:0,0:0:0:0:
229,163,206908,5,0,0:0:0:0:
299,230,207065,2,0,L|292:320,1,90,8|0,0:0|0:0,0:0:0:0:
229,163,207379,1,4,0:0:0:0:
229,163,207537,2,0,P|272:116|400:152,1,180,8|0,0:0|0:0,0:0:0:0:
492,352,208165,6,0,L|296:340,1,180,4|4,0:0|0:0,0:0:0:0:
200,280,208636,1,4,0:0:0:0:
320,356,208793,2,0,P|360:312|336:188,1,180,8|0,0:0|0:0,0:0:0:0:
268,36,209264,6,0,P|228:80|252:204,1,180,8|8,0:0|0:0,0:0:0:0:
332,240,209735,2,0,L|440:224,1,90,0|4,0:0|0:0,0:0:0:0:
484,148,210050,1,8,0:0:0:0:
364,68,210207,1,0,0:0:0:0:
244,148,210364,1,0,0:0:0:0:
244,148,210678,6,0,L|256:256,1,90,4|0,0:0|0:0,0:0:0:0:
124,72,210992,2,0,L|112:180,1,90,4|4,0:0|0:0,0:0:0:0:
36,208,211306,1,8,0:0:0:0:
52,360,211463,1,0,0:0:0:0:
204,344,211620,2,0,B|292:304|288:376|408:320,1,180,0|0,0:0|0:0,0:0:0:0:
472,284,212092,5,8,0:0:0:0:
472,284,212249,2,0,P|488:192|400:148,1,180,0|8,0:0|0:0,0:0:0:0:
336,168,212720,1,0,0:0:0:0:
256,208,212877,1,0,0:0:0:0:
176,168,213034,1,4,0:0:0:0:
86,147,213191,6,0,P|20:200|40:284,2,180,4|4|8,0:0|0:0|0:0,0:0:0:0:
176,168,213976,2,0,L|192:288,1,90,0|0,0:0|0:0,0:0:0:0:
252,116,214290,2,0,L|240:26,1,90,4|0,0:0|0:0,0:0:0:0:
176,168,214605,1,8,0:0:0:0:
344,208,214762,1,0,0:0:0:0:
208,296,214919,2,0,L|100:284,2,90,0|8|0,0:0|0:0|0:0,0:0:0:0:
296,308,215390,1,0,0:0:0:0:
296,308,215704,6,0,P|344:302|389:254,1,90,4|0,1:0|0:0,0:0:0:0:
464,268,216018,2,0,P|483:223|464:160,1,90,4|4,0:0|0:0,0:0:0:0:
440,104,216332,1,8,0:0:0:0:
308,52,216489,1,0,0:0:0:0:
196,144,216646,6,0,B|132:132|132:132|88:148|88:148|4:132,1,180,0|0,0:0|0:0,0:0:0:0:
92,24,217118,2,0,L|112:128,1,90,8|0,0:0|0:0,0:0:0:0:
32,228,217432,2,0,L|52:332,2,90,4|8|0,0:0|0:0|0:0,0:0:0:0:
168,248,217903,2,0,L|288:264,1,90,0|4,0:0|0:0,0:0:0:0:
424,220,218217,5,4,0:0:0:0:
316,112,218374,1,0,0:0:0:0:
284,264,218531,2,0,P|272:320|144:328,1,180,4|8,0:0|0:0,0:0:0:0:
64,208,219003,1,0,0:0:0:0:
192,184,219160,2,0,L|208:296,1,90,0|4,0:0|0:0,0:0:0:0:
296,216,219474,5,0,0:0:0:0:
92,136,219631,2,0,L|79:46,1,90,8|0,0:0|0:0,0:0:0:0:
272,96,219945,1,4,0:0:0:0:
316,248,220102,2,0,L|303:337,1,90,8|4,0:0|0:0,0:0:0:0:
112,164,220416,2,0,L|124:74,1,90,8|0,0:0|0:0,0:0:0:0:
388,36,220730,5,4,1:0:0:0:
460,112,220887,2,0,B|420:144|420:144|268:124,1,180,0|8,0:0|0:0,0:0:0:0:
124,142,221359,2,0,B|164:110|164:110|316:130,1,180,0|8,0:0|0:0,0:0:0:0:
312,232,221830,2,0,L|328:344,1,90,0|0,0:0|0:0,0:0:0:0:
188,204,222144,2,0,L|172:316,1,90,8|0,0:0|0:0,0:0:0:0:
96,112,222458,1,0,0:0:0:0:
96,112,222615,2,0,L|42:211,1,90,8|0,0:0|0:0,0:0:0:0:
156,8,222929,2,0,L|66:5,1,90,8|0,0:0|0:0,0:0:0:0:
68,208,223243,6,0,P|113:211|157:205,1,90,8|0,0:0|0:0,0:0:0:0:
224,120,223557,1,0,0:0:0:0:
200,292,223715,2,0,P|240:272|275:244,1,90,8|0,0:0|0:0,0:0:0:0:
336,112,224029,1,0,0:0:0:0:
372,304,224186,2,0,P|397:266|413:225,1,90,8|0,0:0|0:0,0:0:0:0:
424,28,224500,5,8,1:2:0:0:
160,152,225128,2,0,B|152:224|112:288|112:288|156:252|224:248,1,251.999992309571,0|0,0:0|0:0,0:0:0:0:
328,232,226385,6,0,L|432:240,1,90,2|0,0:0|0:0,0:0:0:0:
464,316,227013,1,2,0:0:0:0:
388,368,227327,2,0,P|352:340|380:224,1,180,2|0,0:0|0:0,0:0:0:0:
440,160,228270,6,0,L|452:60,2,90,2|0|2,0:0|0:0|0:0,0:0:0:0:
440,160,229526,2,0,L|252:176,1,180,0|2,0:0|0:0,0:0:0:0:
200,344,230783,6,0,L|20:328,2,180,2|2|2,0:0|0:0|0:0,0:0:0:0:
276,300,232353,2,0,P|304:248|252:136,1,180
180,104,233296,1,0,0:0:0:0:
104,152,233610,1,0,0:0:0:0:
16,132,233924,2,0,P|48:80|116:64,1,135,2|2,0:0|0:0,0:0:0:0:
156,84,234552,6,0,L|256:80,1,90,0|0,0:0|0:0,0:0:0:0:
336,76,235181,1,2,0:0:0:0:
456,208,235809,6,0,P|468:272|408:376,1,180,2|2,0:0|0:0,0:0:0:0:
332,344,236751,1,0,0:0:0:0:
332,344,236908,1,0,0:0:0:0:
332,344,237065,2,0,L|224:356,1,90,2|0,0:0|0:0,0:0:0:0:
152,368,237694,2,0,L|168:276,1,90,2|0,0:0|0:0,0:0:0:0:
232,216,238322,5,2,0:0:0:0:
184,140,238636,1,0,0:0:0:0:
104,180,238950,2,0,P|56:152|72:40,1,180,2|2,0:0|0:0,0:0:0:0:
252,16,240207,1,0,0:0:0:0:
356,40,240521,1,0,0:0:0:0:
460,64,240835,6,0,B|448:124|448:124|452:176|452:176|436:244,1,180,2|0,0:0|0:0,0:0:0:0:
372,328,241777,1,2,0:0:0:0:
276,280,242092,2,0,P|232:276|176:304,1,90,2|0,0:0|0:0,0:0:0:0:
38,220,242720,2,0,P|82:224|124:208,1,90,2|0,0:0|0:0,0:0:0:0:
328,112,243348,5,4,1:0:0:0:
100,48,243662,1,4,1:0:0:0:
152,264,243976,1,8,1:2:0:0:
192,184,244133,1,4,0:0:0:0:
272,144,244290,1,4,0:0:0:0:
360,164,244448,2,0,P|408:188|400:56,1,270,4|0,1:0|3:0,0:0:0:0:
408,55,245233,6,0,L|416:128,1,45,0|0,1:0|1:0,0:0:0:0:
376,128,245390,2,0,L|384:201,1,45,0|0,1:0|1:0,0:0:0:0:
352,208,245547,2,0,L|360:281,1,45,0|0,1:0|1:0,0:0:0:0:
320,281,245704,2,0,L|328:354,1,45,0|0,1:0|1:0,0:0:0:0:
284,364,245861,6,0,P|244:320|96:340,1,215.999993408203,4|8,1:0|0:0,0:0:0:0:
4,248,246332,2,0,B|40:160|136:180|136:180|184:252,1,215.999993408203,0|4,0:0|0:0,0:0:0:0:
264,300,246804,1,0,0:0:0:0:
316,184,246961,6,0,B|332:32|332:32|276:104,1,215.999993408203,8|4,0:0|0:0,0:0:0:0:
316,184,247432,2,0,L|440:172,1,107.999996704102,8|0,0:0|0:0,0:0:0:0:
488,276,247746,2,0,L|380:286,1,107.999996704102,6|4,0:0|0:0,0:0:0:0:
256,372,248060,2,0,P|248:320|292:248,1,107.999996704102,8|0,0:0|0:0,0:0:0:0:
60,240,248374,6,0,P|109:219|162:227,1,107.999996704102,4|0,0:0|0:0,0:0:0:0:
208,148,248688,2,0,L|200:40,1,107.999996704102,8|0,0:0|0:0,0:0:0:0:
48,96,249003,1,6,0:0:0:0:
208,148,249160,2,0,B|84:124|132:208|-12:180,1,215.999993408203,4|8,0:0|0:0,0:0:0:0:
164,232,249631,5,0,0:0:0:0:
168,236,249788,1,4,0:0:0:0:
48,96,249945,1,8,0:0:0:0:
172,240,250102,1,0,0:0:0:0:
176,244,250181,1,0,0:0:0:0:
180,248,250259,2,0,L|160:376,1,107.999996704102,6|0,0:0|0:0,0:0:0:0:
296,212,250573,2,0,L|276:340,1,107.999996704102,8|2,0:0|0:0,0:0:0:0:
428,196,250887,6,0,L|408:324,1,107.999996704102,4|0,0:0|0:0,0:0:0:0:
460,88,251201,2,0,P|408:84|344:128,1,107.999996704102,8|0,0:0|0:0,0:0:0:0:
288,196,251516,1,4,0:0:0:0:
288,196,251673,2,0,P|244:148|272:-4,1,215.999993408203,6|8,0:0|0:0,0:0:0:0:
176,232,252144,6,0,L|64:212,2,107.999996704102,0|6|8,0:0|0:0|0:0,0:0:0:0:
452,364,252772,1,6,0:0:0:0:
468,256,252929,1,4,0:0:0:0:
376,196,253086,1,8,0:0:0:0:
392,88,253243,1,0,0:0:0:0:
492,48,253400,6,0,P|504:116|464:264,1,215.999993408203,4|8,0:0|0:0,0:0:0:0:
376,196,253872,2,0,P|340:156|164:180,1,215.999993408203,0|6,0:0|0:0,0:0:0:0:
80,148,254343,1,0,0:0:0:0:
56,256,254500,6,0,B|140:244|140:244|180:260|180:260|292:244,1,215.999993408203,8|4,0:0|0:0,0:0:0:0:
372,228,254971,2,0,L|352:368,1,107.999996704102,8|2,0:0|0:0,0:0:0:0:
251,140,255285,2,0,L|266:246,1,107.999996704102,4|2,0:0|0:0,0:0:0:0:
220,360,255599,2,0,P|180:328|56:288,1,161.999995056153,8|0,0:0|0:0,0:0:0:0:
44,292,255914,5,4,1:0:0:0:
20,188,256071,1,0,0:0:0:0:
116,136,256228,1,8,0:0:0:0:
188,216,256385,5,0,0:0:0:0:
188,216,256463,1,0,0:0:0:0:
188,216,256542,1,6,0:0:0:0:
356,248,256699,1,4,0:0:0:0:
388,80,256856,1,0,0:0:0:0:
220,48,257013,6,0,B|152:92|152:92|132:160|204:232,1,215.999993408203,8|4,0:0|0:0,0:0:0:0:
304,372,257484,2,0,L|328:144,1,215.999993408203,8|6,0:0|0:0,0:0:0:0:
276,64,257955,1,4,0:0:0:0:
168,44,258112,1,8,0:0:0:0:
92,124,258270,1,0,0:0:0:0:
120,228,258427,6,0,P|132:284|136:356,1,107.999996704102,6|0,0:0|0:0,0:0:0:0:
236,372,258741,2,0,P|248:316|252:244,1,107.999996704102,8|0,0:0|0:0,0:0:0:0:
324,184,259055,1,6,0:0:0:0:
324,184,259212,2,0,P|376:168|436:312,1,215.999993408203,4|8,0:0|0:0,0:0:0:0:
376,252,259683,5,0,0:0:0:0:
432,112,259840,1,4,0:0:0:0:
288,60,259997,1,8,0:0:0:0:
288,60,260154,1,0,0:0:0:0:
216,128,260311,5,4,0:0:0:0:
272,268,260468,1,4,0:0:0:0:
128,320,260625,1,8,0:0:0:0:
128,320,260782,1,0,0:0:0:0:
32,304,260940,6,0,P|56:260|212:268,1,215.999993408203,6|8,0:0|0:0,0:0:0:0:
260,344,261411,2,0,L|400:360,1,107.999996704102,2|4,0:0|0:0,0:0:0:0:
464,280,261725,2,0,L|356:267,1,107.999996704102,4|0,0:0|0:0,0:0:0:0:
236,192,262039,6,0,B|388:172|388:172|316:116,1,215.999993408203,8|0,0:0|0:0,0:0:0:0:
338,133,262510,2,0,L|324:276,1,107.999996704102,8|0,0:0|0:0,0:0:0:0:
500,264,262825,2,0,L|510:156,1,107.999996704102,6|4,0:0|0:0,0:0:0:0:
436,56,263139,1,8,0:0:0:0:
48,224,263453,6,0,P|92:260|252:236,1,215.999993408203,4|8,0:0|0:0,0:0:0:0:
270,138,263924,2,0,P|371:109|463:159,1,215.999993408203,0|4,0:0|0:0,0:0:0:0:
492,296,264395,1,0,0:0:0:0:
372,368,264552,6,0,B|320:328|320:328|264:376|136:368,1,215.999993408203,4|0,1:0|0:0,0:0:0:0:
64,312,265023,2,0,P|40:268|64:180,1,107.999996704102,8|0,0:0|0:0,0:0:0:0:
107,97,265338,1,8,0:0:0:0:
138,77,265416,1,8,0:0:0:0:
176,73,265495,1,8,0:0:0:0:
211,86,265573,1,8,0:0:0:0:
237,114,265652,1,4,0:0:0:0:
248,149,265730,1,4,0:0:0:0:
242,186,265809,1,4,0:0:0:0:
221,217,265887,1,4,0:0:0:0:
188,235,265966,5,4,1:0:0:0:
188,235,266280,2,0,L|64:228,1,107.999996704102,8|0,0:0|0:0,0:0:0:0:
208,356,266594,1,4,0:0:0:0:
312,332,266751,1,6,0:0:0:0:
416,308,266908,1,0,0:0:0:0:
504,372,267065,6,0,L|480:128,1,215.999993408203,8|6,0:0|0:0,0:0:0:0:
372,44,267537,2,0,L|350:258,1,215.999993408203,8|4,0:0|0:0,0:0:0:0:
280,340,268008,1,6,0:0:0:0:
172,352,268165,2,0,P|128:328|48:340,1,107.999996704102,8|0,0:0|0:0,0:0:0:0:
24,232,268479,6,0,P|96:248|200:140,2,215.999993408203,4|8|4,0:0|0:0|0:0,0:0:0:0:
84,144,269264,1,6,0:0:0:0:
48,44,269421,1,0,0:0:0:0:
78,174,269578,6,0,B|169:117|169:117|300:143,1,215.999993408203,4|2,1:0|0:0,0:0:0:0:
348,60,270050,1,8,0:0:0:0:
380,164,270207,1,0,0:0:0:0:
476,116,270364,1,4,0:0:0:0:
456,220,270521,1,6,0:0:0:0:
360,272,270678,1,8,0:0:0:0:
448,332,270835,1,0,0:0:0:0:
296,356,270992,5,4,0:0:0:0:
296,356,271306,1,8,0:0:0:0:
296,356,271620,1,4,0:0:0:0:
192,332,271777,1,6,0:0:0:0:
88,356,271934,1,0,0:0:0:0:
0,236,272092,6,0,P|16:188|192:176,1,215.999993408203,4|6,1:0|0:0,0:0:0:0:
264,188,272563,1,8,0:0:0:0:
368,164,272720,1,0,0:0:0:0:
412,352,272877,1,4,0:0:0:0:
308,376,273034,1,6,0:0:0:0:
340,272,273191,2,0,L|456:244,1,107.999996704102,8|0,0:0|0:0,0:0:0:0:
488,152,273505,6,0,B|436:136|380:160|380:160|316:172|244:132,2,215.999993408203,4|8|4,0:0|0:0|0:0,0:0:0:0:
200,228,274290,1,6,0:0:0:0:
220,336,274448,1,0,0:0:0:0:
24,292,274605,1,4,1:0:0:0:
24,292,274919,5,4,0:0:0:0:
114,358,275076,2,0,L|220:336,1,107.999996704102,8|0,0:0|0:0,0:0:0:0:
324,368,275390,1,4,0:0:0:0:
328,332,275468,1,0,0:0:0:0:
332,296,275547,1,8,0:0:0:0:
336,260,275626,1,8,0:0:0:0:
340,224,275704,2,0,L|344:152,3,53.9999983520508,8|8|4|4,0:0|0:0|0:0|0:0,0:0:0:0:
344,132,276018,5,4,1:0:0:0:
344,132,276332,1,8,0:0:0:0:
344,132,276646,2,0,P|344:84|380:24,2,107.999996704102,4|0|0,0:0|0:0|0:0,0:0:0:0:
460,192,277118,6,0,P|424:232|264:236,1,215.999993408203,4|6,1:0|0:0,0:0:0:0:
212,164,277589,1,8,0:0:0:0:
224,56,277746,1,0,0:0:0:0:
56,204,277903,1,4,0:0:0:0:
68,96,278060,1,6,0:0:0:0:
200,272,278217,1,8,0:0:0:0:
212,164,278374,1,0,0:0:0:0:
56,204,278531,6,0,L|80:356,1,107.999996704102,4|2,1:0|0:0,0:0:0:0:
216,378,278845,2,0,L|200:272,1,107.999996704102,8|0,0:0|0:0,0:0:0:0:
61,238,279160,6,0,L|111:384,1,107.999996704102,6|4,0:0|0:0,0:0:0:0:
249,382,279474,1,8,0:0:0:0:
214,280,279631,2,0,L|240:52,1,215.999993408203,4|4,1:0|0:0,0:0:0:0:
452,56,280102,5,8,0:0:0:0:
348,92,280259,1,2,0:0:0:0:
400,188,280416,1,4,0:0:0:0:
504,224,280573,1,4,0:0:0:0:
352,288,280730,1,8,0:0:0:0:
352,288,281044,6,0,L|216:268,1,107.999996704102,4|2,1:0|0:0,0:0:0:0:
144,232,281359,1,8,0:0:0:0:
160,340,281516,1,0,0:0:0:0:
244,272,281673,1,6,0:0:0:0:
144,232,281830,1,4,0:0:0:0:
56,296,281987,1,0,0:0:0:0:
44,188,282144,1,4,1:0:0:0:
44,188,282458,5,2,0:0:0:0:
144,232,282615,1,8,0:0:0:0:
128,124,282772,1,0,0:0:0:0:
228,168,282929,1,4,0:0:0:0:
328,212,283086,1,6,0:0:0:0:
412,148,283243,1,8,0:0:0:0:
312,104,283400,1,0,0:0:0:0:
340,320,283557,5,8,0:0:0:0:
340,320,284186,6,0,P|368:264|360:184,1,135,0|0,0:0|0:0,0:0:0:0:
320,119,284814,6,0,P|297:222|340:320,1,216,0|0,0:0|0:0,0:0:0:0:
339,319,285442,6,0,L|112:304,1,215.999993408203,0|4,0:0|1:0,1:0:0:0:
