osu file format v14

[General]
AudioFilename: audio.mp3
AudioLeadIn: 0
PreviewTime: 49443
Countdown: 0
SampleSet: Soft
StackLeniency: 0.7
Mode: 0
LetterboxInBreaks: 0
EpilepsyWarning: 1
WidescreenStoryboard: 1

[Editor]
DistanceSpacing: 1.1
BeatDivisor: 4
GridSize: 4
TimelineZoom: 1

[Metadata]
Title:Heikousen
TitleUnicode:平行線
Artist:Sayuri
ArtistUnicode:さユり
Creator:Lilyanna
Version:Normal
Source:クズの本懐
Tags:Kuzu no honkai Parellel Line Scum's Wish scums tv size ending HB24
BeatmapID:1201410
BeatmapSetID:567148

[Difficulty]
HPDrainRate:4
CircleSize:3.5
OverallDifficulty:4
ApproachRate:5
SliderMultiplier:1.1
SliderTickRate:1

[Events]
//Background and Video events
0,0,"BG (2).jpg",0,0
//Break Periods
//Storyboard Layer 0 (Background)
//Storyboard Layer 1 (Fail)
//Storyboard Layer 2 (Pass)
//Storyboard Layer 3 (Foreground)
//Storyboard Sound Samples

[TimingPoints]
516,810.810810810811,4,2,2,30,1,0
516,-50,4,2,2,30,0,0
29339,314.13612565445,4,2,1,45,1,0
44417,-100,4,2,1,55,0,0
49443,-100,4,2,1,65,0,1
68920,-100,4,2,1,65,0,0
69548,-100,4,2,1,65,0,1
87140,-100,4,2,1,65,0,0

[Colours]
Combo1 : 255,81,81
Combo2 : 255,157,206
Combo3 : 124,124,190
Combo4 : 187,255,187

[HitObjects]
202,72,516,6,0,P|268:65|318:76,1,110,2|0,2:0|0:0,0:0:0:0:
309,194,1326,2,0,P|254:202|200:195,1,110,2|0,0:0|0:0,0:0:0:0:
109,116,2137,2,0,P|81:177|152:305,1,220,2|2,0:0|0:0,0:0:0:0:
202,193,3353,1,0,0:0:0:0:
298,265,3759,6,0,P|364:272|414:261,1,110,2|0,0:0|0:0,0:0:0:0:
405,143,4569,2,0,P|350:134|296:141,1,110,2|0,0:0|0:0,0:0:0:0:
206,222,5380,2,0,P|177:178|177:120,2,110,2|2|2,0:0|0:0|0:0,0:0:0:0:
428,126,7002,6,0,L|301:138,1,110,2|0,0:0|0:0,0:0:0:0:
280,251,7813,2,0,L|389:240,1,110,2|0,0:0|0:0,0:0:0:0:
329,345,8624,2,0,L|219:355,1,110,2|0,0:0|0:0,0:0:0:0:
96,355,9434,1,2,0:0:0:0:
26,255,9840,6,0,P|22:198|167:143,1,220,2|0,0:0|0:0,0:0:0:0:
267,157,11056,2,0,P|329:164|394:153,1,110,2|0,0:0|0:0,0:0:0:0:
477,224,11867,2,0,L|473:353,1,110,2|0,0:0|0:0,0:0:0:0:
353,350,12678,2,0,L|356:240,1,110,2|0,0:0|0:0,0:0:0:0:
313,205,13286,1,0,0:0:0:0:
313,205,13488,6,0,P|247:212|197:201,1,110,2|0,0:0|0:0,0:0:0:0:
140,101,14299,2,0,P|194:92|248:99,1,110,2|0,0:0|0:0,0:0:0:0:
364,64,15110,2,0,P|364:125|342:170,2,110,2|0|2,0:0|0:0|0:0,0:0:0:0:
248,100,16326,1,0,0:0:0:0:
180,203,16732,5,2,0:0:0:0:
116,101,17137,2,0,L|-1:85,2,110,0|0|2,0:0|0:0|0:0,0:0:0:0:
94,220,18353,2,0,L|202:234,1,110,2|0,0:0|0:0,0:0:0:0:
156,346,19164,2,0,L|264:360,1,110,2|0,0:0|0:0,0:0:0:0:
371,296,19975,6,0,B|426:217|392:95|392:95|366:164|316:195,1,330,2|0,0:0|0:0,0:0:0:0:
321,191,22407,2,0,P|266:182|212:189,1,110,2|0,0:0|0:0,0:0:0:0:
152,294,23218,6,0,P|206:302|260:295,1,110,2|0,0:0|0:0,0:0:0:0:
382,277,24029,1,2,0:0:0:0:
450,44,24840,1,2,0:0:0:0:
256,192,25651,12,0,28083,0:0:0:0:
385,73,29339,6,0,P|401:130|381:194,1,110,6|0,0:0|0:0,0:0:0:0:
292,250,29967,2,0,P|276:197|287:144,1,110
216,45,30595,2,0,L|139:35,2,55,2|0|0,0:0|0:0|0:0,0:0:0:0:
274,28,31066,1,0,0:0:0:0:
390,62,31380,2,0,P|395:123|445:157,1,110
471,198,31852,6,0,B|483:263|483:263|464:311,1,110,2|0,0:0|0:0,0:0:0:0:
345,304,32480,2,0,B|333:239|333:239|352:191,1,110,0|0,0:0|0:0,0:0:0:0:
297,88,33108,2,0,L|177:95,1,110,2|0,0:0|0:0,0:0:0:0:
97,176,33736,2,0,L|206:169,1,110,0|8,0:0|0:0,0:0:0:0:
327,162,34365,6,0,L|338:233,1,55,2|0,0:0|0:0,0:0:0:0:
281,244,34679,2,0,L|292:315,1,55,8|0,0:0|0:0,0:0:0:0:
251,345,34993,2,0,P|191:335|137:347,1,110,0|0,0:0|0:0,0:0:0:0:
87,358,35464,1,8,0:0:0:0:
87,358,35621,2,0,P|97:298|85:244,1,110,2|8,0:0|0:0,0:0:0:0:
26,144,36249,2,0,P|91:128|134:137,1,110,0|8,0:0|0:0,0:0:0:0:
189,172,36721,1,0,0:0:0:0:
189,172,36878,6,0,P|242:180|295:164,1,110,2|8,0:0|0:0,0:0:0:0:
407,119,37506,2,0,L|425:235,1,110,0|0,0:0|0:0,0:0:0:0:
437,291,37977,1,8,0:0:0:0:
437,291,38134,2,0,P|383:282|330:298,1,110,2|0,0:0|0:0,0:0:0:0:
217,339,38763,2,0,P|163:348|110:332,1,110,8|2,0:0|0:0,0:0:0:0:
37,236,39391,6,0,P|36:165|172:248,1,330,4|0,0:0|0:0,0:0:0:0:
294,272,40647,2,0,L|419:283,1,110,2|0,0:0|0:0,0:0:0:0:
309,361,41276,2,0,L|199:351,1,110,0|0,0:0|0:0,0:0:0:0:
106,274,41904,6,0,P|35:275|118:139,1,330,2|0,0:0|0:0,0:0:0:0:
228,169,43160,2,0,P|299:170|216:34,1,330,2|0,0:0|0:0,0:0:0:0:
126,102,44417,6,0,P|106:151|120:217,1,110,6|8,3:2|3:2,0:0:0:0:
216,273,45045,2,0,P|236:224|222:158,1,110,8|8,3:2|3:2,0:0:0:0:
274,57,45674,2,0,P|323:37|389:51,1,110,2|8,3:2|3:2,0:0:0:0:
445,146,46302,2,0,P|396:166|330:152,1,110,8|8,3:2|3:2,0:0:0:0:
256,192,46930,12,8,48030,0:0:0:0:
204,76,49443,6,0,B|259:64|259:64|325:73,1,110,6|8,3:2|3:2,0:0:0:0:
290,190,50071,2,0,B|235:202|235:202|169:193,1,110,0|0,3:0|0:0,0:0:0:0:
132,166,50543,1,8,0:0:0:0:
132,166,50700,2,0,L|116:287,1,110,2|8,3:2|3:2,0:0:0:0:
238,288,51328,2,0,L|231:360,2,55,0|0|8,3:0|3:0|3:2,0:0:0:0:
330,210,51956,6,0,B|410:217|410:217|437:202,1,110,2|8,3:2|3:2,0:0:0:0:
387,91,52585,2,0,B|307:84|307:84|280:99,1,110,0|0,3:0|0:0,0:0:0:0:
240,143,53056,1,8,0:0:0:0:
240,143,53213,2,0,P|194:155|126:137,1,110,2|8,3:2|3:2,0:0:0:0:
67,40,53841,2,0,P|112:35|140:42,2,55,0|0|8,3:0|3:0|3:2,0:0:0:0:
49,159,54469,6,0,B|42:239|42:239|57:266,1,110,2|8,3:2|3:2,0:0:0:0:
170,306,55098,2,0,B|177:226|177:226|162:199,1,110,0|0,3:0|0:0,0:0:0:0:
139,148,55569,1,8,0:0:0:0:
139,148,55726,2,0,P|187:137|258:153,1,110,2|8,3:2|3:2,0:0:0:0:
329,236,56354,2,0,P|333:283|321:309,2,55,0|0|8,3:0|3:0|3:2,0:0:0:0:
357,116,56982,6,0,P|327:93|312:17,1,110,2|8,3:2|3:2,0:0:0:0:
188,27,57611,2,0,P|180:80|140:117,1,110,0|0,3:0|0:0,0:0:0:0:
91,151,58082,1,8,0:0:0:0:
91,151,58239,2,0,L|94:266,1,110,2|8,3:2|3:2,0:0:0:0:
212,288,58867,2,0,L|211:225,2,55,0|0|8,3:0|3:0|3:2,0:0:0:0:
325,333,59496,6,0,L|449:344,1,110,6|8,3:2|3:2,0:0:0:0:
480,231,60124,2,0,L|370:221,1,110,0|0,3:0|0:0,0:0:0:0:
310,214,60595,1,8,0:0:0:0:
310,214,60752,2,0,L|312:146,1,55,2|0,3:2|0:0,0:0:0:0:
255,137,61066,2,0,L|257:69,1,55,8|0,3:2|0:0,0:0:0:0:
209,44,61380,2,0,L|141:42,2,55,0|0|8,3:0|3:0|3:2,0:0:0:0:
146,148,62009,6,0,P|128:188|142:275,1,110,2|8,3:2|3:2,0:0:0:0:
209,345,62637,2,0,P|227:305|213:218,1,110,0|0,3:0|0:0,0:0:0:0:
237,183,63108,1,8,0:0:0:0:
237,183,63265,2,0,L|353:187,1,110,2|8,3:2|3:2,0:0:0:0:
379,68,63893,2,0,L|433:69,2,55,0|0|8,3:0|3:0|3:2,0:0:0:0:
258,54,64522,6,0,B|200:43|200:43|125:55,1,110,2|8,3:2|3:2,0:0:0:0:
100,85,64993,1,0,0:0:0:0:
100,85,65150,2,0,P|84:135|98:202,1,110,0|0,3:0|0:0,0:0:0:0:
149,210,65621,1,8,0:0:0:0:
149,210,65778,2,0,P|165:260|151:327,1,110,2|8,3:2|3:2,0:0:0:0:
55,384,66407,2,0,P|47:338|50:318,1,55,0|0,3:0|3:0,0:0:0:0:
50,273,66721,1,8,3:2:0:0:
90,158,67035,6,0,P|26:128|28:23,2,165,2|8|8,3:2|3:2|3:2,0:0:0:0:
211,146,68291,2,0,B|292:123|292:163|380:147,1,165,2|0,3:2|0:0,0:0:0:0:
434,140,68920,2,0,P|417:100|431:31,1,110,8|8,3:2|3:2,0:0:0:0:
311,66,69548,6,0,B|246:49|184:71,1,110,6|8,3:2|3:2,0:0:0:0:
188,185,70176,2,0,B|123:202|61:180,1,110,0|0,3:0|0:0,0:0:0:0:
26,211,70648,1,8,0:0:0:0:
26,211,70805,2,0,L|10:332,1,110,2|8,3:2|3:2,0:0:0:0:
132,316,71433,2,0,L|126:370,2,55,0|0|8,3:0|3:0|3:2,0:0:0:0:
253,322,72061,6,0,P|303:327|363:317,1,110,2|8,3:2|3:2,0:0:0:0:
391,200,72689,2,0,P|341:195|281:205,1,110,0|0,3:0|0:0,0:0:0:0:
226,222,73161,1,8,0:0:0:0:
226,222,73318,2,0,P|180:234|112:216,1,110,2|8,3:2|3:2,0:0:0:0:
92,102,73946,2,0,P|137:97|165:104,2,55,0|0|8,3:0|3:0|3:2,0:0:0:0:
34,208,74574,6,0,B|35:323,1,110,2|8,3:2|3:2,0:0:0:0:
153,342,75202,2,0,B|152:232,1,110,0|0,3:0|0:0,0:0:0:0:
162,174,75674,1,8,0:0:0:0:
162,174,75831,2,0,B|218:158|218:194|279:174,1,110,2|8,3:2|3:2,0:0:0:0:
362,255,76459,2,0,P|409:259|435:247,2,55,0|0|8,3:0|3:0|3:2,0:0:0:0:
383,136,77087,6,0,L|362:18,1,110,2|8,3:2|3:2,0:0:0:0:
242,30,77715,2,0,L|261:138,1,110,0|0,3:0|0:0,0:0:0:0:
267,203,78187,1,8,0:0:0:0:
267,203,78344,2,0,L|152:206,1,110,2|8,3:2|3:2,0:0:0:0:
42,162,78972,2,0,L|41:99,2,55,8|8|8,3:2|3:2|3:2,0:0:0:0:
38,283,79601,6,0,L|162:294,1,110,6|8,3:2|3:2,0:0:0:0:
257,346,80229,2,0,L|367:356,1,110,0|0,3:0|0:0,0:0:0:0:
415,319,80700,1,8,0:0:0:0:
415,319,80857,2,0,L|417:251,1,55,2|0,3:2|0:0,0:0:0:0:
448,212,81171,2,0,L|450:144,1,55,8|0,3:2|0:0,0:0:0:0:
408,112,81485,2,0,L|410:44,2,55,0|0|8,3:0|3:0|3:2,0:0:0:0:
291,144,82113,6,0,B|248:158|248:158|173:154,1,110,2|8,3:2|3:2,0:0:0:0:
163,34,82742,2,0,B|98:30|98:30|55:44,1,110,0|0,3:0|0:0,0:0:0:0:
44,106,83213,1,8,0:0:0:0:
44,106,83370,2,0,P|56:157|46:227,1,110,2|8,3:2|3:2,0:0:0:0:
61,334,83998,2,0,P|24:330|2:334,2,55,0|0|8,3:0|3:0|3:2,0:0:0:0:
162,259,84627,6,0,B|212:267|212:267|270:256,1,110,2|8,3:2|3:2,0:0:0:0:
355,170,85255,2,0,B|297:159|297:159|222:171,1,110,0|0,3:0|0:0,0:0:0:0:
190,166,85726,1,8,0:0:0:0:
190,166,85883,2,0,P|198:112|182:60,1,110,2|8,3:2|3:2,0:0:0:0:
77,121,86512,2,0,P|69:167|72:187,1,55,0|0,3:0|3:0,0:0:0:0:
75,236,86826,1,8,3:2:0:0:
160,322,87140,5,6,3:2:0:0:
