osu file format v14

[General]
AudioFilename: audio.mp3
AudioLeadIn: 0
PreviewTime: 49443
Countdown: 0
SampleSet: Soft
StackLeniency: 0.7
Mode: 0
LetterboxInBreaks: 0
EpilepsyWarning: 1
WidescreenStoryboard: 1

[Editor]
DistanceSpacing: 1.2
BeatDivisor: 4
GridSize: 8
TimelineZoom: 1

[Metadata]
Title:Heikousen
TitleUnicode:平行線
Artist:Sayuri
ArtistUnicode:さユり
Creator:Lilyanna
Version:Hard
Source:クズの本懐
Tags:Kuzu no honkai Parellel Line Scum's Wish scums tv size ending HB24
BeatmapID:1201284
BeatmapSetID:567148

[Difficulty]
HPDrainRate:5
CircleSize:4
OverallDifficulty:6
ApproachRate:7.5
SliderMultiplier:1.4
SliderTickRate:1

[Events]
//Background and Video events
0,0,"BG (2).jpg",0,0
//Break Periods
//Storyboard Layer 0 (Background)
//Storyboard Layer 1 (Fail)
//Storyboard Layer 2 (Pass)
//Storyboard Layer 3 (Foreground)
//Storyboard Sound Samples

[TimingPoints]
516,810.810810810811,4,2,2,30,1,0
516,-50,4,2,2,30,0,0
24029,-66.6666666666667,4,2,2,30,0,0
24840,-90.9090909090909,4,2,2,30,0,0
29339,314.13612565445,4,2,1,45,1,0
39391,-133.333333333333,4,2,1,45,0,0
44417,-100,4,2,1,55,0,0
49443,-100,4,2,1,65,0,1
68920,-100,4,2,1,65,0,0
69548,-100,4,2,1,65,0,1
87140,-100,4,2,1,65,0,0

[Colours]
Combo1 : 255,81,81
Combo2 : 255,157,206
Combo3 : 124,124,190
Combo4 : 187,255,187

[HitObjects]
59,115,516,6,0,P|39:159|85:246,1,140,2|0,2:0|0:0,0:0:0:0:
218,322,1326,2,0,B|283:374|359:328|359:328|320:335|281:304,1,210,2|0,0:0|0:0,0:0:0:0:
346,246,2137,2,0,P|348:169|410:126,1,140,2|0,0:0|0:0,0:0:0:0:
466,89,2745,1,0,0:0:0:0:
486,170,2948,2,0,P|488:238|440:286,1,140,2|0,0:0|0:0,0:0:0:0:
325,162,3759,6,0,L|173:174,1,140,2|0,0:0|0:0,0:0:0:0:
47,269,4570,2,0,L|186:280,1,140,2|0,0:0|0:0,0:0:0:0:
344,221,5380,2,0,P|364:265|318:352,1,140,2|0,0:0|0:0,0:0:0:0:
282,275,5988,1,0,0:0:0:0:
250,352,6191,1,2,0:0:0:0:
92,105,7002,6,0,L|81:244,1,140,2|0,0:0|0:0,0:0:0:0:
249,248,7813,2,0,B|331:208|390:275|390:275|372:266|327:276,1,210,2|0,0:0|0:0,0:0:0:0:
368,352,8624,2,0,P|436:345|470:281,1,140,2|0,0:0|0:0,0:0:0:0:
474,118,9434,1,2,0:0:0:0:
329,32,9840,6,0,B|292:77|287:168|287:168|258:65|181:67,1,280,2|0,0:0|0:0,0:0:0:0:
67,176,11056,2,0,P|123:138|189:155,1,140,2|0,0:0|0:0,0:0:0:0:
137,221,11664,1,0,0:0:0:0:
220,226,11867,2,0,L|359:237,1,140,2|0,0:0|0:0,0:0:0:0:
227,340,12678,2,0,L|134:331,2,70,2|2|2,0:0|0:0|0:0,0:0:0:0:
302,303,13286,1,0,0:0:0:0:
385,312,13488,6,0,P|433:268|424:185,1,140,2|0,0:0|0:0,0:0:0:0:
266,165,14299,2,0,B|186:128|134:197|134:197|143:153|190:135,1,210,2|0,0:0|0:0,0:0:0:0:
194,68,15110,2,0,B|162:60|162:60|90:76|90:76|50:68,1,140,2|0,0:0|0:0,0:0:0:0:
62,237,15921,2,0,B|94:245|94:245|166:229|166:229|198:235,1,140,2|0,0:0|0:0,0:0:0:0:
370,213,16732,5,2,0:0:0:0:
289,66,17137,2,0,P|244:51|197:58,1,70,0|0,0:0|0:0,0:0:0:0:
162,111,17543,2,0,P|194:124|229:125,1,70,0|0,0:0|0:0,0:0:0:0:
289,66,17948,1,2,0:0:0:0:
427,160,18353,2,0,P|447:213|425:307,1,140,2|0,0:0|0:0,0:0:0:0:
264,291,19164,2,0,P|244:238|266:144,1,140,2|0,0:0|0:0,0:0:0:0:
397,67,19975,6,0,P|340:30|274:47,1,140,2|0,0:0|0:0,0:0:0:0:
327,112,20583,1,2,0:0:0:0:
379,178,20786,2,0,P|313:196|257:158,1,140,2|0,0:0|0:0,0:0:0:0:
91,43,22407,2,0,B|51:125|118:184|118:184|110:154|119:128,1,210,2|0,0:0|0:0,0:0:0:0:
196,161,23218,6,0,P|180:240|116:265,1,140,2|0,0:0|0:0,0:0:0:0:
250,319,24029,2,0,L|370:312,1,105.000004005432,2|0,0:0|0:0,0:0:0:0:
343,221,24840,2,0,L|254:214,1,77.0000023498536,2|0,0:0|0:0,0:0:0:0:
256,192,25651,12,0,28894,0:0:0:0:
376,52,29339,6,0,L|296:58,1,70,6|0,0:0|0:0,0:0:0:0:
222,62,29653,1,0,0:0:0:0:
222,62,29810,1,0,0:0:0:0:
150,18,29967,2,0,P|138:62|192:136,1,140,0|0,0:0|0:0,0:0:0:0:
265,159,30438,1,0,0:0:0:0:
265,159,30595,6,0,L|408:173,1,140,2|0,0:0|0:0,0:0:0:0:
463,232,31066,1,0,0:0:0:0:
310,328,31380,2,0,L|240:322,1,70,2|0,0:0|0:0,0:0:0:0:
158,301,31695,1,0,0:0:0:0:
211,236,31852,6,0,P|227:165|205:95,1,140,2|0,0:0|0:0,0:0:0:0:
57,106,32480,2,0,P|38:172|55:240,1,140
195,331,33108,6,0,B|267:315|267:347|347:331,1,140,2|0,0:0|0:0,0:0:0:0:
484,279,33736,2,0,L|492:206,1,70,0|2,0:0|0:0,0:0:0:0:
445,140,34051,1,8,0:0:0:0:
450,117,34365,6,0,L|458:44,1,70,2|0,0:0|0:0,0:0:0:0:
357,47,34679,2,0,L|364:116,1,70,8|0,0:0|0:0,0:0:0:0:
308,188,34993,2,0,L|315:257,2,70,2|2|0,0:0|0:0|0:0,0:0:0:0:
233,244,35464,1,8,0:0:0:0:
233,244,35621,6,0,L|240:313,1,70,2|0,0:0|0:0,0:0:0:0:
169,358,35935,1,8,0:0:0:0:
196,159,36249,1,0,0:0:0:0:
196,159,36406,1,2,0:0:0:0:
110,110,36564,2,0,L|41:103,1,70,8|0,0:0|0:0,0:0:0:0:
198,71,36878,6,0,L|267:64,1,70,2|0,0:0|0:0,0:0:0:0:
265,165,37192,2,0,L|195:158,1,70,8|0,0:0|0:0,0:0:0:0:
110,110,37506,2,0,L|117:40,2,70,2|2|0,0:0|0:0|0:0,0:0:0:0:
102,200,37977,1,8,0:0:0:0:
102,200,38134,6,0,L|95:270,1,70,2|0,0:0|0:0,0:0:0:0:
82,355,38448,1,0,0:0:0:0:
169,340,38606,1,8,3:2:0:0:
169,340,38684,1,8,3:2:0:0:
169,340,38763,2,0,L|238:333,1,70,8|0,3:2|0:0,0:0:0:0:
266,252,39077,2,0,L|197:259,1,70,2|0,0:0|0:0,0:0:0:0:
65,184,39391,6,0,P|125:71|175:188,1,315.000012016297,6|0,3:2|0:0,0:0:0:0:
290,240,40647,6,0,P|273:286|398:241,1,315.000012016297,2|0,3:2|0:0,0:0:0:0:
391,96,41904,6,0,P|279:33|298:158,1,315.000012016297,2|0,3:2|0:0,0:0:0:0:
181,207,43160,6,0,P|199:331|88:269,1,315.000012016297,2|0,3:2|0:0,0:0:0:0:
124,72,44417,6,0,L|208:77,1,70,6|0,3:2|0:0,0:0:0:0:
278,70,44731,2,0,L|317:48,2,35,8|0|0,3:2|3:2|3:2,3:2:0:0:
343,122,45045,2,0,L|387:119,2,35,8|0|0,3:2|3:2|3:2,3:2:0:0:
383,195,45359,2,0,L|424:212,2,35,8|0|0,3:2|3:2|3:2,3:2:0:0:
232,142,45674,6,0,L|194:166,2,35,2|0|0,3:2|3:2|3:2,3:2:0:0:
235,225,45988,2,0,L|211:262,2,35,8|0|0,3:2|3:2|3:2,3:2:0:0:
281,295,46302,2,0,L|277:338,2,35,8|0|0,3:2|3:2|3:2,3:2:0:0:
360,323,46616,2,0,L|375:363,2,35,8|0|0,3:2|3:2|3:2,3:2:0:0:
418,179,46930,6,0,P|415:213|403:246,1,70,2|0,3:2|3:2,0:0:0:0:
433,76,47244,2,0,P|466:63|501:61,1,70,8|0,3:2|3:2,0:0:0:0:
341,112,47558,2,0,P|308:125|273:127,1,70,8|0,3:2|3:2,0:0:0:0:
176,104,47873,1,8,3:2:0:0:
172,199,48030,1,8,0:0:0:0:
432,56,49443,6,0,P|455:108|430:193,1,140,6|8,3:2|3:2,0:0:0:0:
406,265,49914,1,0,0:0:0:0:
345,333,50071,2,0,P|322:281|347:196,1,140,0|0,3:0|3:0,0:0:0:0:
382,124,50543,1,8,0:0:0:0:
382,124,50700,6,0,P|319:119|291:128,2,70,2|2|8,3:2|0:0|3:2,0:0:0:0:
341,202,51171,1,0,0:0:0:0:
255,182,51328,2,0,P|232:149|232:115,1,70,0|0,3:0|0:0,0:0:0:0:
274,48,51642,1,8,3:2:0:0:
252,39,51956,6,0,B|193:18|142:50|142:50|173:69,1,140,2|8,3:2|3:2,0:0:0:0:
40,183,52585,2,0,B|99:204|150:172|150:172|119:153,1,140,0|0,3:0|3:0,0:0:0:0:
72,96,53056,1,8,0:0:0:0:
72,96,53213,6,0,P|76:33|93:4,2,70,2|2|8,3:2|0:0|3:2,0:0:0:0:
102,261,53841,1,0,3:0:0:0:
180,229,53998,1,0,0:0:0:0:
170,312,54155,1,8,3:2:0:0:
128,158,54469,6,0,P|194:140|255:188,1,140,2|8,3:2|3:2,0:0:0:0:
180,229,54941,1,0,0:0:0:0:
258,264,55098,2,0,P|324:223|331:162,1,140,0|0,3:0|3:0,0:0:0:0:
249,177,55569,1,8,0:0:0:0:
276,97,55726,5,2,3:2:0:0:
276,97,55883,1,2,0:0:0:0:
331,165,56040,1,8,3:2:0:0:
178,234,56354,2,0,P|115:230|86:213,1,70,0|0,3:0|0:0,0:0:0:0:
101,142,56668,2,0,P|164:146|193:163,1,70,8|0,3:2|0:0,0:0:0:0:
250,177,56982,6,0,P|267:243|231:301,1,140,2|8,3:2|3:2,0:0:0:0:
153,332,57454,1,0,0:0:0:0:
80,286,57611,2,0,P|63:220|99:162,1,140,0|0,3:0|3:0,0:0:0:0:
173,120,58082,1,8,0:0:0:0:
221,188,58239,5,2,3:2:0:0:
221,188,58396,1,2,0:0:0:0:
150,233,58553,1,8,3:2:0:0:
174,120,58710,1,0,0:0:0:0:
99,162,58867,2,0,L|29:155,1,70,0|0,3:0|0:0,0:0:0:0:
2,233,59181,2,0,L|71:239,1,70,8|0,3:2|0:0,0:0:0:0:
181,335,59496,6,0,P|244:325|331:344,1,140,6|8,3:2|3:2,0:0:0:0:
397,368,59967,1,0,0:0:0:0:
431,291,60124,2,0,P|421:228|440:141,1,140,0|0,3:0|3:0,0:0:0:0:
468,76,60595,1,8,0:0:0:0:
391,43,60752,6,0,P|338:47|309:45,2,70,2|2|8,3:2|0:0|3:2,0:0:0:0:
468,76,61223,1,0,0:0:0:0:
434,153,61380,2,0,P|430:216|413:245,1,70,0|0,3:0|0:0,0:0:0:0:
345,240,61694,2,0,P|349:177|366:148,1,70,8|0,3:2|0:0,0:0:0:0:
283,120,62009,6,0,P|238:130|140:115,1,140,2|8,3:2|3:2,0:0:0:0:
15,222,62637,2,0,P|60:212|158:227,1,140,0|0,3:0|3:0,0:0:0:0:
225,265,63108,1,8,0:0:0:0:
307,278,63265,6,0,P|360:282|389:280,2,70,2|2|8,3:2|0:0|3:2,0:0:0:0:
225,265,63736,1,0,0:0:0:0:
154,310,63893,2,0,L|84:316,1,70,0|0,3:0|0:0,0:0:0:0:
76,233,64207,2,0,L|145:226,1,70,8|0,3:2|0:0,0:0:0:0:
217,182,64522,6,0,P|249:154|248:55,1,140,2|8,3:2|3:2,0:0:0:0:
182,107,64993,1,0,0:0:0:0:
108,150,65150,2,0,P|100:82|146:32,1,140,0|0,3:0|3:0,0:0:0:0:
182,107,65621,1,8,0:0:0:0:
253,63,65778,6,0,P|306:67|335:65,2,70,2|2|8,3:2|0:0|3:2,0:0:0:0:
182,107,66249,1,0,0:0:0:0:
146,32,66407,2,0,P|93:28|64:30,1,70,0|0,3:0|0:0,0:0:0:0:
25,95,66721,1,8,3:2:0:0:
28,118,67035,6,0,L|33:265,1,140,2|8,3:2|3:2,0:0:0:0:
101,306,67506,1,0,0:0:0:0:
171,259,67663,2,0,L|181:168,1,70,0|0,3:0|0:0,0:0:0:0:
240,132,67977,1,0,3:0:0:0:
240,132,68134,1,8,0:0:0:0:
285,202,68291,6,0,L|277:271,1,70,2|2,3:2|0:0,0:0:0:0:
339,329,68606,1,8,3:2:0:0:
407,280,68763,1,0,0:0:0:0:
440,201,68920,2,0,L|473:171,3,35,8|8|8|8,3:2|3:2|3:2|3:2,3:2:0:0:
445,140,69234,2,0,L|462:99,3,35,8|8|8|8,3:2|3:2|3:2|3:2,3:2:0:0:
432,60,69548,6,0,P|387:79|290:56,1,140,6|8,3:2|3:2,0:0:0:0:
224,26,70019,1,0,0:0:0:0:
231,109,70176,2,0,P|250:154|227:251,1,140,0|0,3:0|3:0,0:0:0:0:
235,325,70647,1,8,0:0:0:0:
159,287,70804,6,0,P|106:291|77:289,2,70,2|2|8,3:2|0:0|3:2,0:0:0:0:
233,241,71276,1,0,0:0:0:0:
158,202,71433,2,0,P|105:198|76:200,1,70,0|0,3:0|0:0,0:0:0:0:
70,284,71747,1,8,3:2:0:0:
49,273,72061,6,0,P|4:200|34:132,1,140,2|8,3:2|3:2,0:0:0:0:
79,96,72532,1,0,0:0:0:0:
163,109,72689,2,0,P|208:182|178:250,1,140,0|0,3:0|3:0,0:0:0:0:
141,294,73160,1,8,0:0:0:0:
196,357,73318,6,0,P|249:361|278:359,2,70,2|2|8,3:2|0:0|3:2,0:0:0:0:
141,294,73789,1,0,0:0:0:0:
195,229,73946,2,0,P|248:225|277:227,2,70,0|0|8,3:0|0:0|3:2,0:0:0:0:
141,294,74417,1,0,0:0:0:0:
111,215,74574,6,0,L|104:75,1,140,2|8,3:2|3:2,0:0:0:0:
181,43,75045,1,0,0:0:0:0:
261,65,75202,2,0,P|341:48|397:104,1,140,0|0,3:0|3:0,0:0:0:0:
316,129,75674,1,8,0:0:0:0:
247,177,75831,5,2,3:2:0:0:
247,177,75988,1,2,0:0:0:0:
182,124,76145,1,8,3:2:0:0:
279,260,76459,2,0,P|294:320|315:346,1,70,0|0,3:0|0:0,0:0:0:0:
381,328,76773,2,0,P|365:266|344:240,1,70,8|0,3:2|0:0,0:0:0:0:
323,187,77087,6,0,B|382:163|431:210|431:210|428:162,1,140,2|8,3:2|3:2,0:0:0:0:
405,109,77558,1,0,0:0:0:0:
364,34,77715,2,0,P|302:18|270:25,1,70,0|0,3:0|0:0,0:0:0:0:
322,107,78030,1,0,3:0:0:0:
322,107,78187,1,8,0:0:0:0:
405,109,78344,6,0,P|441:60|446:36,1,70,2|2,3:2|0:0,0:0:0:0:
364,34,78658,1,8,3:2:0:0:
322,107,78815,1,0,0:0:0:0:
325,190,78972,2,0,L|284:208,3,35,8|8|8|8,3:2|3:2|3:2|3:2,3:2:0:0:
308,244,79286,2,0,L|279:277,3,35,8|8|8|8,3:2|3:2|3:2|3:2,3:2:0:0:
260,319,79600,6,0,P|204:307|106:320,1,140,6|8,3:2|3:2,0:0:0:0:
40,294,80071,1,0,0:0:0:0:
59,210,80229,2,0,P|71:154|58:56,1,140,0|0,3:2|3:0,0:0:0:0:
140,32,80700,1,8,0:0:0:0:
222,46,80857,6,0,L|317:53,1,70,2|2,3:2|0:0,0:0:0:0:
321,129,81171,2,0,L|251:123,1,70,8|0,3:2|0:0,0:0:0:0:
207,194,81485,2,0,L|277:200,1,70,0|0,3:0|0:0,0:0:0:0:
331,263,81799,1,8,3:2:0:0:
350,277,82113,6,0,P|398:294|501:254,1,140,2|8,3:2|3:2,0:0:0:0:
458,104,82742,2,0,P|457:186|394:210,1,140,0|0,3:0|3:0,0:0:0:0:
332,189,83213,1,8,0:0:0:0:
260,144,83370,6,0,P|250:194|260:234,1,70,2|2,3:2|0:0,0:0:0:0:
305,277,83684,1,8,3:2:0:0:
332,189,83841,1,0,0:0:0:0:
368,113,83998,2,0,P|378:63|368:23,1,70,0|0,3:0|0:0,0:0:0:0:
301,5,84312,2,0,P|291:55|301:95,1,70,8|0,3:2|0:0,0:0:0:0:
260,144,84626,6,0,B|206:145|167:158|167:158|103:137,2,140,2|8|0,3:2|3:2|3:0,0:0:0:0:
332,189,85412,1,0,0:0:0:0:
382,256,85569,2,0,L|452:251,1,70,0|8,3:0|0:0,0:0:0:0:
482,172,85883,6,0,L|413:178,1,70,2|2,3:2|0:0,0:0:0:0:
332,189,86197,1,8,3:2:0:0:
334,105,86354,1,0,0:0:0:0:
260,144,86511,2,0,B|203:182|149:182|149:182|197:205|216:256,1,210,0|0,3:0|0:0,0:0:0:0:
110,283,87140,5,6,3:2:0:0:
