osu file format v14

[General]
AudioFilename: audio.mp3
AudioLeadIn: 0
PreviewTime: 48134
Countdown: 0
SampleSet: Soft
StackLeniency: 0.7
Mode: 0
LetterboxInBreaks: 0
WidescreenStoryboard: 0

[Editor]
DistanceSpacing: 1.1
BeatDivisor: 4
GridSize: 16
TimelineZoom: 2.2

[Metadata]
Title:Heikousen
TitleUnicode:平行線
Artist:Sayuri
ArtistUnicode:さユり
Creator:Agatsu
Version:Normal
Source:クズの本懐
Tags:kuzu no honkai ending scum's wish tv size scums akitoshi corinn hazu-
BeatmapID:1246058
BeatmapSetID:587728

[Difficulty]
HPDrainRate:4
CircleSize:3
OverallDifficulty:4
ApproachRate:5
SliderMultiplier:1.1
SliderTickRate:1

[Events]
//Background and Video events
0,0,"bg.jpg",0,0
//Break Periods
//Storyboard Layer 0 (Background)
//Storyboard Layer 1 (Fail)
//Storyboard Layer 2 (Pass)
//Storyboard Layer 3 (Foreground)
//Storyboard Sound Samples

[TimingPoints]
151,405.405405405405,4,2,1,30,1,0
151,-100,4,2,1,30,0,0
28732,-100,4,2,1,5,0,0
28972,314.13612565445,4,2,1,50,1,0
33998,-100,4,2,1,60,0,0
39024,-111.111111111111,4,2,1,40,0,0
44050,-100,4,2,1,60,0,0
48919,-100,4,2,1,30,0,0
49076,-100,4,2,1,75,0,1
68553,-100,4,2,1,75,0,0
69181,-100,4,2,1,75,0,1
86773,-100,4,2,1,60,0,0

[Colours]
Combo1 : 60,40,108
Combo2 : 34,35,72
Combo3 : 199,37,37
Combo4 : 226,14,78

[HitObjects]
148,55,151,6,0,B|94:143|194:171|125:280,1,220,2|2,0:0|0:0,0:0:0:0:
368,321,1772,2,0,B|421:234|321:206|382:111,1,220,2|2,0:0|0:0,0:0:0:0:
284,39,2988,1,0,0:0:0:0:
177,96,3394,6,0,P|168:149|161:213,1,110,2|0,0:0|0:0,0:0:0:0:
110,314,4205,2,0,B|156:343|156:343|213:320,1,110,2|0,0:0|0:0,0:0:0:0:
311,259,5015,2,0,P|366:254|425:246,1,110,2|0,0:0|0:0,0:0:0:0:
482,142,5826,1,2,0:0:0:0:
374,358,6637,6,0,P|277:354|153:340,1,220,2|2,0:0|0:0,0:0:0:0:
117,100,8259,2,0,P|215:110|340:128,1,220,2|2,0:0|0:0,0:0:0:0:
427,48,9475,1,0,0:0:0:0:
499,144,9880,6,0,P|499:195|492:257,1,110,2|0,0:0|0:0,0:0:0:0:
414,346,10691,2,0,B|366:369|366:369|307:340,1,110,2|0,0:0|0:0,0:0:0:0:
215,274,11502,2,0,P|207:218|201:154,1,110,2|0,0:0|0:0,0:0:0:0:
253,55,12313,1,2,0:0:0:0:
75,15,12921,1,0,0:0:0:0:
75,15,13123,6,0,B|128:95|25:131|78:237,1,220,2|2,0:0|0:0,0:0:0:0:
310,274,14745,2,0,P|317:328|328:382,1,110,2|0,0:0|0:0,0:0:0:0:
446,355,15556,2,0,P|439:301|426:240,1,110,2|0,0:0|0:0,0:0:0:0:
350,153,16367,5,2,0:0:0:0:
403,44,16772,2,0,P|454:35|521:27,2,110,0|2|0,0:0|0:0|0:0,0:0:0:0:
350,153,17988,2,0,P|299:149|241:140,1,110,2|0,0:0|0:0,0:0:0:0:
142,210,18799,2,0,P|128:261|123:321,1,110,2|0,0:0|0:0,0:0:0:0:
228,377,19610,6,0,P|297:319|428:331,1,220,2|2,0:0|0:0,0:0:0:0:
41,26,22042,2,0,P|33:80|30:135,1,110,2|0,0:0|0:0,0:0:0:0:
150,153,22853,6,0,P|157:98|160:43,1,110,2|0,0:0|0:0,0:0:0:0:
41,26,23664,1,2,0:0:0:0:
85,263,24475,1,2,0:0:0:0:
319,203,25286,1,2,0:0:0:0:
256,192,25691,12,0,27718,0:0:0:0:
277,69,28972,6,0,P|332:63|392:60,1,110,6|8,0:0|0:1,0:0:0:0:
394,180,29600,2,0,P|339:186|279:189,1,110,0|8,0:0|0:1,0:0:0:0:
170,148,30228,2,0,P|176:116|179:84,2,55,2|0|8,0:1|0:0|0:1,0:0:0:0:
128,191,30699,2,0,P|120:238|115:310,1,110,0|2,0:0|0:1,0:0:0:0:
130,358,31170,1,8,0:1:0:0:
247,326,31485,6,0,P|298:325|367:319,1,110,2|8,0:1|0:1,0:0:0:0:
359,199,32113,2,0,P|308:200|239:206,1,110,0|8,0:0|0:1,0:0:0:0:
160,122,32741,2,0,P|158:74|149:2,1,110,2|8,0:1|0:1,0:0:0:0:
32,35,33369,2,0,P|34:83|43:155,1,110,0|8,0:0|0:0,0:0:0:0:
114,241,33998,6,0,P|146:244|175:251,1,55,2|0,0:1|0:0,0:0:0:0:
205,296,34312,2,0,P|237:299|266:306,1,55,8|0,0:0|0:0,0:0:0:0:
314,328,34626,2,0,P|324:272|332:212,1,110,2|0,0:1|0:0,0:0:0:0:
338,159,35097,2,0,P|283:150|228:145,1,110,8|0,0:0|0:0,0:0:0:0:
169,135,35568,1,8,0:0:0:0:
63,76,35882,2,0,P|50:131|44:189,1,110,2|8,0:1|0:0,0:0:0:0:
53,244,36354,1,0,0:0:0:0:
53,244,36511,6,0,B|18:285|18:285|41:345,1,110,2|8,0:1|0:0,0:0:0:0:
156,363,37139,1,2,0:1:0:0:
156,363,37296,2,0,P|206:358|271:348,1,110,2|8,0:1|0:0,0:0:0:0:
320,324,37767,2,0,P|329:275|331:213,1,110,2|8,0:1|0:0,0:0:0:0:
269,110,38396,2,0,P|217:101|154:93,1,110,2|4,0:1|0:3,0:0:0:0:
59,52,39024,6,0,B|13:140|113:149|50:263,1,197.99999395752,6|8,0:0|0:1,0:0:0:0:
255,341,40280,2,0,P|300:338|360:332,1,98.9999969787599,2|0,0:0|0:0,0:0:0:0:
353,223,40909,2,0,P|308:226|242:234,1,98.9999969787599,8|0,0:1|0:0,0:0:0:0:
158,282,41537,6,0,B|117:196|204:172|155:84,1,197.99999395752,2|8,0:0|0:1,0:0:0:0:
373,55,42793,2,0,B|413:140|326:164|371:244,1,197.99999395752,2|8,0:0|0:1,0:0:0:0:
157,357,44050,6,0,P|109:353|38:345,1,110,6|8,0:0|0:0,0:0:0:0:
69,227,44678,2,0,P|117:231|188:239,1,110,8|8,0:0|0:0,0:0:0:0:
273,162,45307,2,0,P|262:109|257:41,1,110,8|8,0:0|0:0,0:0:0:0:
373,21,45935,2,0,P|384:74|389:142,1,110,8|8,0:0|0:0,0:0:0:0:
256,192,46563,12,8,47663,0:0:0:0:
79,315,49076,6,0,P|127:310|195:306,1,110,6|8,0:1|0:0,0:0:0:0:
305,338,49704,2,0,B|336:293|336:293|309:238,1,110,2|0,0:1|0:0,0:0:0:0:
279,191,50176,2,0,P|228:180|168:173,1,110,8|0,0:0|0:0,0:0:0:0:
111,160,50647,1,8,0:0:0:0:
18,81,50961,2,0,P|8:138|4:196,1,110,2|8,0:1|0:0,0:0:0:0:
41,304,51589,6,0,P|93:301|157:294,1,110,2|8,0:1|0:0,0:0:0:0:
260,346,52218,2,0,P|272:296|279:228,1,110,2|0,0:1|0:0,0:0:0:0:
252,183,52689,2,0,P|244:124|239:67,1,110,8|0,0:0|0:0,0:0:0:0:
281,29,53160,2,0,P|341:19|396:15,2,110,8|2|8,0:0|0:1|0:0,0:0:0:0:
160,22,54102,6,0,P|112:27|46:39,1,110,2|8,0:1|0:0,0:0:0:0:
73,157,54731,2,0,P|127:150|181:141,1,110,2|0,0:1|0:0,0:0:0:0:
238,162,55202,2,0,P|247:207|248:273,1,110,8|0,0:0|0:0,0:0:0:0:
228,328,55673,1,8,0:0:0:0:
113,365,55987,2,0,P|104:320|103:254,1,110,2|8,0:1|0:0,0:0:0:0:
24,164,56615,6,0,P|28:114|43:48,1,110,2|8,0:1|0:0,0:0:0:0:
157,87,57244,2,0,P|199:81|274:73,1,110,2|0,0:1|0:0,0:0:0:0:
317,105,57715,2,0,P|310:162|307:226,1,110,8|0,0:0|0:0,0:0:0:0:
318,273,58186,1,8,0:0:0:0:
220,344,58500,2,0,P|173:337|103:329,1,110,2|8,0:1|0:0,0:0:0:0:
87,210,59129,6,0,P|141:216|196:224,1,110,6|8,0:1|0:0,0:0:0:0:
287,144,59757,2,0,P|340:137|405:132,1,110,2|0,0:1|0:0,0:0:0:0:
453,152,60228,2,0,P|463:208|469:278,1,110,8|0,0:0|0:0,0:0:0:0:
433,310,60699,2,0,B|390:339|390:339|333:318,2,110,8|2|8,0:0|0:1|0:0,0:0:0:0:
362,211,61642,6,0,P|356:154|352:93,1,110,2|8,0:1|0:0,0:0:0:0:
244,47,62270,2,0,P|187:53|130:60,1,110,2|0,0:1|0:0,0:0:0:0:
87,96,62741,1,8,0:0:0:0:
87,96,62898,2,0,P|75:148|71:206,1,110,0|8,0:0|0:0,0:0:0:0:
155,290,63526,2,0,P|159:327|163:364,2,55,2|2|8,0:1|0:1|0:0,0:0:0:0:
252,218,64155,6,0,P|305:211|367:205,1,110,2|8,0:1|0:0,0:0:0:0:
418,187,64626,2,0,B|453:231|453:231|424:288,1,110,0|2,0:0|0:1,0:0:0:0:
399,331,65097,1,0,0:0:0:0:
276,369,65411,2,0,P|220:363|160:356,1,110,0|8,0:0|0:0,0:0:0:0:
106,347,65882,2,0,B|80:297|80:297|113:242,1,110,0|2,0:0|0:1,0:0:0:0:
145,203,66354,1,8,0:0:0:0:
176,86,66668,6,0,P|93:75|-2:68,2,165,2|0|0,0:1|0:0|0:0,0:0:0:0:
290,47,67924,2,0,P|300:100|306:163,1,110,0|8,0:0|0:0,0:0:0:0:
298,210,68396,1,0,0:0:0:0:
298,210,68553,2,0,B|260:250|260:250|293:315,1,110,8|10,0:0|0:0,0:0:0:0:
184,365,69181,6,0,P|130:357|65:348,1,110,6|8,0:1|0:0,0:0:0:0:
103,231,69809,2,0,P|97:184|95:111,1,110,2|0,0:1|0:0,0:0:0:0:
130,72,70280,2,0,P|175:62|244:55,1,110,8|0,0:0|0:0,0:0:0:0:
293,81,70752,2,0,B|334:119|334:119|307:183,2,110,8|2|8,0:0|0:1|0:0,0:0:0:0:
215,174,71694,6,0,P|207:227|200:291,1,110,2|8,0:1|0:0,0:0:0:0:
290,359,72322,2,0,P|341:351|398:340,1,110,2|0,0:1|0:0,0:0:0:0:
454,317,72793,2,0,P|463:261|466:203,1,110,8|0,0:0|0:0,0:0:0:0:
443,151,73265,2,0,P|435:99|431:36,2,110,8|2|8,0:0|0:1|0:0,0:0:0:0:
325,178,74207,6,0,P|270:171|209:163,1,110,2|8,0:1|0:0,0:0:0:0:
109,107,74835,2,0,B|69:149|69:149|96:201,1,110,2|0,0:1|0:0,0:0:0:0:
121,248,75307,1,8,0:0:0:0:
121,248,75464,2,0,P|113:307|104:370,1,110,0|8,0:0|0:0,0:0:0:0:
223,328,76092,2,0,P|271:323|338:317,1,110,2|8,0:1|0:0,0:0:0:0:
451,340,76720,6,0,P|463:279|466:220,1,110,2|8,0:1|0:0,0:0:0:0:
383,142,77348,2,0,P|327:131|265:124,1,110,2|0,0:1|0:0,0:0:0:0:
214,133,77820,2,0,P|202:188|196:253,1,110,8|0,0:0|0:0,0:0:0:0:
193,301,78291,1,8,0:0:0:0:
302,353,78605,2,0,P|332:352|366:349,1,55,10|8,0:0|0:0,0:0:0:0:
393,301,78919,2,0,P|423:300|457:297,1,55,10|8,0:0|0:0,0:0:0:0:
491,256,79233,6,0,P|497:205|499:137,1,110,6|8,0:1|0:0,0:0:0:0:
406,67,79862,2,0,P|363:62|285:53,1,110,2|0,0:1|0:0,0:0:0:0:
241,77,80333,1,8,0:0:0:0:
241,77,80490,2,0,B|202:117|202:117|233:175,2,110,0|8|2,0:0|0:0|0:1,0:0:0:0:
333,154,81432,1,8,0:0:0:0:
285,265,81746,6,0,P|277:313|271:375,1,110,2|8,0:1|0:0,0:0:0:0:
150,361,82375,2,0,P|144:306|136:251,1,110,2|0,0:1|0:0,0:0:0:0:
101,202,82846,1,8,0:0:0:0:
101,202,83003,2,0,P|106:147|114:92,1,110,0|8,0:0|0:0,0:0:0:0:
220,38,83631,2,0,P|280:31|336:29,1,110,2|8,0:1|0:0,0:0:0:0:
424,104,84259,6,0,P|433:151|441:226,1,110,2|8,0:1|0:0,0:0:0:0:
371,313,84888,2,0,B|325:345|325:345|278:317,1,110,2|0,0:1|0:0,0:0:0:0:
227,285,85359,2,0,P|172:278|111:272,1,110,8|0,0:0|0:0,0:0:0:0:
57,271,85830,1,8,0:0:0:0:
53,150,86144,2,0,P|21:145|-13:140,2,55,2|2|8,0:1|0:1|0:0,0:0:0:0:
53,28,86773,5,4,0:0:0:0:
