osu file format v14

[General]
AudioFilename: audio.mp3
AudioLeadIn: 0
PreviewTime: 48134
Countdown: 0
SampleSet: Soft
StackLeniency: 0.7
Mode: 0
LetterboxInBreaks: 0
WidescreenStoryboard: 0

[Editor]
DistanceSpacing: 2
BeatDivisor: 4
GridSize: 32
TimelineZoom: 2.599999

[Metadata]
Title:Heikousen
TitleUnicode:平行線
Artist:Sayuri
ArtistUnicode:さユり
Creator:Agatsu
Version:Insane
Source:クズの本懐
Tags:kuzu no honkai ending scum's wish tv size scums akitoshi corinn hazu-
BeatmapID:1403163
BeatmapSetID:587728

[Difficulty]
HPDrainRate:7
CircleSize:4
OverallDifficulty:8
ApproachRate:9
SliderMultiplier:1.7
SliderTickRate:1

[Events]
//Background and Video events
0,0,"bg.jpg",0,0
//Break Periods
//Storyboard Layer 0 (Background)
//Storyboard Layer 1 (Fail)
//Storyboard Layer 2 (Pass)
//Storyboard Layer 3 (Foreground)
//Storyboard Sound Samples

[TimingPoints]
151,405.405405405405,4,2,1,30,1,0
151,-166.666666666667,4,2,1,30,0,0
19610,-200,4,2,1,30,0,0
22042,-166.666666666667,4,2,1,30,0,0
25286,-300,4,2,1,30,0,0
28732,-300,4,2,1,5,0,0
28972,314.13612565445,4,2,1,50,1,0
28972,-111.111111111111,4,2,1,50,0,0
33919,-111.111111111111,4,2,1,5,0,0
33998,-100,4,2,1,60,0,0
37061,-100,4,2,1,5,0,0
37139,-100,4,2,1,60,0,0
38945,-100,4,2,1,5,0,0
39024,-200,4,2,1,40,0,0
44050,-111.111111111111,4,2,1,60,0,0
44286,-111.111111111111,4,2,1,5,0,0
44364,-111.111111111111,4,2,1,60,0,0
47663,-200,4,2,1,60,0,0
48919,-100,4,2,1,30,0,0
49076,-100,4,2,1,75,0,1
51511,-100,4,2,1,5,0,1
51589,-100,4,2,1,75,0,1
54024,-100,4,2,1,5,0,1
54102,-100,4,2,1,75,0,1
56537,-100,4,2,1,5,0,1
56615,-100,4,2,1,75,0,1
59050,-100,4,2,1,5,0,1
59129,-100,4,2,1,75,0,1
64076,-100,4,2,1,5,0,1
64155,-100,4,2,1,75,0,1
68553,-100,4,2,1,75,0,0
69181,-100,4,2,1,75,0,1
71615,-100,4,2,1,5,0,1
71694,-100,4,2,1,75,0,1
74443,-100,4,2,1,5,0,1
74521,-100,4,2,1,75,0,1
76642,-100,4,2,1,5,0,1
76720,-100,4,2,1,75,0,1
84181,-100,4,2,1,5,0,1
84259,-100,4,2,1,75,0,1
86694,-100,4,2,1,5,0,1
86773,-100,4,2,1,60,0,0

[Colours]
Combo1 : 60,40,108
Combo2 : 34,35,72
Combo3 : 199,37,37
Combo4 : 226,14,78

[HitObjects]
104,348,151,6,0,P|158:294|283:293,1,203.999993774414,2|2,0:0|0:0,0:0:0:0:
425,83,1772,2,0,P|371:137|246:138,1,203.999993774414,2|2,0:0|0:0,0:0:0:0:
307,13,2988,1,0,0:0:0:0:
139,200,3394,6,0,P|115:149|118:97,1,101.999996887207,2|0,0:0|0:0,0:0:0:0:
271,233,4205,2,0,P|257:282|253:340,1,101.999996887207,2|0,0:0|0:0,0:0:0:0:
409,216,5015,2,0,P|469:150|452:26,1,203.999993774414,2|2,0:0|0:0,0:0:0:0:
127,102,6637,6,0,P|178:50|307:57,1,203.999993774414,2|2,0:0|0:0,0:0:0:0:
418,284,8259,2,0,P|367:336|238:329,1,203.999993774414,2|2,0:0|0:0,0:0:0:0:
301,211,9475,1,0,0:0:0:0:
129,371,9880,6,0,P|105:326|103:275,1,101.999996887207,2|0,0:0|0:0,0:0:0:0:
203,100,10691,2,0,P|190:154|183:211,1,101.999996887207,2|0,0:0|0:0,0:0:0:0:
252,275,11299,1,0,0:0:0:0:
460,247,11502,6,0,P|405:178|293:174,1,203.999993774414,2|2,0:0|0:0,0:0:0:0:
118,35,12921,1,0,0:0:0:0:
43,104,13123,6,0,B|-4:186|94:215|36:317,1,203.999993774414,2|2,0:0|0:0,0:0:0:0:
279,342,14745,2,0,P|285:289|294:234,1,101.999996887207,2|0,0:0|0:0,0:0:0:0:
429,102,15556,2,0,P|451:139|454:202,1,101.999996887207,2|0,0:0|0:0,0:0:0:0:
345,354,16367,5,2,0:0:0:0:
239,190,16772,2,0,P|286:182|351:173,2,101.999996887207,0|2|0,0:0|0:0|0:0,0:0:0:0:
67,115,17988,2,0,P|75:166|80:217,1,101.999996887207,2|0,0:0|0:0,0:0:0:0:
277,265,18799,2,0,P|283:214|291:163,1,101.999996887207,2|0,0:0|0:0,0:0:0:0:
0,272,19610,6,0,P|54:193|217:195,1,255,2|0,0:0|0:0,0:0:0:0:
471,154,22042,2,0,P|395:143|319:132,1,152.999995330811,2|0,0:0|0:0,0:0:0:0:
209,59,22853,6,0,P|202:109|193:168,1,101.999996887207,2|0,0:0|0:0,0:0:0:0:
55,351,23664,2,0,P|97:292|226:283,1,203.999993774414,2|2,0:0|0:0,0:0:0:0:
370,289,25286,6,0,B|310:289|246:210|290:158|302:123|333:142|371:79|380:158|426:160|418:226|349:257|286:217|268:165|197:193,1,481.666666666667,2|0,0:0|0:0,0:0:0:0:
79,111,28972,6,0,P|87:173|99:270,1,152.999995330811,6|8,0:0|0:1,0:0:0:0:
166,349,29443,1,0,0:0:0:0:
166,349,29521,1,8,0:1:0:0:
166,349,29600,2,0,P|208:355|248:361,1,76.4999976654053,0|2,0:0|0:1,0:0:0:0:
380,265,29914,2,0,P|342:270|304:276,1,76.4999976654053,8|0,0:1|0:0,0:0:0:0:
195,209,30228,6,0,P|186:169|179:126,1,76.4999976654053,2|0,0:1|0:0,0:0:0:0:
326,64,30542,2,0,P|319:101|311:138,1,76.4999976654053,8|0,0:1|0:0,0:0:0:0:
311,138,30778,1,8,0:1:0:0:
311,138,30856,1,0,0:0:0:0:
195,209,31013,1,2,0:1:0:0:
289,308,31170,2,0,P|326:314|364:317,1,76.4999976654053,8|0,0:1|0:0,0:0:0:0:
507,271,31485,6,0,P|466:215|383:210,1,152.999995330811,2|8,0:1|0:1,0:0:0:0:
295,121,31956,1,0,0:0:0:0:
295,121,32034,1,8,0:1:0:0:
295,121,32113,2,0,P|286:80|280:41,1,76.4999976654053,0|0,0:0|0:0,0:0:0:0:
405,2,32427,2,0,P|413:39|419:77,1,76.4999976654053,8|0,0:1|0:0,0:0:0:0:
388,209,32741,6,0,P|322:224|235:238,1,152.999995330811,2|8,0:1|0:1,0:0:0:0:
167,178,33212,2,0,L|160:140,2,38.2499988327027,0|8|0,0:0|0:1|0:0,0:0:0:0:
70,261,33526,1,2,0:1:0:0:
75,66,33684,2,0,P|136:57|197:49,1,114.749996498108,8|0,0:0|0:0,0:0:0:0:
271,25,33998,5,2,0:1:0:0:
240,131,34155,1,0,0:0:0:0:
408,109,34312,2,0,P|361:103|320:100,1,85,8|0,0:0|0:0,0:0:0:0:
196,212,34626,1,2,0:1:0:0:
289,297,34783,2,0,P|297:252|302:208,1,85,2|0,0:1|0:0,0:0:0:0:
129,122,35097,6,0,P|91:172|101:274,1,170,8|0,0:0|0:0,0:0:0:0:
229,346,35568,2,0,P|271:339|315:333,1,85,8|0,0:0|0:0,0:0:0:0:
312,166,35882,1,2,0:1:0:0:
206,230,36040,1,2,0:1:0:0:
372,256,36197,2,0,P|415:251|459:244,1,85,8|0,0:0|0:0,0:0:0:0:
495,141,36511,6,0,P|453:134|410:129,1,85,2|0,0:1|0:0,0:0:0:0:
296,25,36825,2,0,P|286:92|277:171,1,127.5,8|0,0:0|0:0,0:0:0:0:
262,235,37139,1,2,0:1:0:0:
162,107,37296,2,0,P|120:100|77:95,1,85,2|0,0:1|0:0,0:0:0:0:
166,238,37610,1,8,0:0:0:0:
278,151,37767,6,0,P|288:103|295:63,1,85,2|0,0:1|0:0,0:0:0:0:
166,238,38081,1,8,0:0:0:0:
288,317,38239,1,0,0:0:0:0:
294,301,38317,1,0,0:0:0:0:
299,284,38396,1,2,0:1:0:0:
182,129,38553,1,2,0:1:0:0:
84,252,38710,2,0,P|135:244|216:232,1,127.5,4|0,0:3|0:0,0:0:0:0:
288,191,39024,6,0,P|331:134|313:43,1,170,6|8,0:0|0:1,0:0:0:0:
71,173,40280,6,0,B|35:243|106:262|66:341,1,170,2|8,0:0|0:1,0:0:0:0:
253,251,41537,6,0,P|311:246|425:240,1,170,2|8,0:0|0:1,0:0:0:0:
269,70,42793,6,0,P|184:65|99:59,1,170,2|8,0:0|0:1,0:0:0:0:
140,368,44050,6,0,P|147:319|159:252,1,114.749996498108,6|0,0:0|0:0,0:0:0:0:
176,167,44364,2,0,P|152:157|129:147,3,38.2499988327027,8|0|0|0,0:0|0:0|0:0|0:0,0:0:0:0:
243,105,44678,2,0,P|231:81|219:59,3,38.2499988327027,8|0|0|0,0:0|0:0|0:0|0:0,0:0:0:0:
331,103,44992,2,0,P|336:77|342:53,3,38.2499988327027,8|0|0|0,0:0|0:0|0:0|0:0,0:0:0:0:
412,147,45307,5,8,0:0:0:0:
410,162,45385,1,0,0:0:0:0:
407,177,45464,1,0,0:0:0:0:
405,192,45542,1,0,0:0:0:0:
414,216,45621,5,8,0:0:0:0:
412,231,45699,1,0,0:0:0:0:
409,246,45778,1,0,0:0:0:0:
407,261,45856,1,0,0:0:0:0:
415,286,45935,6,0,P|408:317|403:342,3,38.2499988327027,8|0|0|0,0:0|0:0|0:0|0:0,0:0:0:0:
309,308,46249,2,0,P|283:327|263:343,3,38.2499988327027,8|0|0|0,0:0|0:0|0:0|0:0,0:0:0:0:
173,329,46563,6,0,P|157:317|142:305,3,38.2499988327027,8|0|0|0,0:0|0:0|0:0|0:0,0:0:0:0:
44,321,46877,2,0,P|39:302|35:283,3,38.2499988327027,8|0|0|0,0:0|0:0|0:0|0:0,0:0:0:0:
75,175,47191,5,8,0:0:0:0:
94,187,47270,1,0,0:0:0:0:
116,189,47348,1,0,0:0:0:0:
139,187,47427,1,0,0:0:0:0:
159,176,47506,2,0,L|166:127,1,38.2499988327027,8|0,0:0|0:0,0:0:0:0:
249,235,47663,6,0,B|306:276|366:231|366:231|386:281|449:300|541:227|458:217|425:165|412:228,1,340,6|0,0:0|0:0,0:0:0:0:
304,167,49076,6,0,P|309:127|311:82,1,85,6|0,0:1|0:0,0:0:0:0:
119,30,49390,2,0,P|114:70|112:115,1,85,8|0,0:0|0:0,0:0:0:0:
195,264,49704,1,2,0:1:0:0:
213,139,49862,1,2,0:1:0:0:
90,212,50019,1,0,0:0:0:0:
255,328,50176,6,0,P|319:320|428:309,1,170,8|0,0:0|0:0,0:0:0:0:
311,184,50647,2,0,P|275:179|222:173,1,85,8|0,0:0|0:0,0:0:0:0:
63,204,50961,1,2,0:1:0:0:
124,88,51118,1,2,0:1:0:0:
196,304,51275,2,0,P|261:296|336:287,1,127.5,8|0,0:0|0:0,0:0:0:0:
398,249,51589,6,0,P|402:212|404:164,1,85,2|0,0:1|0:0,0:0:0:0:
232,88,51903,2,0,P|228:125|226:173,1,85,8|0,0:0|0:0,0:0:0:0:
283,366,52218,1,2,0:1:0:0:
325,208,52375,1,2,0:1:0:0:
202,280,52532,1,0,0:0:0:0:
412,335,52689,6,0,P|422:265|435:158,1,170,8|0,0:0|0:0,0:0:0:0:
261,83,53160,2,0,P|263:125|268:175,1,85,8|0,0:0|0:0,0:0:0:0:
363,338,53474,1,2,0:1:0:0:
393,206,53631,1,2,0:1:0:0:
229,320,53788,2,0,P|157:311|99:305,1,127.5,8|0,0:0|0:0,0:0:0:0:
40,246,54102,6,0,P|37:206|40:158,1,85,2|0,0:1|0:0,0:0:0:0:
263,123,54417,2,0,P|266:163|263:211,1,85,8|0,0:0|0:0,0:0:0:0:
143,165,54731,1,2,0:1:0:0:
229,28,54888,2,0,P|272:27|313:31,1,85,2|0,0:1|0:0,0:0:0:0:
360,237,55202,6,0,P|306:293|208:290,1,170,8|0,0:0|0:0,0:0:0:0:
106,169,55673,2,0,P|154:163|193:159,1,85,8|0,0:0|0:0,0:0:0:0:
351,40,55987,1,2,0:1:0:0:
219,11,56144,1,2,0:1:0:0:
332,166,56301,2,0,P|339:218|348:300,1,127.5,8|0,0:0|0:0,0:0:0:0:
286,352,56615,6,0,P|248:349|196:346,1,85,2|0,0:1|0:0,0:0:0:0:
37,245,56930,2,0,P|79:242|121:239,1,85,8|0,0:0|0:0,0:0:0:0:
272,103,57244,1,2,0:1:0:0:
246,266,57401,1,2,0:1:0:0:
172,148,57558,1,0,0:0:0:0:
341,22,57715,6,0,P|396:80|378:172,1,170,8|0,0:0|0:0,0:0:0:0:
246,266,58186,2,0,P|197:258|154:253,1,85,8|0,0:0|0:0,0:0:0:0:
282,128,58500,1,2,0:1:0:0:
171,60,58657,1,2,0:1:0:0:
375,40,58814,2,0,P|379:111|384:178,1,127.5,8|0,0:0|0:0,0:0:0:0:
448,225,59129,6,0,P|454:263|455:316,1,85,6|0,0:1|0:0,0:0:0:0:
257,345,59443,2,0,P|251:307|250:254,1,85,8|0,0:0|0:0,0:0:0:0:
322,74,59757,1,2,0:1:0:0:
184,140,59914,1,2,0:1:0:0:
314,186,60071,1,0,0:0:0:0:
188,30,60228,6,0,P|131:24|5:12,1,170,8|0,0:0|0:0,0:0:0:0:
95,201,60699,2,0,P|135:196|183:191,1,85,8|0,0:0|0:0,0:0:0:0:
268,329,61013,2,0,P|228:334|180:339,1,85,2|2,0:1|0:1,0:0:0:0:
302,193,61328,2,0,P|310:149|313:108,1,85,8|0,0:0|0:0,0:0:0:0:
104,191,61642,6,0,P|141:195|188:201,1,85,2|0,0:1|0:0,0:0:0:0:
397,118,61956,2,0,P|360:114|313:108,1,85,8|0,0:0|0:0,0:0:0:0:
317,340,62270,1,2,0:1:0:0:
412,211,62427,1,2,0:1:0:0:
281,214,62584,1,0,0:0:0:0:
479,314,62741,6,0,P|490:232|501:145,1,170,8|0,0:0|0:0,0:0:0:0:
358,63,63212,2,0,P|318:56|266:49,1,85,8|0,0:0|0:0,0:0:0:0:
152,170,63526,1,2,0:1:0:0:
165,41,63684,1,2,0:1:0:0:
262,211,63841,2,0,P|255:272|248:342,1,127.5,8|0,0:0|0:0,0:0:0:0:
166,363,64155,6,0,P|117:355|72:348,1,85,2|0,0:1|0:0,0:0:0:0:
132,160,64469,2,0,P|136:207|139:258,1,85,8|0,0:0|0:0,0:0:0:0:
336,131,64783,1,2,0:1:0:0:
262,270,64940,1,2,0:1:0:0:
228,136,65097,1,0,0:0:0:0:
412,188,65254,6,0,P|402:260|392:364,1,170,8|0,0:0|0:0,0:0:0:0:
262,270,65725,2,0,P|219:264|167:258,1,85,8|0,0:0|0:0,0:0:0:0:
118,48,66040,1,2,0:1:0:0:
49,166,66197,1,2,0:1:0:0:
236,117,66354,2,0,P|242:81|247:29,1,85,8|0,0:0|0:0,0:0:0:0:
49,166,66668,6,0,P|54:211|59:263,1,85,2|0,0:1|0:0,0:0:0:0:
249,310,66982,2,0,P|253:267|257:225,1,85,8|0,0:0|0:0,0:0:0:0:
57,250,67296,1,2,0:1:0:0:
171,363,67453,1,2,0:1:0:0:
162,221,67610,1,0,0:0:0:0:
417,329,67767,6,0,P|337:318|244:309,1,170,8|0,0:0|0:0,0:0:0:0:
90,144,68239,2,0,P|137:139|181:135,1,85,8|0,0:0|0:0,0:0:0:0:
275,29,68553,5,8,0:0:0:0:
286,51,68631,1,8,0:0:0:0:
291,76,68710,1,8,0:0:0:0:
285,100,68788,1,8,0:0:0:0:
274,123,68867,1,10,0:0:0:0:
263,145,68945,1,8,0:0:0:0:
258,170,69024,1,8,0:0:0:0:
264,194,69102,1,8,0:0:0:0:
276,216,69181,6,0,P|319:210|365:206,1,85,6|0,0:1|0:0,0:0:0:0:
184,353,69495,2,0,P|177:315|173:263,1,85,8|0,0:0|0:0,0:0:0:0:
211,72,69809,1,2,0:1:0:0:
276,216,69966,1,2,0:1:0:0:
145,165,70123,1,0,0:0:0:0:
319,85,70280,6,0,P|395:77|495:64,1,170,8|0,0:0|0:0,0:0:0:0:
360,225,70752,2,0,P|317:219|271:215,1,85,8|0,0:0|0:0,0:0:0:0:
139,302,71066,1,2,0:1:0:0:
154,171,71223,1,2,0:1:0:0:
260,341,71380,2,0,P|315:335|391:327,1,127.5,8|0,0:0|0:0,0:0:0:0:
451,271,71694,6,0,P|456:232|455:184,1,85,2|0,0:1|0:0,0:0:0:0:
279,130,72008,2,0,P|274:169|275:217,1,85,8|0,0:0|0:0,0:0:0:0:
397,110,72322,1,2,0:1:0:0:
286,31,72479,2,0,P|244:25|195:21,1,85,2|0,0:1|0:0,0:0:0:0:
92,214,72793,6,0,P|161:258|242:239,1,170,8|0,0:0|0:0,0:0:0:0:
370,140,73265,2,0,P|328:134|279:130,1,85,8|0,0:0|0:0,0:0:0:0:
108,58,73579,1,2,0:1:0:0:
235,18,73736,1,2,0:1:0:0:
158,167,73893,2,0,P|151:215|146:260,1,85,8|0,0:0|0:0,0:0:0:0:
298,366,74207,6,0,P|330:303|312:242,1,127.5,2|0,0:1|0:0,0:0:0:0:
366,180,74521,2,0,P|409:176|454:172,1,85,8|0,0:0|0:0,0:0:0:0:
340,47,74835,1,2,0:1:0:0:
237,131,74992,2,0,P|230:172|225:219,1,85,2|0,0:1|0:0,0:0:0:0:
372,349,75307,6,0,P|370:254|365:176,1,170,8|0,0:0|0:0,0:0:0:0:
224,46,75778,2,0,P|229:87|237:135,1,85,8|0,0:0|0:0,0:0:0:0:
295,322,76092,1,2,0:1:0:0:
365,179,76249,1,2,0:1:0:0:
188,263,76406,2,0,P|134:254|57:244,1,127.5,8|0,0:0|0:0,0:0:0:0:
17,171,76720,6,0,P|10:134|6:85,1,85,2|0,0:1|0:0,0:0:0:0:
199,36,77034,2,0,P|206:73|210:122,1,85,8|0,0:0|0:0,0:0:0:0:
168,311,77348,1,2,0:1:0:0:
297,218,77506,1,2,0:1:0:0:
166,203,77663,1,0,0:0:0:0:
284,348,77820,6,0,P|352:339|458:327,1,170,8|0,0:0|0:0,0:0:0:0:
392,141,78291,2,0,P|385:191|380:235,1,85,8|0,0:0|0:0,0:0:0:0:
188,358,78605,5,10,0:0:0:0:
174,336,78684,1,8,0:0:0:0:
168,311,78762,1,8,0:0:0:0:
176,286,78841,1,8,0:0:0:0:
188,264,78919,1,10,0:0:0:0:
202,242,78998,1,8,0:0:0:0:
208,217,79076,1,8,0:0:0:0:
200,192,79155,1,8,0:0:0:0:
183,172,79233,6,0,P|141:168|92:164,1,85,6|0,0:1|0:0,0:0:0:0:
277,78,79547,2,0,P|319:82|368:86,1,85,8|0,0:0|0:0,0:0:0:0:
439,268,79862,1,2,0:1:0:0:
300,195,80019,1,2,0:1:0:0:
429,159,80176,1,0,0:0:0:0:
329,315,80333,6,0,P|246:306|155:297,1,170,8|0,0:0|0:0,0:0:0:0:
65,161,80804,2,0,P|112:156|154:152,1,85,8|0,0:0|0:0,0:0:0:0:
287,23,81118,2,0,P|240:28|198:32,1,85,2|2,0:1|0:1,0:0:0:0:
288,199,81432,2,0,P|294:240|297:290,1,85,8|0,0:0|0:0,0:0:0:0:
124,184,81746,6,0,P|117:141|115:99,1,85,2|0,0:1|0:0,0:0:0:0:
331,20,82061,2,0,P|337:62|339:104,1,85,8|0,0:0|0:0,0:0:0:0:
218,263,82375,1,2,0:1:0:0:
225,108,82532,1,2,0:1:0:0:
318,208,82689,1,0,0:0:0:0:
134,353,82846,6,0,P|126:266|123:175,1,170,8|0,0:0|0:0,0:0:0:0:
214,53,83317,2,0,P|257:47|305:42,1,85,8|0,0:0|0:0,0:0:0:0:
454,158,83631,1,2,0:1:0:0:
434,24,83788,1,2,0:1:0:0:
333,154,83945,2,0,P|325:215|318:287,1,127.5,8|0,0:0|0:0,0:0:0:0:
381,338,84259,6,0,P|420:333|469:325,1,85,2|0,0:1|0:0,0:0:0:0:
333,154,84574,2,0,P|294:159|245:167,1,85,8|0,0:0|0:0,0:0:0:0:
104,300,84888,1,2,0:1:0:0:
125,136,85045,1,2,0:1:0:0:
205,246,85202,1,0,0:0:0:0:
24,354,85359,6,0,P|13:280|2:183,1,170,8|0,0:0|0:0,0:0:0:0:
134,38,85830,2,0,P|134:85|130:136,1,85,8|0,0:0|0:0,0:0:0:0:
318,197,86144,1,2,0:1:0:0:
254,87,86301,1,2,0:1:0:0:
228,280,86458,2,0,P|285:291|357:308,1,127.5,8|0,0:0|0:0,0:0:0:0:
436,327,86773,5,4,0:0:0:0:
