osu file format v14

[General]
AudioFilename: audio.mp3
AudioLeadIn: 0
PreviewTime: 48134
Countdown: 0
SampleSet: Soft
StackLeniency: 0.7
Mode: 0
LetterboxInBreaks: 0
WidescreenStoryboard: 0

[Editor]
DistanceSpacing: 1
BeatDivisor: 1
GridSize: 16
TimelineZoom: 2.2

[Metadata]
Title:Heikousen
TitleUnicode:平行線
Artist:Sayuri
ArtistUnicode:さユり
Creator:Agatsu
Version:Easy
Source:クズの本懐
Tags:kuzu no honkai ending scum's wish tv size scums akitoshi corinn hazu-
BeatmapID:1244449
BeatmapSetID:587728

[Difficulty]
HPDrainRate:3
CircleSize:3
OverallDifficulty:2
ApproachRate:3
SliderMultiplier:0.9
SliderTickRate:1

[Events]
//Background and Video events
0,0,"bg.jpg",0,0
//Break Periods
//Storyboard Layer 0 (Background)
//Storyboard Layer 1 (Fail)
//Storyboard Layer 2 (Pass)
//Storyboard Layer 3 (Foreground)
//Storyboard Sound Samples

[TimingPoints]
151,405.405405405405,4,2,1,30,1,0
27718,-100,4,2,1,5,0,0
28972,314.13612565445,4,2,1,50,1,0
44050,-100,4,2,1,60,0,0
49076,-100,4,2,1,75,0,1
68553,-100,4,2,1,75,0,0
69181,-100,4,2,1,75,0,1
86773,-100,4,2,1,75,0,0

[Colours]
Combo1 : 60,40,108
Combo2 : 34,35,72
Combo3 : 199,37,37
Combo4 : 226,14,78

[HitObjects]
124,59,151,6,0,B|205:72|198:13|302:30,1,180,2|2,0:0|0:0,0:0:0:0:
384,187,1772,2,0,B|303:174|310:233|206:216,1,180,2|2,0:0|0:0,0:0:0:0:
163,139,2988,1,0,0:0:0:0:
77,168,3394,6,0,P|65:245|52:356,1,180,2|2,0:0|0:0,0:0:0:0:
231,367,5015,2,0,P|244:278|255:188,1,180,2|2,0:0|0:0,0:0:0:0:
377,56,6637,6,0,B|285:71|301:2|197:17,1,180,2|2,0:0|0:0,0:0:0:0:
125,176,8259,2,0,B|217:161|201:230|295:216,1,180,2|2,0:0|0:0,0:0:0:0:
344,141,9475,1,0,0:0:0:0:
433,147,9880,6,0,P|479:194|469:304,1,180,2|2,0:0|0:0,0:0:0:0:
300,359,11502,2,0,P|250:354|202:349,2,90,2|0|2,0:0|0:0|0:0,0:0:0:0:
470,301,13123,6,0,P|382:294|325:228,1,180,2|2,0:0|0:0,0:0:0:0:
411,70,14745,2,0,P|460:62|519:54,2,90,2|0|2,0:0|0:0|0:0,0:0:0:0:
335,21,15961,1,0,0:0:0:0:
264,77,16367,6,0,P|277:150|287:274,1,180,2|2,0:0|0:0,0:0:0:0:
225,322,17583,1,0,0:0:0:0:
135,319,17988,2,0,P|122:246|112:122,1,180,2|2,0:0|0:0,0:0:0:0:
250,24,19610,6,0,P|261:94|273:218,1,180,2|0,0:0|0:0,0:0:0:0:
424,369,22042,2,0,P|479:310|475:205,1,180,2|2,0:0|0:0,0:0:0:0:
349,90,23664,6,0,P|265:82|167:66,2,180,2|2|2,0:0|0:0|0:0,0:0:0:0:
256,192,25691,12,0,27718,0:0:0:0:
61,44,28972,6,0,B|148:29|141:99|239:82,1,180,6|0,0:0|0:0,0:0:0:0:
297,144,29914,1,8,0:1:0:0:
243,216,30228,2,0,P|235:277|232:355,2,135,2|0|8,0:1|0:0|0:1,0:0:0:0:
297,144,31485,6,0,P|289:91|286:49,1,90,2|8,0:1|0:1,0:0:0:0:
199,30,32113,2,0,P|156:26|101:22,1,90,0|8,0:0|0:1,0:0:0:0:
42,82,32741,2,0,P|49:130|54:188,2,90,2|8|0,0:1|0:1|0:0,0:0:0:0:
173,205,33998,6,0,P|176:155|179:108,2,90,2|8|2,0:1|0:0|0:1,0:0:0:0:
97,253,34940,1,0,0:0:0:0:
151,324,35254,2,0,P|196:319|248:313,1,90,0|8,0:0|0:0,0:0:0:0:
309,371,35882,2,0,P|354:366|406:360,1,90,2|8,0:1|0:0,0:0:0:0:
466,301,36511,6,0,P|501:222|467:131,1,180,2|2,0:1|0:1,0:0:0:0:
401,81,37453,1,0,0:0:0:0:
325,127,37767,2,0,P|280:118|236:112,1,90,2|8,0:1|0:0,0:0:0:0:
146,105,38396,2,0,P|152:57|160:3,2,90,2|4|6,0:1|0:3|0:0,0:0:0:0:
30,242,39652,5,8,0:1:0:0:
176,346,40280,2,0,B|268:360|246:290|361:305,1,180,2|8,0:0|0:1,0:0:0:0:
355,123,41537,6,0,B|263:109|285:179|170:164,1,180,2|8,0:0|0:1,0:0:0:0:
49,47,42793,2,0,P|39:136|34:226,1,180,2|8,0:0|0:1,0:0:0:0:
256,192,44050,12,6,47663,0:0:0:0:
50,327,49076,6,0,B|140:341|120:279|228:293,1,180,6|2,0:1|0:1,0:0:0:0:
392,349,50333,2,0,P|401:268|412:162,1,180,0|2,0:0|0:1,0:0:0:0:
452,90,51275,1,8,0:0:0:0:
374,43,51589,6,0,P|325:37|280:32,1,90,2|8,0:1|0:0,0:0:0:0:
208,80,52218,2,0,P|159:74|114:69,1,90,2|0,0:1|0:0,0:0:0:0:
40,113,52846,2,0,P|30:160|19:213,2,90,0|8|2,0:0|0:0|0:1,0:0:0:0:
118,69,53788,1,8,0:0:0:0:
208,80,54102,6,0,P|255:129|256:238,1,180,2|2,0:1|0:1,0:0:0:0:
90,306,55359,2,0,P|43:257|40:136,1,180,0|2,0:0|0:1,0:0:0:0:
91,80,56301,1,8,0:0:0:0:
177,103,56615,6,0,P|224:97|274:91,1,90,2|8,0:1|0:0,0:0:0:0:
349,126,57244,2,0,P|353:175|355:223,1,90,2|0,0:1|0:0,0:0:0:0:
340,304,57872,2,0,B|253:338|257:253|148:297,1,180,0|2,0:1|0:1,0:0:0:0:
89,336,58814,1,8,0:0:0:0:
37,263,59129,6,0,P|24:173|15:84,1,180,6|2,0:1|0:1,0:0:0:0:
183,18,60385,2,0,P|232:11|281:2,1,90,0|8,0:0|0:0,0:0:0:0:
289,92,61013,2,0,P|239:98|191:107,1,90,2|8,0:1|0:0,0:0:0:0:
111,89,61642,6,0,B|77:179|148:192|101:282,1,180,2|2,0:1|0:1,0:0:0:0:
270,344,62898,2,0,B|304:253|233:240|280:150,1,180,0|2,0:1|0:1,0:0:0:0:
330,99,63841,1,8,0:0:0:0:
267,34,64155,6,0,P|196:38|122:46,2,135,2|0|0,0:1|0:0|0:0,0:0:0:0:
330,99,65411,2,0,P|397:95|464:88,2,135,0|0|8,0:1|0:0|0:0,0:0:0:0:
272,168,66668,6,0,P|201:172|127:180,2,135,2|0|0,0:1|0:0|0:0,0:0:0:0:
330,99,67924,2,0,P|386:156|385:267,1,180,0|8,0:0|0:0,0:0:0:0:
246,359,69181,6,0,P|156:353|67:340,1,180,6|2,0:1|0:1,0:0:0:0:
37,162,70437,2,0,P|126:167|215:180,1,180,0|2,0:1|0:1,0:0:0:0:
289,232,71380,1,8,0:0:0:0:
375,206,71694,6,0,P|379:159|383:92,1,90,2|8,0:1|0:0,0:0:0:0:
471,122,72322,2,0,P|468:166|464:211,1,90,2|0,0:1|0:0,0:0:0:0:
444,299,72951,2,0,B|354:280|362:357|259:338,1,180,0|2,0:0|0:1,0:0:0:0:
209,277,73893,1,8,0:0:0:0:
119,283,74207,6,0,P|108:213|93:95,1,180,2|2,0:1|0:1,0:0:0:0:
247,10,75464,2,0,P|258:80|273:198,1,180,0|2,0:0|0:1,0:0:0:0:
358,211,76406,1,8,0:0:0:0:
423,149,76720,6,0,P|421:104|417:59,1,90,2|8,0:1|0:0,0:0:0:0:
335,24,77348,2,0,P|292:17|240:9,1,90,2|0,0:1|0:0,0:0:0:0:
169,58,77977,2,0,B|134:132|219:142|176:229,1,180,0|10,0:0|0:0,0:0:0:0:
249,282,78919,1,10,0:0:0:0:
335,256,79233,6,0,B|370:180|285:170|327:84,1,180,6|2,0:1|0:1,0:0:0:0:
151,42,80490,2,0,P|142:86|140:130,1,90,0|8,0:1|0:0,0:0:0:0:
213,184,81118,2,0,P|210:228|200:272,1,90,2|8,0:1|0:0,0:0:0:0:
142,341,81746,6,0,P|92:346|35:347,2,90,2|8|2,0:1|0:0|0:1,0:0:0:0:
200,272,82689,1,0,0:0:0:0:
289,260,83003,2,0,B|314:191|248:174|277:80,1,180,0|2,0:0|0:1,0:0:0:0:
444,22,84259,6,0,B|416:111|482:128|457:197,1,180,2|2,0:1|0:1,0:0:0:0:
390,257,85202,1,0,0:0:0:0:
312,211,85516,2,0,P|247:203|126:193,1,180,0|2,0:1|0:1,0:0:0:0:
20,334,86773,5,4,0:0:0:0:
