osu file format v14

[General]
AudioFilename: audio.mp3
AudioLeadIn: 0
PreviewTime: 48134
Countdown: 0
SampleSet: Soft
StackLeniency: 0.7
Mode: 0
LetterboxInBreaks: 0
WidescreenStoryboard: 0

[Editor]
DistanceSpacing: 1.3
BeatDivisor: 4
GridSize: 16
TimelineZoom: 1.3

[Metadata]
Title:Heikousen
TitleUnicode:平行線
Artist:Sayuri
ArtistUnicode:さユり
Creator:Agatsu
Version:Akitoshi's Hard
Source:クズの本懐
Tags:kuzu no honkai ending scum's wish tv size scums akitoshi corinn hazu-
BeatmapID:1255205
BeatmapSetID:587728

[Difficulty]
HPDrainRate:5
CircleSize:3.7
OverallDifficulty:6
ApproachRate:8
SliderMultiplier:1.4
SliderTickRate:1

[Events]
//Background and Video events
0,0,"bg.jpg",0,0
//Break Periods
//Storyboard Layer 0 (Background)
//Storyboard Layer 1 (Fail)
//Storyboard Layer 2 (Pass)
//Storyboard Layer 3 (Foreground)
//Storyboard Sound Samples

[TimingPoints]
151,405.405405405405,4,2,1,30,1,0
151,-133.333333333333,4,2,1,30,0,0
28972,314.13612565445,4,2,1,50,1,0
39024,-111.111111111111,4,2,1,50,0,0
44050,-100,4,2,1,60,0,0
49076,-90.9090909090909,4,2,1,75,0,1
68553,-90.9090909090909,4,2,1,75,0,0
69181,-90.9090909090909,4,2,1,75,0,1
86773,-100,4,2,1,75,0,0

[Colours]
Combo1 : 60,40,108
Combo2 : 34,35,72
Combo3 : 199,37,37
Combo4 : 226,14,78

[HitObjects]
147,202,151,6,0,L|257:190,1,105.000004005432,2|0,0:0|0:0,0:0:0:0:
270,293,961,2,0,L|160:305,1,105.000004005432,2|0,0:0|0:0,0:0:0:0:
67,265,1772,2,0,P|47:199|137:99,1,210.000008010865,2|2,0:0|0:0,0:0:0:0:
235,105,2988,1,0,0:0:0:0:
327,154,3394,6,0,L|445:144,1,105.000004005432,2|0,0:0|0:0,0:0:0:0:
488,56,4205,2,0,L|370:46,1,105.000004005432,2|0,0:0|0:0,0:0:0:0:
278,40,5015,2,0,B|237:90|237:90|260:248,1,210.000008010865,2|2,0:0|0:0,0:0:0:0:
60,307,6637,6,0,P|49:259|61:191,1,105.000004005432,2|0,0:0|0:0,0:0:0:0:
160,216,7448,2,0,P|171:264|159:332,1,105.000004005432,2|0,0:0|0:0,0:0:0:0:
267,334,8259,2,0,B|314:314|370:336|370:336|411:298|478:310,1,210.000008010865,2|2,0:0|0:0,0:0:0:0:
505,210,9475,1,2,0:0:0:0:
459,115,9880,6,0,P|371:59|258:77,2,210.000008010865,2|2|2,0:0|0:0|0:0,0:0:0:0:
306,259,12313,2,0,P|232:284|148:241,1,157.500006008148,2|0,0:0|0:0,0:0:0:0:
131,234,13123,6,0,P|156:190|70:55,2,210.000008010865,2|2|2,0:0|0:0|0:0,0:0:0:0:
55,160,15150,1,0,0:0:0:0:
92,61,15556,2,0,L|205:56,1,105.000004005432,2|0,0:0|0:0,0:0:0:0:
270,131,16367,6,0,B|292:165|292:165|288:245,1,105.000004005432,2|0,0:0|0:0,0:0:0:0:
405,300,17178,2,0,B|383:266|383:266|387:186,1,105.000004005432,2|0,0:0|0:0,0:0:0:0:
415,101,17988,2,0,P|390:59|241:58,1,210.000008010865,2|2,0:0|0:0,0:0:0:0:
177,135,19205,1,0,0:0:0:0:
227,227,19610,6,0,B|285:243|330:222|330:222|387:195|460:223|460:223|401:237|378:275,1,315.000012016297,2|0,0:0|0:0,0:0:0:0:
392,256,22042,2,0,B|364:207|364:207|377:83,1,157.500006008148,2|0,0:0|0:0,0:0:0:0:
383,54,22853,6,0,P|339:74|276:63,1,105.000004005432,2|0,0:0|0:0,0:0:0:0:
183,35,23664,2,0,L|202:251,2,210.000008010865,2|2|2,0:0|0:0|0:0,0:0:0:0:
256,192,25488,12,0,28529,0:0:0:0:
192,238,28972,6,0,B|236:223|236:223|348:234,1,140,6|8,0:0|0:1,0:0:0:0:
419,239,29443,1,0,0:0:0:0:
498,194,29600,2,0,P|499:148|503:119,1,70,0|2,0:0|0:1,0:0:0:0:
413,105,29914,2,0,P|412:59|408:30,1,70,8|0,0:1|0:0,0:0:0:0:
322,62,30228,5,2,0:1:0:0:
322,62,30385,2,0,P|279:67|225:59,1,70,0|0,0:0|0:1,0:0:0:0:
173,19,30699,2,0,P|130:14|76:22,1,70,0|0,0:0|0:1,0:0:0:0:
20,52,31013,1,0,0:0:0:0:
3,142,31170,2,0,L|11:227,1,70,8|0,0:1|0:0,0:0:0:0:
75,277,31485,6,0,P|139:296|211:247,2,140,2|8|0,0:1|0:1|0:0,0:0:0:0:
131,205,32270,1,0,0:0:0:0:
192,137,32427,2,0,L|277:129,1,70,8|0,0:1|0:0,0:0:0:0:
335,61,32741,6,0,B|306:95|306:95|317:198,2,140,2|8|0,0:1|0:1|0:0,0:0:0:0:
403,1,33526,1,2,0:1:0:0:
410,128,33684,1,8,0:0:0:0:
410,128,33998,6,0,L|491:116,1,70,2|0,0:1|0:0,0:0:0:0:
335,61,34312,2,0,L|254:49,1,70,8|0,0:0|0:0,0:0:0:0:
176,34,34626,1,2,0:1:0:0:
176,34,34783,2,0,P|162:76|167:116,1,70,2|0,0:1|0:0,0:0:0:0:
240,172,35097,6,0,P|181:148|93:183,1,140,8|0,0:0|0:0,0:0:0:0:
121,258,35568,2,0,P|153:266|206:255,1,70,8|0,0:0|0:0,0:0:0:0:
240,172,35882,1,2,0:1:0:0:
240,172,36040,1,2,0:1:0:0:
312,238,36197,2,0,P|313:271|318:319,1,70,8|0,0:0|0:0,0:0:0:0:
395,376,36511,6,0,P|456:362|495:271,1,140,2|8,0:1|0:0,0:0:0:0:
405,284,36982,1,0,0:0:0:0:
316,307,37139,1,2,0:1:0:0:
316,307,37296,2,0,L|232:299,1,70,2|0,0:1|0:0,0:0:0:0:
186,231,37610,1,8,0:0:0:0:
260,178,37767,6,0,B|278:136|278:136|258:32,1,140,2|8,0:1|0:0,0:0:0:0:
172,16,38239,1,0,0:0:0:0:
94,62,38396,2,0,P|57:63|17:61,1,70,2|2,0:1|0:1,0:0:0:0:
18,152,38710,2,0,P|55:151|95:153,1,70,4|0,0:3|0:0,0:0:0:0:
195,203,39024,6,0,B|218:262|196:324|196:324|264:291|264:291|327:298,1,251.999992309571,6|8,0:0|0:1,0:0:0:0:
316,296,40280,6,0,P|303:250|400:299,1,251.999992309571,2|8,0:0|0:1,0:0:0:0:
407,289,41537,6,0,B|376:234|420:171|420:171|393:101|393:101|360:157,1,251.999992309571,2|8,0:0|0:1,0:0:0:0:
367,144,42793,6,0,B|311:128|311:128|244:146|244:146|185:116|185:116|107:122,1,251.999992309571,2|8,0:0|0:1,0:0:0:0:
126,120,44050,6,0,P|105:182|141:256,1,140,6|8,0:0|0:0,0:0:0:0:
209,296,44521,1,0,0:0:0:0:
286,248,44678,2,0,B|333:227|333:227|436:234,1,140,8|8,0:0|0:0,0:0:0:0:
512,244,45150,1,0,0:0:0:0:
504,153,45307,6,0,P|455:123|350:143,1,140,8|8,0:0|0:0,0:0:0:0:
289,157,45778,1,0,0:0:0:0:
204,124,45935,2,0,L|200:45,1,70,8|0,0:0|0:0,0:0:0:0:
111,70,46249,2,0,L|115:149,1,70,8|0,0:0|0:0,0:0:0:0:
79,238,46563,6,0,P|31:244|-16:242,1,70,8|0,0:0|0:0,0:0:0:0:
144,307,46877,2,0,P|192:301|239:303,1,70,8|0,0:0|0:0,0:0:0:0:
312,207,47191,2,0,P|264:213|217:211,1,70,8|0,0:0|0:0,0:0:0:0:
146,130,47506,1,8,0:0:0:0:
79,238,47663,1,6,0:0:0:0:
79,238,49076,6,0,B|118:219|118:219|169:263|231:238,1,154.000004699707,6|8,0:1|0:0,0:0:0:0:
293,172,49547,1,0,0:0:0:0:
183,71,49704,2,0,L|187:148,1,77.0000023498536,2|2,0:1|0:1,0:0:0:0:
293,172,50019,2,0,L|289:95,1,77.0000023498536,0|8,0:0|0:0,0:0:0:0:
220,241,50333,6,0,P|284:272|373:234,2,154.000004699707,0|8|2,0:0|0:0|0:1,0:0:0:0:
293,172,51118,1,2,0:1:0:0:
374,263,51275,2,0,L|367:364,1,77.0000023498536,8|0,0:0|0:0,0:0:0:0:
476,240,51589,6,0,L|463:79,1,154.000004699707,2|8,0:1|0:0,0:0:0:0:
403,5,52061,1,0,0:0:0:0:
307,95,52218,2,0,P|224:107|152:68,1,154.000004699707,2|0,0:1|0:0,0:0:0:0:
88,10,52689,1,8,0:0:0:0:
40,131,52846,6,0,B|29:242|29:242|48:298,1,154.000004699707,0|8,0:0|0:0,0:0:0:0:
96,366,53317,1,0,0:0:0:0:
186,271,53474,2,0,P|184:231|183:182,1,77.0000023498536,2|2,0:1|0:1,0:0:0:0:
293,264,53788,2,0,P|291:304|290:353,1,77.0000023498536,8|0,0:0|0:0,0:0:0:0:
389,233,54102,6,0,P|358:186|257:168,1,154.000004699707,2|8,0:1|0:0,0:0:0:0:
293,264,54574,1,0,0:0:0:0:
381,337,54731,2,0,L|475:322,1,77.0000023498536,2|2,0:1|0:1,0:0:0:0:
508,238,55045,1,0,0:0:0:0:
508,238,55202,1,8,0:0:0:0:
448,157,55359,6,0,B|429:111|429:111|434:0,2,154.000004699707,0|8|2,0:0|0:0|0:1,0:0:0:0:
508,238,56144,1,2,0:1:0:0:
389,233,56301,2,0,L|304:243,1,77.0000023498536,8|0,0:0|0:0,0:0:0:0:
338,370,56615,6,0,P|358:290|283:236,1,154.000004699707,2|8,0:1|0:0,0:0:0:0:
213,232,57087,1,0,0:0:0:0:
139,300,57244,2,0,P|144:340|149:379,1,77.0000023498536,2|2,0:1|0:1,0:0:0:0:
229,325,57558,1,0,0:0:0:0:
59,330,57715,1,8,0:0:0:0:
122,213,57872,6,0,P|129:142|133:52,1,154.000004699707,0|8,0:0|0:0,0:0:0:0:
220,10,58343,1,0,0:0:0:0:
304,63,58500,2,0,P|340:53|388:47,1,77.0000023498536,2|2,0:1|0:1,0:0:0:0:
435,148,58814,2,0,P|398:138|351:132,1,77.0000023498536,8|0,0:0|0:0,0:0:0:0:
243,194,59129,6,0,B|229:299|229:299|269:353,1,154.000004699707,6|8,0:1|0:0,0:0:0:0:
331,269,59600,1,0,0:0:0:0:
243,194,59757,2,0,B|169:179|158:233|83:205,1,154.000004699707,2|0,0:1|0:0,0:0:0:0:
15,144,60228,1,8,0:0:0:0:
73,62,60385,6,0,P|111:58|149:52,1,77.0000023498536,0|0,0:0|0:0,0:0:0:0:
224,117,60699,2,0,P|262:121|300:127,1,77.0000023498536,8|0,0:0|0:0,0:0:0:0:
374,60,61013,1,2,0:1:0:0:
374,60,61170,1,2,0:1:0:0:
438,137,61328,2,0,P|442:175|448:213,1,77.0000023498536,8|0,0:0|0:0,0:0:0:0:
512,306,61642,6,0,P|479:274|353:289,1,154.000004699707,2|8,0:1|0:0,0:0:0:0:
426,358,62113,1,0,0:0:0:0:
330,198,62270,2,0,L|338:355,1,154.000004699707,2|0,0:1|0:0,0:0:0:0:
241,378,62741,1,8,0:0:0:0:
167,279,62898,6,0,B|67:268|67:268|8:285,1,154.000004699707,0|8,0:0|0:0,0:0:0:0:
66,368,63369,1,0,0:0:0:0:
167,279,63526,2,0,P|165:233|171:194,1,77.0000023498536,2|2,0:1|0:1,0:0:0:0:
264,169,63841,2,0,P|266:123|260:84,1,77.0000023498536,8|0,0:0|0:0,0:0:0:0:
119,102,64155,6,0,P|163:120|275:78,1,154.000004699707,2|8,0:1|0:0,0:0:0:0:
327,17,64626,2,0,P|363:21|405:25,1,77.0000023498536,0|2,0:0|0:1,0:0:0:0:
489,76,64940,1,2,0:1:0:0:
405,131,65097,2,0,P|401:167|397:209,1,77.0000023498536,0|8,0:0|0:0,0:0:0:0:
500,288,65411,6,0,P|483:234|389:210,1,154.000004699707,0|8,0:0|0:0,0:0:0:0:
308,255,65882,2,0,P|272:247|215:243,1,77.0000023498536,0|2,0:0|0:1,0:0:0:0:
284,363,66197,1,2,0:1:0:0:
162,378,66354,2,0,P|148:340|140:294,1,77.0000023498536,8|0,0:0|0:0,0:0:0:0:
59,201,66668,6,0,P|76:130|81:47,1,154.000004699707,2|8,0:1|0:0,0:0:0:0:
177,21,67139,1,0,0:0:0:0:
268,61,67296,2,0,P|306:55|369:50,1,77.0000023498536,2|2,0:1|0:1,0:0:0:0:
459,47,67610,1,0,0:0:0:0:
494,156,67767,1,8,0:0:0:0:
384,194,67924,6,0,B|370:237|396:281|396:281|382:348,1,154.000004699707,0|8,0:0|0:0,0:0:0:0:
287,373,68396,1,0,0:0:0:0:
195,331,68553,2,0,L|144:337,3,38.5000011749268,8|8|8|8,0:0|0:0|0:0|0:0,0:0:0:0:
113,309,68867,2,0,L|62:315,3,38.5000011749268,10|8|8|8,0:0|0:0|0:0|0:0,0:0:0:0:
38,348,69181,6,0,B|16:294|16:294|30:173,1,154.000004699707,6|8,0:1|0:0,0:0:0:0:
92,123,69652,1,0,0:0:0:0:
174,179,69809,2,0,P|213:189|268:174,1,77.0000023498536,2|2,0:1|0:1,0:0:0:0:
258,83,70123,2,0,P|219:73|164:88,1,77.0000023498536,0|8,0:0|0:0,0:0:0:0:
265,210,70437,6,0,P|347:203|435:197,2,154.000004699707,0|8|2,0:0|0:0|0:1,0:0:0:0:
218,299,71223,1,2,0:1:0:0:
130,224,71380,2,0,P|131:184|128:123,1,77.0000023498536,8|0,0:0|0:0,0:0:0:0:
165,37,71694,6,0,P|223:85|319:61,1,154.000004699707,2|8,0:1|0:0,0:0:0:0:
372,10,72165,1,0,0:0:0:0:
441,81,72322,2,0,P|487:72|521:72,2,77.0000023498536,2|2|0,0:1|0:1|0:0,0:0:0:0:
390,184,72793,6,0,B|381:232|381:232|402:294|402:294|387:369,1,154.000004699707,8|0,0:0|0:0,0:0:0:0:
298,363,73265,2,0,P|252:368|192:346,1,77.0000023498536,8|0,0:0|0:0,0:0:0:0:
138,307,73579,1,2,0:1:0:0:
138,307,73736,1,2,0:1:0:0:
204,232,73893,2,0,P|209:186|187:126,1,77.0000023498536,8|0,0:0|0:0,0:0:0:0:
107,90,74207,6,0,B|155:107|155:107|287:76,2,154.000004699707,2|8|2,0:1|0:0|0:1,0:0:0:0:
160,5,74992,1,2,0:1:0:0:
35,49,75150,2,0,P|25:87|42:142,1,77.0000023498536,0|8,0:0|0:0,0:0:0:0:
99,217,75464,6,0,P|173:206|253:200,2,154.000004699707,0|8|2,0:0|0:0|0:1,0:0:0:0:
13,269,76249,1,2,0:1:0:0:
99,318,76406,2,0,P|143:319|192:315,1,77.0000023498536,8|0,0:0|0:0,0:0:0:0:
267,276,76720,6,0,P|276:223|275:187,1,77.0000023498536,2|0,0:1|0:0,0:0:0:0:
374,216,77034,2,0,P|365:162|366:126,1,77.0000023498536,8|0,0:0|0:0,0:0:0:0:
277,91,77348,2,0,P|285:37|284:1,1,77.0000023498536,2|2,0:1|0:1,0:0:0:0:
168,8,77663,1,0,0:0:0:0:
105,105,77820,1,8,0:0:0:0:
211,152,77977,6,0,L|365:139,1,154.000004699707,0|8,0:0|0:0,0:0:0:0:
463,126,78448,1,0,0:0:0:0:
453,225,78605,2,0,P|449:252|448:278,3,38.5000011749268,10|8|8|8,0:0|0:0|0:0|0:0,0:0:0:0:
407,292,78919,2,0,P|411:319|412:345,3,38.5000011749268,10|8|8|8,0:0|0:0|0:0|0:0,0:0:0:0:
432,375,79233,6,0,B|381:360|381:360|273:371,1,154.000004699707,6|8,0:1|0:0,0:0:0:0:
184,342,79704,1,0,0:0:0:0:
224,249,79862,2,0,P|228:191|221:160,1,77.0000023498536,2|2,0:1|0:1,0:0:0:0:
124,172,80176,2,0,P|120:230|127:261,1,77.0000023498536,0|8,0:0|0:0,0:0:0:0:
184,342,80490,6,0,P|238:348|323:277,1,154.000004699707,0|8,0:0|0:0,0:0:0:0:
224,249,80961,1,0,0:0:0:0:
318,183,81118,2,0,L|404:185,1,77.0000023498536,2|2,0:1|0:1,0:0:0:0:
301,82,81432,2,0,L|215:84,1,77.0000023498536,8|0,0:0|0:0,0:0:0:0:
97,118,81746,6,0,B|79:162|79:162|90:269,2,154.000004699707,2|8|2,0:1|0:0|0:1,0:0:0:0:
142,27,82532,1,2,0:1:0:0:
224,83,82689,2,0,L|301:82,1,77.0000023498536,0|8,0:0|0:0,0:0:0:0:
393,174,83003,6,0,P|358:239|260:259,2,154.000004699707,0|8|2,0:0|0:0|0:1,0:0:0:0:
293,162,83788,1,2,0:1:0:0:
201,232,83945,2,0,P|207:274|210:313,1,77.0000023498536,8|0,0:0|0:0,0:0:0:0:
101,209,84259,6,0,P|113:121|119:39,1,154.000004699707,2|8,0:1|0:0,0:0:0:0:
208,9,84731,1,0,0:0:0:0:
289,76,84888,1,2,0:1:0:0:
289,76,85045,2,0,L|380:67,1,77.0000023498536,2|0,0:1|0:0,0:0:0:0:
441,155,85359,6,0,P|370:183|292:155,1,154.000004699707,8|0,0:0|0:0,0:0:0:0:
201,137,85830,2,0,P|206:175|210:221,1,77.0000023498536,8|0,0:0|0:0,0:0:0:0:
224,343,86144,1,2,0:1:0:0:
329,266,86301,1,2,0:1:0:0:
209,213,86458,2,0,P|171:211|114:214,1,77.0000023498536,8|0,0:0|0:0,0:0:0:0:
243,355,86773,5,4,0:0:0:0:
