osu file format v14

[General]
AudioFilename: audio.mp3
AudioLeadIn: 0
PreviewTime: 48134
Countdown: 0
SampleSet: Soft
StackLeniency: 0.7
Mode: 0
LetterboxInBreaks: 0
WidescreenStoryboard: 0

[Editor]
DistanceSpacing: 2.2
BeatDivisor: 4
GridSize: 4
TimelineZoom: 1.3

[Metadata]
Title:Heikousen
TitleUnicode:平行線
Artist:Sayuri
ArtistUnicode:さユり
Creator:Agatsu
Version:Hazu's Insane
Source:クズの本懐
Tags:kuzu no honkai ending scum's wish tv size scums akitoshi corinn hazu-
BeatmapID:1255201
BeatmapSetID:587728

[Difficulty]
HPDrainRate:6
CircleSize:4
OverallDifficulty:7
ApproachRate:9
SliderMultiplier:1.6
SliderTickRate:1

[Events]
//Background and Video events
0,0,"bg.jpg",0,0
//Break Periods
//Storyboard Layer 0 (Background)
//Storyboard Layer 1 (Fail)
//Storyboard Layer 2 (Pass)
//Storyboard Layer 3 (Foreground)
//Storyboard Sound Samples

[TimingPoints]
151,405.405405405405,4,2,1,30,1,0
151,-133.333333333333,4,2,1,30,0,0
23664,-142.857142857143,4,2,1,30,0,0
25286,-300,4,2,1,30,0,0
28732,-200,4,2,1,5,0,0
28972,314.13612565445,4,2,1,50,1,0
28972,-125,4,2,1,50,0,0
31406,-125,4,2,1,5,0,0
31485,-125,4,2,1,50,0,0
33919,-125,4,2,1,5,0,0
33998,-111.111111111111,4,2,1,50,0,0
38945,-111.111111111111,4,2,1,5,0,0
39024,-200,4,2,1,50,0,0
44050,-133.333333333333,4,2,1,60,0,0
47663,-200,4,2,1,60,0,0
48919,-200,4,2,1,5,0,0
49076,-100,4,2,1,75,0,1
56537,-100,4,2,1,5,0,1
56615,-100,4,2,1,75,0,1
64076,-100,4,2,1,5,0,1
64155,-100,4,2,1,75,0,1
68553,-100,4,2,1,75,0,0
69181,-100,4,2,1,75,0,1
76642,-100,4,2,1,5,0,1
76720,-100,4,2,1,75,0,1
84181,-100,4,2,1,5,0,1
84259,-100,4,2,1,75,0,1
86694,-100,4,2,1,5,0,1
86773,-100,4,2,1,75,0,0

[Colours]
Combo1 : 60,40,108
Combo2 : 34,35,72
Combo3 : 199,37,37
Combo4 : 226,14,78

[HitObjects]
212,48,151,6,0,P|216:96|220:172,1,120.000004577637,2|0,0:0|0:0,0:0:0:0:
300,340,961,1,2,0:0:0:0:
292,360,1772,2,0,P|256:336|172:344,1,120.000004577637,2|0,0:0|0:0,0:0:0:0:
40,224,2583,2,0,P|96:228|160:232,1,120.000004577637,2|0,0:0|0:0,0:0:0:0:
352,132,3394,6,0,P|344:192|340:252,1,120.000004577637,2|0,0:0|0:0,0:0:0:0:
260,40,4205,1,2,0:0:0:0:
248,24,5015,2,0,P|192:12|120:40,1,120.000004577637,2|0,0:0|0:0,0:0:0:0:
328,116,5826,1,2,0:0:0:0:
304,104,6637,6,0,P|348:100|428:96,1,120.000004577637,2|0,0:0|0:0,0:0:0:0:
160,36,7448,1,2,0:0:0:0:
148,52,8259,2,0,P|156:120|160:180,1,120.000004577637,2|0,0:0|0:0,0:0:0:0:
48,316,9069,1,2,0:0:0:0:
64,152,9475,1,0,0:0:0:0:
164,344,9880,6,0,P|223:339|283:336,1,120.000004577637,2|0,0:0|0:0,0:0:0:0:
464,368,10691,1,2,0:0:0:0:
484,352,11502,2,0,P|496:296|468:228,1,120.000004577637,2|0,0:0|0:0,0:0:0:0:
328,128,12313,2,0,P|284:132|196:136,1,120.000004577637,2|0,0:0|0:0,0:0:0:0:
36,240,13123,6,0,P|95:242|155:247,1,120.000004577637,2|0,0:0|0:0,0:0:0:0:
328,172,13934,1,2,0:0:0:0:
340,192,14745,2,0,P|332:240|324:320,1,120.000004577637,2|0,0:0|0:0,0:0:0:0:
192,80,15556,2,0,P|200:128|208:208,1,120.000004577637,2|0,0:0|0:0,0:0:0:0:
400,48,16367,6,0,P|336:28|276:40,1,120.000004577637,2|0,0:0|0:0,0:0:0:0:
104,148,17178,2,0,P|162:155|219:136,1,120.000004577637,2|0,0:0|0:0,0:0:0:0:
48,24,17988,1,2,0:0:0:0:
20,212,18394,1,0,0:0:0:0:
204,96,18799,1,2,0:0:0:0:
0,120,19205,1,0,0:0:0:0:
152,264,19610,6,0,P|224:252|292:248,2,120.000004577637,2|0|2,0:0|0:0|0:0,0:0:0:0:
152,264,22042,6,0,P|168:208|159:144,1,120.000004577637,2|0,0:0|0:0,0:0:0:0:
312,24,22853,2,0,P|308:83|304:143,1,120.000004577637,2|0,0:0|0:0,0:0:0:0:
244,328,23664,5,2,0:0:0:0:
256,312,24475,1,2,0:0:0:0:
268,296,25286,2,0,B|380:264|444:260|504:352|340:488|244:364|284:228|428:204|428:204,1,453.333333333333,2|0,0:0|0:0,0:0:0:0:
512,180,28972,6,0,P|504:232|496:316,1,128,6|8,0:0|0:1,0:0:0:0:
396,96,29443,1,0,0:0:0:0:
396,96,29521,1,8,0:1:0:0:
396,96,29600,2,0,P|400:120|404:172,1,64,0|2,0:0|0:1,0:0:0:0:
304,236,29914,2,0,P|284:232|232:228,1,64,8|0,0:1|0:0,0:0:0:0:
64,200,30228,5,2,0:1:0:0:
136,132,30385,2,0,P|160:188|136:264,1,128,0|0,0:0|0:0,0:0:0:0:
96,320,30778,1,8,0:1:0:0:
84,332,30856,2,0,P|36:328|8:328,1,64,0|2,0:0|0:1,0:0:0:0:
216,304,31170,2,0,P|252:308|324:312,1,96,8|0,0:1|0:0,0:0:0:0:
376,356,31485,6,0,P|352:308|392:236,1,128,2|8,0:1|0:1,0:0:0:0:
292,128,31956,1,0,0:0:0:0:
292,128,32034,1,8,0:1:0:0:
292,128,32113,2,0,P|296:172|300:216,1,64
216,312,32427,2,0,P|214:292|212:248,1,64,8|0,0:1|0:0,0:0:0:0:
168,76,32741,6,0,P|116:104|32:72,1,128,2|8,0:1|0:1,0:0:0:0:
4,204,33212,1,0,0:0:0:0:
4,204,33291,1,8,0:1:0:0:
4,204,33369,2,0,P|37:200|68:196,1,64,0|2,0:0|0:1,0:0:0:0:
244,260,33684,2,0,P|210:263|144:272,1,96,8|0,0:0|0:0,0:0:0:0:
124,300,33998,6,0,P|160:296|212:292,1,71.9999978027344,2|0,0:1|0:0,0:0:0:0:
240,172,34312,2,0,P|204:176|152:180,1,71.9999978027344,8|0,0:0|0:0,0:0:0:0:
368,220,34626,1,2,0:1:0:0:
320,64,34783,2,0,P|316:96|312:144,1,71.9999978027344,2|0,0:1|0:0,0:0:0:0:
340,300,35097,6,0,P|304:272|204:296,1,143.999995605469,8|0,0:0|0:0,0:0:0:0:
72,204,35568,2,0,P|116:208|168:212,1,71.9999978027344,8|0,0:0|0:0,0:0:0:0:
260,164,35882,1,2,0:1:0:0:
260,164,36040,1,2,0:1:0:0:
144,64,36197,2,0,P|148:92|152:148,1,71.9999978027344,8|0,0:0|0:0,0:0:0:0:
140,292,36511,5,2,0:1:0:0:
252,248,36668,1,0,0:0:0:0:
56,236,36825,2,0,P|64:288|72:384,1,143.999995605469,8|2,0:0|0:1,0:0:0:0:
172,132,37296,2,0,P|168:164|165:233,1,71.9999978027344,2|0,0:1|0:0,0:0:0:0:
80,52,37610,1,8,0:0:0:0:
256,80,37767,6,0,P|292:84|340:80,1,71.9999978027344,2|0,0:1|0:0,0:0:0:0:
56,44,38081,1,8,0:0:0:0:
200,20,38239,1,0,0:0:0:0:
200,20,38317,1,0,0:0:0:0:
200,20,38396,1,2,0:1:0:0:
44,132,38553,1,2,0:1:0:0:
260,84,38710,2,0,P|264:128|268:200,1,107.999996704102,4|0,0:3|0:0,0:0:0:0:
288,284,39024,6,0,P|220:256|132:292,1,160,6|8,0:0|0:1,0:0:0:0:
8,144,40280,6,0,P|87:139|166:128,1,160,2|8,0:0|0:1,0:0:0:0:
384,72,41537,6,0,P|348:116|388:212,1,160,2|8,0:0|0:1,0:0:0:0:
192,364,42793,6,0,P|188:280|184:188,1,160,2|8,0:0|0:1,0:0:0:0:
360,72,44050,6,0,P|356:120|356:148,1,60.0000022888184,6|0,0:0|0:0,0:0:0:0:
304,268,44364,1,8,0:0:0:0:
278,283,44442,1,0,0:0:0:0:
249,288,44521,1,0,0:0:0:0:
220,281,44599,1,0,0:0:0:0:
196,263,44678,2,0,L|200:216,3,30.0000011444092,8|0|0|0,0:0|0:0|0:0|0:0,0:0:0:0:
172,140,44992,2,0,L|175:92,3,30.0000011444092,8|0|0|0,0:0|0:0|0:0|0:0,0:0:0:0:
76,68,45307,5,8,0:0:0:0:
73,97,45385,1,0,0:0:0:0:
71,127,45464,1,0,0:0:0:0:
70,157,45542,1,0,0:0:0:0:
68,187,45621,2,0,L|72:232,3,30.0000011444092,8|0|0|0,0:0|0:0|0:0|0:0,0:0:0:0:
60,316,45935,2,0,L|63:360,3,30.0000011444092,8|0|0|0,0:0|0:0|0:0|0:0,0:0:0:0:
168,376,46249,5,8,0:0:0:0:
196,383,46327,1,0,0:0:0:0:
226,379,46406,1,0,0:0:0:0:
252,365,46484,1,0,0:0:0:0:
272,342,46563,2,0,L|268:296,3,30.0000011444092,8|0|0|0,0:0|0:0|0:0|0:0,0:0:0:0:
304,224,46877,2,0,L|299:177,3,30.0000011444092,8|0|0|0,0:0|0:0|0:0|0:0,0:0:0:0:
396,128,47191,5,8,0:0:0:0:
398,157,47269,1,0,0:0:0:0:
401,187,47348,1,0,0:0:0:0:
403,217,47426,1,0,0:0:0:0:
406,247,47506,2,0,L|408:292,1,30.0000011444092,8|0,0:0|0:0,0:0:0:0:
272,344,47663,6,0,B|152:376|152:292|40:324|40:324|84:328|124:356,1,320,6|0,0:0|0:0,0:0:0:0:
224,228,49076,6,0,P|216:136|208:56,1,160,6|8,0:1|0:0,0:0:0:0:
304,184,49547,1,0,0:0:0:0:
128,136,49704,1,2,0:1:0:0:
388,120,49862,2,0,P|384:156|380:208,1,80,2|0,0:1|0:0,0:0:0:0:
288,368,50176,6,0,P|232:328|140:364,1,160,8|0,0:0|0:0,0:0:0:0:
0,256,50647,2,0,P|39:254|79:251,1,80,8|0,0:0|0:0,0:0:0:0:
220,220,50961,1,2,0:1:0:0:
104,152,51118,1,2,0:1:0:0:
156,316,51275,2,0,P|195:321|234:331,1,80,8|0,0:0|0:0,0:0:0:0:
412,372,51589,6,0,P|412:268|476:228,1,160,2|8,0:1|0:0,0:0:0:0:
304,160,52061,1,0,0:0:0:0:
320,304,52218,1,2,0:1:0:0:
408,116,52375,2,0,P|452:124|508:128,1,80,2|0,0:1|0:0,0:0:0:0:
216,112,52689,6,0,P|220:160|224:284,1,160,8|0,0:0|0:0,0:0:0:0:
336,4,53160,2,0,P|332:40|328:92,1,80,8|0,0:0|0:0,0:0:0:0:
416,268,53474,2,0,P|412:228|308:216,1,160,2|8,0:1|0:0,0:0:0:0:
488,160,53946,1,0,0:0:0:0:
328,320,54102,6,0,P|284:316|152:312,1,160,2|8,0:1|0:0,0:0:0:0:
32,232,54574,1,0,0:0:0:0:
208,216,54731,1,2,0:1:0:0:
68,380,54888,2,0,P|72:348|76:292,1,80,2|0,0:1|0:0,0:0:0:0:
140,128,55202,6,0,B|224:96|224:164|316:124,1,160,8|0,0:0|0:0,0:0:0:0:
452,68,55673,2,0,P|448:112|448:172,1,80,8|0,0:0|0:0,0:0:0:0:
328,24,55987,1,2,0:1:0:0:
372,184,56144,1,2,0:1:0:0:
216,104,56301,2,0,P|168:108|88:112,1,120,8|0,0:0|0:0,0:0:0:0:
24,64,56615,6,0,P|56:140|12:223,1,160,2|8,0:1|0:0,0:0:0:0:
128,332,57087,1,0,0:0:0:0:
148,164,57244,1,2,0:1:0:0:
8,300,57401,2,0,P|12:328|16:388,1,80,2|0,0:1|0:0,0:0:0:0:
212,232,57715,6,0,P|240:176|196:84,1,160,8|0,0:0|0:0,0:0:0:0:
348,8,58186,2,0,P|344:40|340:104,1,80,8|0,0:0|0:0,0:0:0:0:
388,236,58500,1,2,0:1:0:0:
388,236,58657,1,2,0:1:0:0:
512,112,58814,2,0,P|484:116|428:120,1,80,8|0,0:0|0:0,0:0:0:0:
228,88,59129,6,0,B|244:132|244:132|235:247,1,160,6|8,0:1|0:0,0:0:0:0:
328,116,59600,1,0,0:0:0:0:
160,168,59757,1,2,0:1:0:0:
392,188,59914,2,0,P|388:232|384:284,1,80,2|0,0:1|0:0,0:0:0:0:
220,360,60228,6,0,P|184:320|80:340,1,160,8|0,0:0|0:0,0:0:0:0:
0,212,60699,2,0,P|44:208|88:204,1,80,8|0,0:0|0:0,0:0:0:0:
208,112,61013,1,2,0:1:0:0:
208,112,61170,1,2,0:1:0:0:
60,32,61328,2,0,P|64:56|68:112,1,80,8|0,0:0|0:0,0:0:0:0:
219,271,61642,6,0,P|211:179|207:107,1,160,2|8,0:1|0:0,0:0:0:0:
132,252,62113,1,0,0:0:0:0:
308,200,62270,1,2,0:1:0:0:
80,148,62426,2,0,P|44:152|-12:156,1,80,2|0,0:1|0:0,0:0:0:0:
208,56,62741,6,0,P|184:128|228:196,1,160,8|0,0:0|0:0,0:0:0:0:
444,136,63212,2,0,P|396:132|340:128,1,80,8|0,0:0|0:0,0:0:0:0:
296,292,63526,1,2,0:1:0:0:
440,236,63684,1,2,0:1:0:0:
226,194,63841,2,0,P|222:253|218:313,1,120,8|0,0:0|0:0,0:0:0:0:
132,336,64155,6,0,P|140:244|144:172,1,160,2|8,0:1|0:0,0:0:0:0:
217,313,64626,1,0,0:0:0:0:
56,256,64783,1,2,0:1:0:0:
304,240,64940,2,0,P|300:268|296:332,1,80,2|0,0:1|0:0,0:0:0:0:
232,92,65254,6,0,P|208:60|80:75,1,160,8|0,0:0|0:0,0:0:0:0:
400,36,65725,2,0,P|360:32|316:24,1,80,8|0,0:0|0:0,0:0:0:0:
152,128,66040,1,2,0:1:0:0:
316,108,66197,1,2,0:1:0:0:
124,132,66354,2,0,P|132:172|136:236,1,80,8|0,0:0|0:0,0:0:0:0:
248,372,66668,6,0,P|320:328|392:348,1,160,2|8,0:1|0:0,0:0:0:0:
200,276,67139,1,0,0:0:0:0:
352,216,67296,1,2,0:1:0:0:
116,200,67453,2,0,P|120:232|124:288,1,80,2|0,0:1|0:0,0:0:0:0:
280,64,67767,6,0,P|272:172|272:236,1,160,8|0,0:0|0:0,0:0:0:0:
384,368,68239,2,0,P|380:316|376:288,1,80,8|0,0:0|0:0,0:0:0:0:
196,172,68553,1,8,0:0:0:0:
192,188,68631,1,8,0:0:0:0:
188,204,68710,1,8,0:0:0:0:
158,215,68788,1,8,0:0:0:0:
126,218,68867,1,10,0:0:0:0:
95,210,68945,1,8,0:0:0:0:
65,199,69024,1,8,0:0:0:0:
34,197,69102,1,8,0:0:0:0:
2,204,69181,6,0,P|36:240|12:360,1,160,6|8,0:1|0:0,0:0:0:0:
96,124,69652,1,0,0:0:0:0:
132,296,69809,1,2,0:1:0:0:
196,80,69966,2,0,P|232:84|276:88,1,80,2|0,0:1|0:0,0:0:0:0:
492,72,70280,6,0,P|456:136|480:224,1,160,8|0,0:0|0:0,0:0:0:0:
388,384,70752,2,0,P|388:356|384:300,1,80,8|0,0:0|0:0,0:0:0:0:
348,128,71066,1,2,0:1:0:0:
296,284,71222,1,2,0:1:0:0:
444,200,71380,2,0,P|448:160|456:96,1,80,8|0,0:0|0:0,0:0:0:0:
256,48,71694,6,0,P|260:104|264:228,1,160,2|8,0:1|0:0,0:0:0:0:
168,80,72165,1,0,0:0:0:0:
348,128,72322,1,2,0:1:0:0:
104,180,72479,2,0,P|144:176|204:176,1,80,2|0,0:1|0:0,0:0:0:0:
400,60,72793,6,0,P|396:124|392:236,1,160,8|0,0:0|0:0,0:0:0:0:
512,344,73265,2,0,P|472:316|432:304,1,80,8|0,0:0|0:0,0:0:0:0:
288,372,73579,2,0,B|304:320|304:320|292:200,1,160,2|8,0:1|0:0,0:0:0:0:
384,360,74050,1,0,0:0:0:0:
212,244,74207,6,0,P|148:212|72:268,1,160,2|8,0:1|0:0,0:0:0:0:
264,140,74678,1,0,0:0:0:0:
104,116,74835,1,2,0:1:0:0:
344,84,74992,2,0,P|348:132|352:164,1,80,2|0,0:1|0:0,0:0:0:0:
328,356,75307,6,0,P|284:308|180:348,1,160,8|0,0:0|0:0,0:0:0:0:
448,236,75778,2,0,P|412:240|344:244,1,80,8|0,0:0|0:0,0:0:0:0:
224,160,76092,1,2,0:1:0:0:
388,152,76249,1,2,0:1:0:0:
264,264,76406,2,0,P|204:257|136:256,1,120,8|0,0:0|0:0,0:0:0:0:
120,344,76720,6,0,P|200:344|300:356,1,160,2|8,0:1|0:0,0:0:0:0:
428,328,77191,1,0,0:0:0:0:
264,264,77348,1,2,0:1:0:0:
512,252,77506,2,0,P|508:284|504:336,1,80,2|0,0:1|0:0,0:0:0:0:
392,136,77820,6,0,P|312:92|232:140,1,160,8|0,0:0|0:0,0:0:0:0:
80,48,78291,2,0,P|124:52|176:56,1,80,8|0,0:0|0:0,0:0:0:0:
232,212,78605,1,10,0:0:0:0:
212,210,78683,1,8,0:0:0:0:
192,208,78762,1,8,0:0:0:0:
165,225,78840,1,8,0:0:0:0:
147,252,78919,1,10,0:0:0:0:
141,283,78997,1,8,0:0:0:0:
146,314,79076,1,8,0:0:0:0:
163,341,79154,1,8,0:0:0:0:
188,360,79233,6,0,P|268:352|356:348,1,160,6|8,0:1|0:0,0:0:0:0:
392,216,79704,1,0,0:0:0:0:
444,376,79862,1,2,0:1:0:0:
468,160,80019,2,0,P|464:116|460:76,1,80,2|0,0:1|0:0,0:0:0:0:
244,20,80333,6,0,P|248:96|252:208,1,160,8|0,0:0|0:0,0:0:0:0:
120,316,80804,2,0,L|116:212,1,80,8|0,0:0|0:0,0:0:0:0:
176,100,81118,1,2,0:1:0:0:
176,100,81275,1,2,0:1:0:0:
284,268,81432,2,0,P|252:260|192:260,1,80,8|0,0:0|0:0,0:0:0:0:
400,352,81746,6,0,P|436:296|400:192,1,160,2|8,0:1|0:0,0:0:0:0:
312,104,82218,1,0,0:0:0:0:
484,164,82375,1,2,0:1:0:0:
272,188,82532,2,0,P|220:192|168:196,1,80,2|0,0:1|0:0,0:0:0:0:
40,56,82846,6,0,B|52:104|52:104|44:228,1,160,8|0,0:0|0:0,0:0:0:0:
160,360,83318,2,0,L|164:264,1,80,8|0,0:0|0:0,0:0:0:0:
208,124,83631,1,2,0:1:0:0:
272,264,83788,1,2,0:1:0:0:
100,196,83945,2,0,P|96:112|92:56,1,120,8|0,0:0|0:0,0:0:0:0:
176,44,84259,6,0,P|240:24|324:96,1,160,2|8,0:1|0:0,0:0:0:0:
392,192,84731,1,0,0:0:0:0:
420,32,84888,1,2,0:1:0:0:
480,228,85045,2,0,P|476:276|476:312,1,80,2|0,0:1|0:0,0:0:0:0:
280,368,85359,6,0,B|200:396|200:336|112:368,1,160,8|0,0:0|0:0,0:0:0:0:
0,252,85830,2,0,P|64:248|92:244,1,80,8|0,0:0|0:0,0:0:0:0:
256,228,86144,1,2,0:1:0:0:
100,160,86301,1,2,0:1:0:0:
344,156,86458,2,0,P|340:192|332:304,1,120,8|0,0:0|0:0,0:0:0:0:
320,368,86773,5,4,0:0:0:0:
