osu file format v14

[General]
AudioFilename: audio.mp3
AudioLeadIn: 0
PreviewTime: 123402
Countdown: 0
SampleSet: Normal
StackLeniency: 0.7
Mode: 1
LetterboxInBreaks: 0
WidescreenStoryboard: 1

[Editor]
Bookmarks: 33231,55174,66145,77117,101802,123745,146031,167631,189574,200545,211517,233802,255402,277345,307517,327059,348659,361002,382945
DistanceSpacing: 0.85
BeatDivisor: 4
GridSize: 4
TimelineZoom: 3.199999

[Metadata]
Title:Hana no Tou (nenpulse bootleg remix)
TitleUnicode:花の塔 (nenpulse bootleg remix)
Artist:Sayuri
ArtistUnicode:さユり
Creator:Rinze
Version:Dependence on Love
Source:リコリス・リコイル
Tags:ktyn ler1211 Lycoris Recoil japanese anime Tower of Flower 酸欠少女 Sanketsu-girl 宮田'レフティ'リョウ Ryo 'Lefty' Miyata ED ending full ver. version リコリコ LycoReco 錦木 千束 Nishikigi Chisato 井ノ上 たきな Inoue Takina electronic jcore j-core hardcore
BeatmapID:3808372
BeatmapSetID:1853416

[Difficulty]
HPDrainRate:5.2
CircleSize:5
OverallDifficulty:6
ApproachRate:5
SliderMultiplier:1.4
SliderTickRate:1

[Events]
//Background and Video events
0,0,"reco.jpg",0,34
//Break Periods
2,22459,29288
2,277545,284374
2,304974,305974
//Storyboard Layer 0 (Background)
//Storyboard Layer 1 (Fail)
//Storyboard Layer 2 (Pass)
//Storyboard Layer 3 (Foreground)
//Storyboard Layer 4 (Overlay)
//Storyboard Sound Samples

[TimingPoints]
317,342.857142857143,4,1,0,70,1,0
317,-111.111111111111,4,1,0,70,0,0
11288,-100,4,1,0,80,0,0
21574,-83.3333333333333,4,1,0,80,0,0
22088,-100,4,1,0,80,0,0
22602,-125,4,1,0,60,0,0
24317,-142.857142857143,4,1,0,60,0,0
30488,-142.857142857143,4,1,0,65,0,0
31859,-111.111111111111,4,1,0,70,0,0
32631,-83.3333333333333,4,1,0,80,0,0
33059,-111.111111111111,4,1,0,80,0,0
43774,-83.3333333333333,4,1,0,80,0,0
44202,-100,4,1,0,80,0,0
54745,-83.3333333333333,4,1,0,80,0,0
55088,-100,4,1,0,80,0,0
60059,-83.3333333333333,4,1,0,80,0,0
60402,-100,4,1,0,80,0,0
65717,-83.3333333333333,4,1,0,80,0,0
66060,-100,4,1,0,80,0,0
71202,-83.3333333333333,4,1,0,80,0,0
71545,-100,4,1,0,80,0,0
89455,-100,4,1,0,80,0,0
89541,-100.522495326524,4,1,0,78,0,0
89626,-101.04772066671,4,1,0,75,0,0
89712,-101.575690284753,4,1,0,73,0,0
89798,-102.106418519375,4,1,0,70,0,0
89884,-102.63991978422,4,1,0,68,0,0
89969,-103.17620856824,4,1,0,65,0,0
90055,-103.715299436094,4,1,0,63,0,0
90141,-104.257207028537,4,1,0,60,0,0
90226,-104.801946062826,4,1,0,58,0,0
90312,-105.34953133311,4,1,0,55,0,0
90398,-105.899977710841,4,1,0,53,0,0
90484,-106.45330014517,4,1,0,50,0,0
90569,-107.009513663358,4,1,0,48,0,0
90655,-107.568633371185,4,1,0,45,0,0
90741,-108.130674453356,4,1,0,70,0,0
90826,-108.695652173913,4,1,0,70,0,0
96315,-108.695652173913,4,1,0,70,0,0
96344,-108.595930605298,4,1,0,70,0,0
96372,-108.496300525082,4,1,0,70,0,0
96401,-108.396761849331,4,1,0,70,0,0
96429,-108.297314494186,4,1,0,70,0,0
96458,-108.197958375867,4,1,0,70,0,0
96486,-108.098693410669,4,1,0,70,0,0
96515,-107.999519514965,4,1,0,70,0,0
96544,-107.900436605204,4,1,0,71,0,0
96572,-107.801444597913,4,1,0,71,0,0
96601,-107.702543409693,4,1,0,71,0,0
96629,-107.603732957225,4,1,0,71,0,0
96658,-107.505013157263,4,1,0,71,0,0
96686,-107.406383926639,4,1,0,71,0,0
96715,-107.307845182262,4,1,0,71,0,0
96744,-107.209396841116,4,1,0,71,0,0
96772,-107.111038820262,4,1,0,71,0,0
96801,-107.012771036836,4,1,0,71,0,0
96829,-106.914593408051,4,1,0,71,0,0
96858,-106.816505851196,4,1,0,71,0,0
96886,-106.718508283635,4,1,0,71,0,0
96915,-106.620600622809,4,1,0,71,0,0
96944,-106.522782786234,4,1,0,72,0,0
96972,-106.425054691501,4,1,0,72,0,0
97001,-106.327416256278,4,1,0,72,0,0
97029,-106.229867398308,4,1,0,72,0,0
97058,-106.132408035409,4,1,0,72,0,0
97086,-106.035038085475,4,1,0,72,0,0
97115,-105.937757466476,4,1,0,72,0,0
97144,-105.840566096454,4,1,0,72,0,0
97172,-105.743463893531,4,1,0,72,0,0
97201,-105.646450775901,4,1,0,72,0,0
97229,-105.549526661832,4,1,0,72,0,0
97258,-105.452691469672,4,1,0,72,0,0
97286,-105.355945117837,4,1,0,72,0,0
97315,-105.259287524825,4,1,0,72,0,0
97344,-105.162718609202,4,1,0,73,0,0
97372,-105.066238289614,4,1,0,73,0,0
97401,-104.96984648478,4,1,0,73,0,0
97429,-104.873543113491,4,1,0,73,0,0
97458,-104.777328094616,4,1,0,73,0,0
97486,-104.681201347098,4,1,0,73,0,0
97515,-104.585162789951,4,1,0,73,0,0
97544,-104.489212342268,4,1,0,73,0,0
97572,-104.393349923213,4,1,0,73,0,0
97601,-104.297575452026,4,1,0,73,0,0
97629,-104.201888848019,4,1,0,73,0,0
97658,-104.10629003058,4,1,0,73,0,0
97686,-104.01077891917,4,1,0,73,0,0
97715,-103.915355433324,4,1,0,73,0,0
97744,-103.820019492651,4,1,0,73,0,0
97772,-103.724771016835,4,1,0,74,0,0
97801,-103.62960992563,4,1,0,74,0,0
97829,-103.534536138868,4,1,0,74,0,0
97858,-103.439549576451,4,1,0,74,0,0
97886,-103.344650158358,4,1,0,74,0,0
97915,-103.249837804637,4,1,0,74,0,0
97944,-103.155112435414,4,1,0,74,0,0
97972,-103.060473970885,4,1,0,74,0,0
98001,-102.96592233132,4,1,0,74,0,0
98029,-102.871457437063,4,1,0,74,0,0
98058,-102.77707920853,4,1,0,74,0,0
98086,-102.682787566212,4,1,0,74,0,0
98115,-102.58858243067,4,1,0,74,0,0
98144,-102.494463722539,4,1,0,74,0,0
98172,-102.400431362529,4,1,0,75,0,0
98201,-102.306485271419,4,1,0,75,0,0
98229,-102.212625370064,4,1,0,75,0,0
98258,-102.11885157939,4,1,0,75,0,0
98286,-102.025163820395,4,1,0,75,0,0
98315,-101.93156201415,4,1,0,75,0,0
98344,-101.8380460818,4,1,0,75,0,0
98372,-101.74461594456,4,1,0,75,0,0
98401,-101.651271523719,4,1,0,75,0,0
98429,-101.558012740636,4,1,0,75,0,0
98458,-101.464839516746,4,1,0,75,0,0
98486,-101.371751773551,4,1,0,75,0,0
98515,-101.27874943263,4,1,0,75,0,0
98544,-101.185832415631,4,1,0,75,0,0
98572,-101.093000644274,4,1,0,75,0,0
98601,-101.000254040351,4,1,0,76,0,0
98629,-100.907592525727,4,1,0,76,0,0
98658,-100.815016022338,4,1,0,76,0,0
98686,-100.722524452191,4,1,0,76,0,0
98715,-100.630117737365,4,1,0,76,0,0
98744,-100.537795800011,4,1,0,76,0,0
98772,-100.44555856235,4,1,0,76,0,0
98801,-100.353405946675,4,1,0,76,0,0
98829,-100.261337875352,4,1,0,76,0,0
98858,-100.169354270816,4,1,0,76,0,0
98886,-100.077455055573,4,1,0,76,0,0
98915,-99.9856401522023,4,1,0,76,0,0
98944,-99.8939094833526,4,1,0,76,0,0
98972,-99.8022629717437,4,1,0,76,0,0
99001,-99.7107005401667,4,1,0,77,0,0
99029,-99.6192221114833,4,1,0,77,0,0
99058,-99.527827608626,4,1,0,77,0,0
99086,-99.436516954598,4,1,0,77,0,0
99115,-99.3452900724732,4,1,0,77,0,0
99144,-99.254146885396,4,1,0,77,0,0
99172,-99.1630873165814,4,1,0,77,0,0
99201,-99.0721112893148,4,1,0,77,0,0
99229,-98.9812187269519,4,1,0,77,0,0
99258,-98.8904095529188,4,1,0,77,0,0
99286,-98.7996836907119,4,1,0,77,0,0
99315,-98.7090410638977,4,1,0,77,0,0
99344,-98.6184815961128,4,1,0,77,0,0
99372,-98.528005211064,4,1,0,77,0,0
99401,-98.437611832528,4,1,0,78,0,0
99429,-98.3473013843514,4,1,0,78,0,0
99458,-98.2570737904506,4,1,0,78,0,0
99486,-98.1669289748121,4,1,0,78,0,0
99515,-98.0768668614918,4,1,0,78,0,0
99544,-97.9868873746155,4,1,0,78,0,0
99572,-97.8969904383785,4,1,0,78,0,0
99601,-97.8071759770456,4,1,0,78,0,0
99629,-97.7174439149512,4,1,0,78,0,0
99658,-97.6277941764992,4,1,0,78,0,0
99686,-97.5382266861625,4,1,0,78,0,0
99715,-97.4487413684836,4,1,0,78,0,0
99744,-97.3593381480742,4,1,0,78,0,0
99772,-97.2700169496152,4,1,0,78,0,0
99801,-97.1807776978562,4,1,0,78,0,0
99829,-97.0916203176165,4,1,0,79,0,0
99858,-97.0025447337838,4,1,0,79,0,0
99886,-96.913550871315,4,1,0,79,0,0
99915,-96.8246386552357,4,1,0,79,0,0
99944,-96.7358080106406,4,1,0,79,0,0
99972,-96.6470588626926,4,1,0,79,0,0
100001,-96.5583911366237,4,1,0,79,0,0
100029,-96.4698047577343,4,1,0,79,0,0
100058,-96.3812996513934,4,1,0,79,0,0
100086,-96.2928757430384,4,1,0,79,0,0
100115,-96.2045329581752,4,1,0,79,0,0
100144,-96.1162712223779,4,1,0,79,0,0
100172,-96.0280904612891,4,1,0,79,0,0
100201,-95.9399906006194,4,1,0,79,0,0
100229,-95.8519715661476,4,1,0,80,0,0
100258,-95.7640332837208,4,1,0,80,0,0
100286,-95.6761756792538,4,1,0,80,0,0
100315,-95.5883986787297,4,1,0,80,0,0
100344,-95.5007022081992,4,1,0,80,0,0
100372,-95.4130861937811,4,1,0,80,0,0
100401,-95.3255505616617,4,1,0,80,0,0
100429,-95.2380952380954,4,1,0,80,0,0
101374,-83.3333333333333,4,1,0,80,0,0
101802,-100,4,1,0,90,0,0
112345,-83.3333333333333,4,1,0,90,0,0
112517,-100,4,1,0,90,0,0
123317,-83.3333333333333,4,1,0,90,0,0
123745,-92.5925925925926,4,1,0,100,0,1
134288,-92.5925925925926,4,1,0,100,0,1
134459,-92.5925925925926,4,1,0,100,0,1
145688,-92.5925925925926,4,1,0,100,0,0
146031,-92.5925925925926,4,1,0,100,0,1
156231,-83.3333333333333,4,1,0,100,0,1
156402,-87.719298245614,4,1,0,100,0,1
156574,-92.5925925925926,4,1,0,100,0,1
167202,-83.3333333333333,4,1,0,100,0,1
167631,-100,4,1,0,90,0,0
178174,-83.3333333333333,4,1,0,90,0,0
178345,-100,4,1,0,90,0,0
189145,-83.3333333333333,4,1,0,90,0,0
189317,-100,4,1,0,80,0,0
194459,-83.3333333333333,4,1,0,80,0,0
194802,-100,4,1,0,80,0,0
200117,-83.3333333333333,4,1,0,80,0,0
200289,-100,4,1,0,80,0,0
205602,-83.3333333333333,4,1,0,80,0,0
205774,-100,4,1,0,80,0,0
211088,-83.3333333333333,4,1,0,80,0,0
211517,-92.5925925925926,4,1,0,100,0,1
222059,-83.3333333333333,4,1,0,100,0,1
222231,-92.5925925925926,4,1,0,100,0,1
233459,-92.5925925925926,4,1,0,100,0,0
233802,-92.5925925925926,4,1,0,100,0,1
244002,-83.3333333333333,4,1,0,100,0,1
244173,-87.719298245614,4,1,0,100,0,1
244345,-92.5925925925926,4,1,0,100,0,1
254974,-92.5925925925926,4,1,0,100,0,1
255145,-83.3333333333333,4,1,0,100,0,1
255402,-100,4,1,0,90,0,0
265945,-83.3333333333333,4,1,0,90,0,0
266117,-100,4,1,0,90,0,0
277688,-133.333333333333,4,1,0,60,0,0
279059,-166.666666666667,4,1,0,60,0,0
286945,-133.333333333333,4,1,0,65,0,0
288231,-111.111111111111,4,1,0,70,0,0
296543,-111.111111111111,4,1,0,70,0,0
296572,-111.050155316833,4,1,0,70,0,0
296600,-110.989232963035,4,1,0,70,0,0
296629,-110.928344031371,4,1,0,70,0,0
296657,-110.867488503506,4,1,0,70,0,0
296686,-110.806666361114,4,1,0,70,0,0
296714,-110.745877585881,4,1,0,70,0,0
296743,-110.685122159499,4,1,0,70,0,0
296772,-110.624400063676,4,1,0,70,0,0
296800,-110.563711280124,4,1,0,70,0,0
296829,-110.50305579057,4,1,0,71,0,0
296857,-110.442433576747,4,1,0,71,0,0
296886,-110.381844620401,4,1,0,71,0,0
296914,-110.321288903287,4,1,0,71,0,0
296943,-110.26076640717,4,1,0,71,0,0
296972,-110.200277113823,4,1,0,71,0,0
297000,-110.139821005033,4,1,0,71,0,0
297029,-110.079398062595,4,1,0,71,0,0
297057,-110.019008268312,4,1,0,71,0,0
297086,-109.958651604,4,1,0,71,0,0
297114,-109.898328051484,4,1,0,71,0,0
297143,-109.838037592598,4,1,0,71,0,0
297172,-109.777780209188,4,1,0,71,0,0
297200,-109.717555883108,4,1,0,71,0,0
297229,-109.657364596222,4,1,0,71,0,0
297257,-109.597206330406,4,1,0,71,0,0
297286,-109.537081067543,4,1,0,71,0,0
297314,-109.476988789529,4,1,0,71,0,0
297343,-109.416929478268,4,1,0,71,0,0
297372,-109.356903115674,4,1,0,72,0,0
297400,-109.296909683671,4,1,0,72,0,0
297429,-109.236949164194,4,1,0,72,0,0
297457,-109.177021539187,4,1,0,72,0,0
297486,-109.117126790604,4,1,0,72,0,0
297514,-109.057264900409,4,1,0,72,0,0
297543,-108.997435850575,4,1,0,72,0,0
297572,-108.937639623086,4,1,0,72,0,0
297600,-108.877876199936,4,1,0,72,0,0
297629,-108.818145563129,4,1,0,72,0,0
297657,-108.758447694677,4,1,0,72,0,0
297686,-108.698782576604,4,1,0,72,0,0
297714,-108.639150190944,4,1,0,72,0,0
297743,-108.579550519738,4,1,0,72,0,0
297772,-108.519983545039,4,1,0,72,0,0
297800,-108.460449248911,4,1,0,72,0,0
297829,-108.400947613426,4,1,0,72,0,0
297857,-108.341478620666,4,1,0,72,0,0
297886,-108.282042252723,4,1,0,72,0,0
297914,-108.222638491699,4,1,0,73,0,0
297943,-108.163267319706,4,1,0,73,0,0
297972,-108.103928718866,4,1,0,73,0,0
298000,-108.044622671309,4,1,0,73,0,0
298029,-107.985349159178,4,1,0,73,0,0
298057,-107.926108164623,4,1,0,73,0,0
298086,-107.866899669804,4,1,0,73,0,0
298114,-107.807723656893,4,1,0,73,0,0
298143,-107.74858010807,4,1,0,73,0,0
298172,-107.689469005525,4,1,0,73,0,0
298200,-107.630390331458,4,1,0,73,0,0
298229,-107.571344068078,4,1,0,73,0,0
298257,-107.512330197605,4,1,0,73,0,0
298286,-107.453348702269,4,1,0,73,0,0
298314,-107.394399564307,4,1,0,73,0,0
298343,-107.335482765969,4,1,0,73,0,0
298372,-107.276598289514,4,1,0,73,0,0
298400,-107.217746117208,4,1,0,73,0,0
298429,-107.158926231331,4,1,0,73,0,0
298457,-107.10013861417,4,1,0,73,0,0
298486,-107.041383248021,4,1,0,74,0,0
298514,-106.982660115193,4,1,0,74,0,0
298543,-106.923969198001,4,1,0,74,0,0
298572,-106.865310478773,4,1,0,74,0,0
298600,-106.806683939844,4,1,0,74,0,0
298629,-106.748089563561,4,1,0,74,0,0
298657,-106.689527332278,4,1,0,74,0,0
298686,-106.630997228361,4,1,0,74,0,0
298714,-106.572499234185,4,1,0,74,0,0
298743,-106.514033332134,4,1,0,74,0,0
298772,-106.455599504603,4,1,0,74,0,0
298800,-106.397197733995,4,1,0,74,0,0
298829,-106.338828002723,4,1,0,74,0,0
298857,-106.280490293212,4,1,0,74,0,0
298886,-106.222184587894,4,1,0,74,0,0
298914,-106.16391086921,4,1,0,74,0,0
298943,-106.105669119614,4,1,0,74,0,0
298972,-106.047459321567,4,1,0,74,0,0
299000,-105.98928145754,4,1,0,74,0,0
299029,-105.931135510015,4,1,0,75,0,0
299057,-105.873021461481,4,1,0,75,0,0
299086,-105.814939294439,4,1,0,75,0,0
299114,-105.756888991399,4,1,0,75,0,0
299143,-105.698870534879,4,1,0,75,0,0
299172,-105.64088390741,4,1,0,75,0,0
299200,-105.582929091529,4,1,0,75,0,0
299229,-105.525006069784,4,1,0,75,0,0
299257,-105.467114824734,4,1,0,75,0,0
299286,-105.409255338945,4,1,0,75,0,0
299314,-105.351427594994,4,1,0,75,0,0
299343,-105.293631575468,4,1,0,75,0,0
299372,-105.235867262962,4,1,0,75,0,0
299400,-105.178134640083,4,1,0,75,0,0
299429,-105.120433689444,4,1,0,75,0,0
299457,-105.062764393671,4,1,0,75,0,0
299486,-105.005126735397,4,1,0,75,0,0
299514,-104.947520697266,4,1,0,75,0,0
299543,-104.889946261932,4,1,0,75,0,0
299572,-104.832403412057,4,1,0,76,0,0
299600,-104.774892130312,4,1,0,76,0,0
299629,-104.717412399381,4,1,0,76,0,0
299657,-104.659964201953,4,1,0,76,0,0
299686,-104.60254752073,4,1,0,76,0,0
299714,-104.545162338422,4,1,0,76,0,0
299743,-104.487808637747,4,1,0,76,0,0
299772,-104.430486401437,4,1,0,76,0,0
299800,-104.373195612228,4,1,0,76,0,0
299829,-104.315936252869,4,1,0,76,0,0
299857,-104.258708306118,4,1,0,76,0,0
299886,-104.201511754742,4,1,0,76,0,0
299914,-104.144346581516,4,1,0,76,0,0
299943,-104.087212769227,4,1,0,76,0,0
299972,-104.030110300671,4,1,0,76,0,0
300000,-103.973039158651,4,1,0,76,0,0
300029,-103.915999325982,4,1,0,76,0,0
300057,-103.858990785489,4,1,0,76,0,0
300086,-103.802013520003,4,1,0,76,0,0
300114,-103.745067512367,4,1,0,77,0,0
300143,-103.688152745433,4,1,0,77,0,0
300172,-103.631269202063,4,1,0,77,0,0
300200,-103.574416865127,4,1,0,77,0,0
300229,-103.517595717505,4,1,0,77,0,0
300257,-103.460805742087,4,1,0,77,0,0
300286,-103.404046921772,4,1,0,77,0,0
300314,-103.347319239467,4,1,0,77,0,0
300343,-103.29062267809,4,1,0,77,0,0
300372,-103.233957220569,4,1,0,77,0,0
300400,-103.17732284984,4,1,0,77,0,0
300429,-103.120719548848,4,1,0,77,0,0
300457,-103.064147300548,4,1,0,77,0,0
300486,-103.007606087906,4,1,0,77,0,0
300514,-102.951095893894,4,1,0,77,0,0
300543,-102.894616701496,4,1,0,77,0,0
300572,-102.838168493705,4,1,0,77,0,0
300600,-102.781751253521,4,1,0,77,0,0
300629,-102.725364963957,4,1,0,77,0,0
300657,-102.669009608033,4,1,0,78,0,0
300686,-102.612685168777,4,1,0,78,0,0
300714,-102.55639162923,4,1,0,78,0,0
300743,-102.50012897244,4,1,0,78,0,0
300772,-102.443897181464,4,1,0,78,0,0
300800,-102.38769623937,4,1,0,78,0,0
300829,-102.331526129233,4,1,0,78,0,0
300857,-102.275386834139,4,1,0,78,0,0
300886,-102.219278337183,4,1,0,78,0,0
300914,-102.163200621469,4,1,0,78,0,0
300943,-102.107153670111,4,1,0,78,0,0
300972,-102.05113746623,4,1,0,78,0,0
301000,-101.995151992959,4,1,0,78,0,0
301029,-101.939197233439,4,1,0,78,0,0
301057,-101.883273170821,4,1,0,78,0,0
301086,-101.827379788263,4,1,0,78,0,0
301114,-101.771517068935,4,1,0,78,0,0
301143,-101.715684996015,4,1,0,78,0,0
301172,-101.65988355269,4,1,0,78,0,0
301200,-101.604112722157,4,1,0,78,0,0
301229,-101.548372487621,4,1,0,79,0,0
301257,-101.492662832297,4,1,0,79,0,0
301286,-101.436983739411,4,1,0,79,0,0
301314,-101.381335192194,4,1,0,79,0,0
301343,-101.325717173889,4,1,0,79,0,0
301372,-101.27012966775,4,1,0,79,0,0
301400,-101.214572657035,4,1,0,79,0,0
301429,-101.159046125016,4,1,0,79,0,0
301457,-101.103550054971,4,1,0,79,0,0
301486,-101.04808443019,4,1,0,79,0,0
301514,-100.99264923397,4,1,0,79,0,0
301543,-100.937244449618,4,1,0,79,0,0
301572,-100.881870060449,4,1,0,79,0,0
301600,-100.826526049789,4,1,0,79,0,0
301629,-100.771212400972,4,1,0,79,0,0
301657,-100.715929097342,4,1,0,79,0,0
301686,-100.660676122251,4,1,0,79,0,0
301714,-100.605453459061,4,1,0,79,0,0
301743,-100.550261091143,4,1,0,79,0,0
301772,-100.495099001876,4,1,0,80,0,0
301800,-100.43996717465,4,1,0,80,0,0
301829,-100.384865592862,4,1,0,80,0,0
301857,-100.329794239921,4,1,0,80,0,0
301886,-100.274753099243,4,1,0,80,0,0
301914,-100.219742154252,4,1,0,80,0,0
301943,-100.164761388384,4,1,0,80,0,0
301972,-100.109810785082,4,1,0,80,0,0
302000,-100.0548903278,4,1,0,80,0,0
302029,-99.999999999998,4,1,0,80,0,0
304774,-99.999999999998,4,1,0,80,0,1
304945,-111.111111111111,4,1,0,60,0,1
307002,-92.5925925925926,4,1,0,100,0,1
307174,-92.5925925925926,4,1,0,100,0,0
307517,-92.5925925925926,4,1,0,100,0,1
315317,-83.3333333333333,4,1,0,100,0,1
315489,-92.5925925925926,4,1,0,100,0,1
326717,-92.5925925925926,4,1,0,100,0,0
327059,-92.5925925925926,4,1,0,100,0,1
337259,-83.3333333333333,4,1,0,100,0,1
337430,-87.719298245614,4,1,0,100,0,1
337602,-92.5925925925926,4,1,0,100,0,1
348317,-92.5925925925926,4,1,0,100,0,0
348659,-92.5925925925926,4,1,0,100,0,1
359459,-100,4,1,0,100,0,1
360574,-83.3333333333333,4,1,0,100,0,1
361002,-100,4,1,0,90,0,0
371545,-83.3333333333333,4,1,0,90,0,0
371717,-100,4,1,0,90,0,0
382859,-100,4,1,0,75,0,0
393745,-108.695652173913,4,1,0,70,0,0
399400,-108.695652173913,4,1,0,70,0,0
399429,-108.595930605298,4,1,0,70,0,0
399457,-108.496300525082,4,1,0,70,0,0
399486,-108.396761849331,4,1,0,70,0,0
399514,-108.297314494186,4,1,0,70,0,0
399543,-108.197958375867,4,1,0,70,0,0
399571,-108.098693410669,4,1,0,70,0,0
399600,-107.999519514965,4,1,0,70,0,0
399629,-107.900436605204,4,1,0,71,0,0
399657,-107.801444597913,4,1,0,71,0,0
399686,-107.702543409693,4,1,0,71,0,0
399714,-107.603732957225,4,1,0,71,0,0
399743,-107.505013157263,4,1,0,71,0,0
399771,-107.406383926639,4,1,0,71,0,0
399800,-107.307845182262,4,1,0,71,0,0
399829,-107.209396841116,4,1,0,71,0,0
399857,-107.111038820262,4,1,0,71,0,0
399886,-107.012771036836,4,1,0,71,0,0
399914,-106.914593408051,4,1,0,71,0,0
399943,-106.816505851196,4,1,0,71,0,0
399971,-106.718508283635,4,1,0,71,0,0
400000,-106.620600622809,4,1,0,71,0,0
400029,-106.522782786234,4,1,0,72,0,0
400057,-106.425054691501,4,1,0,72,0,0
400086,-106.327416256278,4,1,0,72,0,0
400114,-106.229867398308,4,1,0,72,0,0
400143,-106.132408035409,4,1,0,72,0,0
400171,-106.035038085475,4,1,0,72,0,0
400200,-105.937757466476,4,1,0,72,0,0
400229,-105.840566096454,4,1,0,72,0,0
400257,-105.743463893531,4,1,0,72,0,0
400286,-105.646450775901,4,1,0,72,0,0
400314,-105.549526661832,4,1,0,72,0,0
400343,-105.452691469672,4,1,0,72,0,0
400371,-105.355945117837,4,1,0,72,0,0
400400,-105.259287524825,4,1,0,72,0,0
400429,-105.162718609202,4,1,0,73,0,0
400457,-105.066238289614,4,1,0,73,0,0
400486,-104.96984648478,4,1,0,73,0,0
400514,-104.873543113491,4,1,0,73,0,0
400543,-104.777328094616,4,1,0,73,0,0
400571,-104.681201347098,4,1,0,73,0,0
400600,-104.585162789951,4,1,0,73,0,0
400629,-104.489212342268,4,1,0,73,0,0
400657,-104.393349923213,4,1,0,73,0,0
400686,-104.297575452026,4,1,0,73,0,0
400714,-104.201888848019,4,1,0,73,0,0
400743,-104.10629003058,4,1,0,73,0,0
400771,-104.01077891917,4,1,0,73,0,0
400800,-103.915355433324,4,1,0,73,0,0
400829,-103.820019492651,4,1,0,73,0,0
400857,-103.724771016835,4,1,0,74,0,0
400886,-103.62960992563,4,1,0,74,0,0
400914,-103.534536138868,4,1,0,74,0,0
400943,-103.439549576451,4,1,0,74,0,0
400971,-103.344650158358,4,1,0,74,0,0
401000,-103.249837804637,4,1,0,74,0,0
401029,-103.155112435414,4,1,0,74,0,0
401057,-103.060473970885,4,1,0,74,0,0
401086,-102.96592233132,4,1,0,74,0,0
401114,-102.871457437063,4,1,0,74,0,0
401143,-102.77707920853,4,1,0,74,0,0
401171,-102.682787566212,4,1,0,74,0,0
401200,-102.58858243067,4,1,0,74,0,0
401229,-102.494463722539,4,1,0,74,0,0
401257,-102.400431362529,4,1,0,75,0,0
401286,-102.306485271419,4,1,0,75,0,0
401314,-102.212625370064,4,1,0,75,0,0
401343,-102.11885157939,4,1,0,75,0,0
401371,-102.025163820395,4,1,0,75,0,0
401400,-101.93156201415,4,1,0,75,0,0
401429,-101.8380460818,4,1,0,75,0,0
401457,-101.74461594456,4,1,0,75,0,0
401486,-101.651271523719,4,1,0,75,0,0
401514,-101.558012740636,4,1,0,75,0,0
401543,-101.464839516746,4,1,0,75,0,0
401571,-101.371751773551,4,1,0,75,0,0
401600,-101.27874943263,4,1,0,75,0,0
401629,-101.185832415631,4,1,0,75,0,0
401657,-101.093000644274,4,1,0,75,0,0
401686,-101.000254040351,4,1,0,76,0,0
401714,-100.907592525727,4,1,0,76,0,0
401743,-100.815016022338,4,1,0,76,0,0
401771,-100.722524452191,4,1,0,76,0,0
401800,-100.630117737365,4,1,0,76,0,0
401829,-100.537795800011,4,1,0,76,0,0
401857,-100.44555856235,4,1,0,76,0,0
401886,-100.353405946675,4,1,0,76,0,0
401914,-100.261337875352,4,1,0,76,0,0
401943,-100.169354270816,4,1,0,76,0,0
401971,-100.077455055573,4,1,0,76,0,0
402000,-99.9856401522023,4,1,0,76,0,0
402029,-99.8939094833526,4,1,0,76,0,0
402057,-99.8022629717437,4,1,0,76,0,0
402086,-99.7107005401667,4,1,0,77,0,0
402114,-99.6192221114833,4,1,0,77,0,0
402143,-99.527827608626,4,1,0,77,0,0
402171,-99.436516954598,4,1,0,77,0,0
402200,-99.3452900724732,4,1,0,77,0,0
402229,-99.254146885396,4,1,0,77,0,0
402257,-99.1630873165814,4,1,0,77,0,0
402286,-99.0721112893148,4,1,0,77,0,0
402314,-98.9812187269519,4,1,0,77,0,0
402343,-98.8904095529188,4,1,0,77,0,0
402371,-98.7996836907119,4,1,0,77,0,0
402400,-98.7090410638977,4,1,0,77,0,0
402429,-98.6184815961128,4,1,0,77,0,0
402457,-98.528005211064,4,1,0,77,0,0
402486,-98.437611832528,4,1,0,78,0,0
402514,-98.3473013843514,4,1,0,78,0,0
402543,-98.2570737904506,4,1,0,78,0,0
402571,-98.1669289748121,4,1,0,78,0,0
402600,-98.0768668614918,4,1,0,78,0,0
402629,-97.9868873746155,4,1,0,78,0,0
402657,-97.8969904383785,4,1,0,78,0,0
402686,-97.8071759770456,4,1,0,78,0,0
402714,-97.7174439149512,4,1,0,78,0,0
402743,-97.6277941764992,4,1,0,78,0,0
402771,-97.5382266861625,4,1,0,78,0,0
402800,-97.4487413684836,4,1,0,78,0,0
402829,-97.3593381480742,4,1,0,78,0,0
402857,-97.2700169496152,4,1,0,78,0,0
402886,-97.1807776978562,4,1,0,78,0,0
402914,-97.0916203176165,4,1,0,79,0,0
402943,-97.0025447337838,4,1,0,79,0,0
402971,-96.913550871315,4,1,0,79,0,0
403000,-96.8246386552357,4,1,0,79,0,0
403029,-96.7358080106406,4,1,0,79,0,0
403057,-96.6470588626926,4,1,0,79,0,0
403086,-96.5583911366237,4,1,0,79,0,0
403114,-96.4698047577343,4,1,0,79,0,0
403143,-96.3812996513934,4,1,0,79,0,0
403171,-96.2928757430384,4,1,0,79,0,0
403200,-96.2045329581752,4,1,0,79,0,0
403229,-96.1162712223779,4,1,0,79,0,0
403257,-96.0280904612891,4,1,0,79,0,0
403286,-95.9399906006194,4,1,0,79,0,0
403314,-95.8519715661476,4,1,0,80,0,0
403343,-95.7640332837208,4,1,0,80,0,0
403371,-95.6761756792538,4,1,0,80,0,0
403400,-95.5883986787297,4,1,0,80,0,0
403429,-95.5007022081992,4,1,0,80,0,0
403457,-95.4130861937811,4,1,0,80,0,0
403486,-95.3255505616617,4,1,0,80,0,0
403514,-95.2380952380954,4,1,0,80,0,0

[HitObjects]
256,192,317,5,4,0:0:0:0:
221,99,659,1,8,0:0:0:0:
135,188,1002,1,0,0:0:0:0:
221,99,1345,1,8,0:0:0:0:
135,188,1688,1,0,0:0:0:0:
221,99,2031,1,8,0:0:0:0:
135,188,2374,1,0,0:0:0:0:
151,173,2545,1,0,0:0:0:0:
221,99,2717,1,8,0:0:0:0:
135,188,2888,1,8,0:0:0:0:
135,188,3059,1,0,0:0:0:0:
135,188,3402,1,8,0:0:0:0:
135,188,3745,1,0,0:0:0:0:
135,188,4088,1,8,0:0:0:0:
135,188,4431,1,0,0:0:0:0:
135,188,4774,1,8,0:0:0:0:
135,188,5117,1,0,0:0:0:0:
135,188,5288,1,8,0:0:0:0:
135,188,5631,1,8,0:0:0:0:
135,188,5802,1,0,0:0:0:0:
135,188,6145,1,8,0:0:0:0:
135,188,6488,1,0,0:0:0:0:
135,188,6831,1,8,0:0:0:0:
135,188,7174,1,0,0:0:0:0:
135,188,7517,1,8,0:0:0:0:
135,188,7859,1,0,0:0:0:0:
151,173,8031,1,0,0:0:0:0:
135,188,8202,1,8,0:0:0:0:
135,188,8374,1,8,0:0:0:0:
135,188,8545,1,0,0:0:0:0:
135,188,8888,1,8,0:0:0:0:
135,188,9231,1,0,0:0:0:0:
135,188,9574,1,8,0:0:0:0:
135,188,9917,1,4,0:0:0:0:
135,188,10088,1,8,0:0:0:0:
135,188,10431,5,8,0:0:0:0:
136,136,10488,1,8,0:0:0:0:
136,136,10545,1,8,0:0:0:0:
136,136,10602,1,0,0:0:0:0:
253,86,10688,1,0,0:0:0:0:
123,105,10859,1,0,0:0:0:0:
123,105,10945,1,8,0:0:0:0:
156,139,11288,5,4,0:0:0:0:
181,138,11545,1,0,0:0:0:0:
108,116,11631,1,8,0:0:0:0:
163,166,11802,1,8,0:0:0:0:
163,166,11974,1,0,0:0:0:0:
163,166,12145,1,0,0:0:0:0:
163,166,12231,1,0,0:0:0:0:
108,116,12317,1,8,0:0:0:0:
163,166,12488,1,8,0:0:0:0:
163,166,12659,1,0,0:0:0:0:
176,114,12917,1,0,0:0:0:0:
108,116,13002,1,8,0:0:0:0:
163,166,13174,1,8,0:0:0:0:
163,166,13345,1,0,0:0:0:0:
223,118,13517,1,8,0:0:0:0:
151,156,13602,1,0,0:0:0:0:
108,116,13688,1,8,0:0:0:0:
151,146,13859,1,8,0:0:0:0:
163,166,14031,1,0,0:0:0:0:
181,138,14288,1,0,0:0:0:0:
108,116,14374,1,8,0:0:0:0:
156,97,14545,1,8,0:0:0:0:
223,118,14631,1,8,0:0:0:0:
156,97,14717,1,0,0:0:0:0:
157,82,14888,1,0,0:0:0:0:
108,116,15059,1,8,0:0:0:0:
157,82,15231,1,8,0:0:0:0:
157,82,15402,1,0,0:0:0:0:
176,114,15659,1,0,0:0:0:0:
108,116,15745,1,8,0:0:0:0:
151,143,15917,1,8,0:0:0:0:
229,141,16002,1,8,0:0:0:0:
153,86,16088,1,0,0:0:0:0:
229,141,16259,1,8,0:0:0:0:
151,173,16345,1,0,0:0:0:0:
108,116,16431,1,8,0:0:0:0:
161,108,16602,1,8,0:0:0:0:
181,131,16774,1,0,0:0:0:0:
199,110,16945,1,0,0:0:0:0:
181,131,17117,1,8,0:0:0:0:
142,289,17288,1,8,0:0:0:0:
142,289,17459,1,0,0:0:0:0:
176,164,17631,1,0,0:0:0:0:
161,108,17802,1,8,0:0:0:0:
142,289,17974,1,8,0:0:0:0:
144,98,18059,1,8,0:0:0:0:
142,289,18145,1,0,0:0:0:0:
142,289,18317,1,0,0:0:0:0:
169,97,18488,1,8,0:0:0:0:
142,289,18659,1,8,0:0:0:0:
142,289,18831,1,0,0:0:0:0:
147,141,19002,1,8,0:0:0:0:
161,108,19174,1,8,0:0:0:0:
161,108,19345,1,8,0:0:0:0:
134,120,19431,1,8,0:0:0:0:
161,108,19517,1,0,0:0:0:0:
161,108,19602,1,0,0:0:0:0:
161,108,19688,1,8,0:0:0:0:
161,108,19774,1,0,0:0:0:0:
161,108,19859,1,8,0:0:0:0:
161,108,19945,1,8,0:0:0:0:
161,108,20031,1,0,0:0:0:0:
161,108,20117,1,8,0:0:0:0:
161,108,20202,1,0,0:0:0:0:
161,108,20288,1,0,0:0:0:0:
161,108,20374,1,8,0:0:0:0:
161,108,20459,1,8,0:0:0:0:
167,121,20545,1,0,0:0:0:0:
167,121,20602,1,0,0:0:0:0:
166,126,20659,1,0,0:0:0:0:
166,131,20717,1,8,0:0:0:0:
208,140,20802,1,8,0:0:0:0:
208,140,20888,1,0,0:0:0:0:
161,115,21745,1,12,0:0:0:0:
161,115,21917,1,12,0:0:0:0:
161,115,22259,1,4,0:0:0:0:
256,192,30488,12,0,32545,0:0:0:0:
191,123,32717,5,12,0:0:0:0:
191,123,32888,1,12,0:0:0:0:
256,192,33231,5,4,0:0:0:0:
256,192,33574,1,8,0:0:0:0:
256,192,33745,1,0,0:0:0:0:
256,192,34088,1,8,0:0:0:0:
256,192,34431,1,0,0:0:0:0:
256,192,35117,1,8,0:0:0:0:
256,192,35459,1,0,0:0:0:0:
256,192,35631,1,8,0:0:0:0:
256,192,35802,1,8,0:0:0:0:
256,192,35974,1,0,0:0:0:0:
256,192,36145,1,0,0:0:0:0:
256,192,36488,1,8,0:0:0:0:
256,192,36831,1,8,0:0:0:0:
256,192,37002,1,8,0:0:0:0:
256,192,37174,1,0,0:0:0:0:
256,192,37517,1,0,0:0:0:0:
256,192,37859,1,8,0:0:0:0:
256,192,38031,1,0,0:0:0:0:
256,192,38717,1,8,0:0:0:0:
256,192,39231,1,0,0:0:0:0:
256,192,39402,1,8,0:0:0:0:
256,192,39745,1,8,0:0:0:0:
256,192,39917,1,0,0:0:0:0:
256,192,40259,1,8,0:0:0:0:
256,192,40602,1,0,0:0:0:0:
256,192,40774,1,8,0:0:0:0:
256,192,41117,1,8,0:0:0:0:
256,192,41288,1,0,0:0:0:0:
256,192,41459,1,8,0:0:0:0:
256,192,41631,1,8,0:0:0:0:
256,192,41802,1,0,0:0:0:0:
256,192,41974,1,8,0:0:0:0:
256,192,42317,1,8,0:0:0:0:
256,192,42659,1,4,0:0:0:0:
256,192,43002,1,8,0:0:0:0:
256,192,43345,1,0,0:0:0:0:
256,192,43517,1,8,0:0:0:0:
256,192,43688,1,0,0:0:0:0:
256,192,43859,1,12,0:0:0:0:
256,192,44202,1,4,0:0:0:0:
256,192,44545,1,8,0:0:0:0:
256,192,44717,1,0,0:0:0:0:
256,192,44802,1,0,0:0:0:0:
256,192,44888,1,8,0:0:0:0:
256,192,45059,1,8,0:0:0:0:
256,192,45231,1,0,0:0:0:0:
256,192,45402,1,8,0:0:0:0:
256,192,45488,1,8,0:0:0:0:
256,192,45574,1,0,0:0:0:0:
256,192,45745,1,8,0:0:0:0:
256,192,45917,1,8,0:0:0:0:
256,192,46088,1,0,0:0:0:0:
256,192,46174,1,0,0:0:0:0:
256,192,46259,1,0,0:0:0:0:
256,192,46431,1,8,0:0:0:0:
256,192,46602,1,0,0:0:0:0:
256,192,46688,1,0,0:0:0:0:
256,192,46774,1,8,0:0:0:0:
256,192,46859,1,8,0:0:0:0:
256,192,46945,1,0,0:0:0:0:
256,192,47288,1,8,0:0:0:0:
256,192,47459,1,0,0:0:0:0:
256,192,47545,1,0,0:0:0:0:
256,192,47631,1,8,0:0:0:0:
256,192,47802,1,0,0:0:0:0:
256,192,47974,1,8,0:0:0:0:
256,192,48145,1,0,0:0:0:0:
256,192,48231,1,8,0:0:0:0:
256,192,48317,1,0,0:0:0:0:
256,192,48488,1,8,0:0:0:0:
256,192,48659,1,0,0:0:0:0:
256,192,48831,1,8,0:0:0:0:
256,192,48917,1,8,0:0:0:0:
256,192,49002,1,0,0:0:0:0:
256,192,49174,1,8,0:0:0:0:
256,192,49259,1,8,0:0:0:0:
256,192,49345,1,0,0:0:0:0:
256,192,49688,1,0,0:0:0:0:
256,192,49859,1,0,0:0:0:0:
256,192,50031,1,8,0:0:0:0:
256,192,50202,1,8,0:0:0:0:
256,192,50374,1,0,0:0:0:0:
256,192,50545,1,8,0:0:0:0:
256,192,50717,1,0,0:0:0:0:
256,192,50888,1,0,0:0:0:0:
256,192,51059,1,8,0:0:0:0:
256,192,51231,1,8,0:0:0:0:
256,192,51402,1,0,0:0:0:0:
256,192,51574,1,8,0:0:0:0:
256,192,51745,1,0,0:0:0:0:
256,192,51917,1,0,0:0:0:0:
256,192,52088,1,8,0:0:0:0:
256,192,52259,1,8,0:0:0:0:
256,192,52431,1,0,0:0:0:0:
256,192,52517,1,0,0:0:0:0:
256,192,52602,1,8,0:0:0:0:
256,192,52688,1,8,0:0:0:0:
256,192,52774,1,0,0:0:0:0:
256,192,52859,1,8,0:0:0:0:
256,192,52945,1,0,0:0:0:0:
256,192,53031,1,0,0:0:0:0:
256,192,53117,1,8,0:0:0:0:
125,154,53202,1,8,0:0:0:0:
256,192,53288,1,8,0:0:0:0:
256,192,53374,1,8,0:0:0:0:
256,192,53459,1,0,0:0:0:0:
256,192,53517,1,0,0:0:0:0:
256,192,53574,1,0,0:0:0:0:
256,192,53631,1,8,0:0:0:0:
256,192,53717,1,8,0:0:0:0:
256,192,53802,1,0,0:0:0:0:
256,192,54145,5,0,0:0:0:0:
256,192,54317,1,8,0:0:0:0:
256,192,54659,1,0,0:0:0:0:
256,192,54831,1,12,0:0:0:0:
158,110,55174,5,4,0:0:0:0:
169,82,55345,1,0,0:0:0:0:
167,193,55517,1,8,0:0:0:0:
161,87,55688,1,8,0:0:0:0:
186,117,55774,1,8,0:0:0:0:
167,193,55859,1,0,0:0:0:0:
186,117,56031,1,0,0:0:0:0:
167,193,56202,1,8,0:0:0:0:
161,90,56374,1,0,0:0:0:0:
156,94,56459,1,8,0:0:0:0:
161,90,56545,1,0,0:0:0:0:
146,128,56717,1,0,0:0:0:0:
146,128,56802,1,0,0:0:0:0:
143,132,56888,1,8,0:0:0:0:
141,138,57059,1,8,0:0:0:0:
141,136,57402,1,8,0:0:0:0:
141,136,57488,1,0,0:0:0:0:
141,136,57574,1,8,0:0:0:0:
161,87,57745,1,8,0:0:0:0:
143,132,57917,1,0,0:0:0:0:
163,94,58088,1,0,0:0:0:0:
176,130,58174,1,0,0:0:0:0:
158,110,58259,1,8,0:0:0:0:
169,82,58431,1,8,0:0:0:0:
159,113,58517,1,8,0:0:0:0:
159,113,58602,1,0,0:0:0:0:
163,109,58774,1,0,0:0:0:0:
163,109,58945,1,8,0:0:0:0:
163,109,59117,1,0,0:0:0:0:
81,159,59202,1,0,0:0:0:0:
81,159,59288,1,8,0:0:0:0:
81,159,59374,1,8,0:0:0:0:
181,105,59459,1,0,0:0:0:0:
157,104,59631,1,8,0:0:0:0:
186,107,59802,1,0,0:0:0:0:
163,83,59888,1,8,0:0:0:0:
163,83,59974,1,0,0:0:0:0:
163,83,60145,1,12,0:0:0:0:
163,83,60317,1,12,0:0:0:0:
181,131,60659,1,0,0:0:0:0:
153,78,60831,1,8,0:0:0:0:
153,89,61002,1,0,0:0:0:0:
181,131,61174,1,8,0:0:0:0:
181,131,61345,1,0,0:0:0:0:
141,130,61517,1,0,0:0:0:0:
141,153,61688,1,8,0:0:0:0:
161,108,61859,1,8,0:0:0:0:
153,69,62031,1,0,0:0:0:0:
178,59,62202,1,8,0:0:0:0:
141,130,62374,1,0,0:0:0:0:
161,139,62545,1,0,0:0:0:0:
166,106,62717,1,8,0:0:0:0:
161,108,62888,1,8,0:0:0:0:
179,83,63059,1,0,0:0:0:0:
161,108,63231,1,8,0:0:0:0:
161,108,63402,1,0,0:0:0:0:
155,48,63488,1,8,0:0:0:0:
156,62,63574,1,0,0:0:0:0:
156,68,63659,1,0,0:0:0:0:
161,108,63745,1,8,0:0:0:0:
161,108,63831,1,0,0:0:0:0:
161,108,63917,1,8,0:0:0:0:
161,108,64002,1,8,0:0:0:0:
124,104,64088,1,0,0:0:0:0:
124,117,64174,1,0,0:0:0:0:
125,125,64259,1,8,0:0:0:0:
148,153,64345,1,8,0:0:0:0:
111,106,64431,1,0,0:0:0:0:
167,121,64488,1,0,0:0:0:0:
166,126,64545,1,0,0:0:0:0:
191,172,64602,1,8,0:0:0:0:
208,140,64688,1,8,0:0:0:0:
208,140,64774,1,0,0:0:0:0:
157,118,65631,5,0,0:0:0:0:
157,118,65802,1,12,0:0:0:0:
256,192,66145,5,4,0:0:0:0:
256,192,66488,1,0,0:0:0:0:
256,192,66659,1,8,0:0:0:0:
256,192,66745,1,8,0:0:0:0:
256,192,66831,1,0,0:0:0:0:
256,192,67002,1,8,0:0:0:0:
256,192,67174,1,0,0:0:0:0:
256,192,67259,1,0,0:0:0:0:
256,192,67345,1,0,0:0:0:0:
256,192,67517,1,8,0:0:0:0:
256,192,67859,1,0,0:0:0:0:
256,192,68031,1,0,0:0:0:0:
256,192,68117,1,0,0:0:0:0:
256,192,68202,1,8,0:0:0:0:
256,192,68374,1,0,0:0:0:0:
256,192,68545,1,8,0:0:0:0:
256,192,68888,1,0,0:0:0:0:
256,192,69059,1,8,0:0:0:0:
256,192,69145,1,8,0:0:0:0:
256,192,69231,1,0,0:0:0:0:
256,192,69402,1,8,0:0:0:0:
256,192,69574,1,0,0:0:0:0:
256,192,69745,1,8,0:0:0:0:
256,192,69831,1,0,0:0:0:0:
256,192,69917,1,8,0:0:0:0:
256,192,70088,1,8,0:0:0:0:
256,192,70259,1,0,0:0:0:0:
256,192,70431,1,8,0:0:0:0:
256,192,70517,1,8,0:0:0:0:
256,192,70602,1,0,0:0:0:0:
256,192,70774,1,8,0:0:0:0:
256,192,70945,1,0,0:0:0:0:
256,192,71031,1,0,0:0:0:0:
256,192,71117,1,0,0:0:0:0:
256,192,71288,1,12,0:0:0:0:
256,192,71631,1,0,0:0:0:0:
256,192,71802,1,0,0:0:0:0:
256,192,71974,1,8,0:0:0:0:
256,192,72145,1,0,0:0:0:0:
256,192,72317,1,8,0:0:0:0:
256,192,72488,1,0,0:0:0:0:
256,192,72659,1,8,0:0:0:0:
256,192,72831,1,0,0:0:0:0:
256,192,73002,1,8,0:0:0:0:
256,192,73174,1,0,0:0:0:0:
256,192,73259,1,0,0:0:0:0:
256,192,73345,1,8,0:0:0:0:
256,192,73517,1,0,0:0:0:0:
256,192,73688,1,8,0:0:0:0:
256,192,73859,1,0,0:0:0:0:
256,192,74031,1,8,0:0:0:0:
256,192,74202,1,0,0:0:0:0:
256,192,74374,1,8,0:0:0:0:
256,192,74459,1,0,0:0:0:0:
256,192,74545,1,0,0:0:0:0:
256,192,74717,1,8,0:0:0:0:
256,192,74888,1,0,0:0:0:0:
256,192,74974,1,8,0:0:0:0:
256,192,75059,1,8,0:0:0:0:
256,192,75231,1,0,0:0:0:0:
256,192,75317,1,0,0:0:0:0:
256,192,75402,1,8,0:0:0:0:
256,192,75574,1,8,0:0:0:0:
256,192,75745,1,0,0:0:0:0:
256,192,75831,1,0,0:0:0:0:
256,192,75917,1,8,0:0:0:0:
256,192,76002,5,0,0:0:0:0:
256,192,76088,1,8,0:0:0:0:
256,192,76174,1,8,0:0:0:0:
256,192,76259,1,0,0:0:0:0:
256,192,76345,1,0,0:0:0:0:
256,192,76431,1,8,0:0:0:0:
256,192,76517,1,8,0:0:0:0:
256,192,76602,1,8,0:0:0:0:
256,192,76688,1,8,0:0:0:0:
256,192,76774,1,0,0:0:0:0:
256,192,76831,1,0,0:0:0:0:
256,192,76888,1,0,0:0:0:0:
256,192,76945,1,8,0:0:0:0:
256,192,77031,1,8,0:0:0:0:
256,192,77117,12,0,79345,0:0:0:0:
99,229,79517,5,0,0:0:0:0:
223,148,79688,1,0,0:0:0:0:
223,148,79859,1,12,0:0:0:0:
176,208,80031,1,0,0:0:0:0:
176,208,80202,1,0,0:0:0:0:
169,184,80374,1,8,0:0:0:0:
176,208,80717,1,8,0:0:0:0:
176,208,81059,1,0,0:0:0:0:
176,208,81402,1,8,0:0:0:0:
176,208,81574,1,0,0:0:0:0:
176,208,81745,1,8,0:0:0:0:
160,183,82088,1,0,0:0:0:0:
160,183,82259,1,8,0:0:0:0:
176,208,82431,1,0,0:0:0:0:
160,183,82774,1,0,0:0:0:0:
160,183,82945,1,0,0:0:0:0:
160,183,83117,1,8,0:0:0:0:
160,183,83459,1,8,0:0:0:0:
160,183,83631,1,0,0:0:0:0:
229,153,83802,1,8,0:0:0:0:
201,168,84145,1,8,0:0:0:0:
229,153,84317,1,8,0:0:0:0:
229,153,84488,1,0,0:0:0:0:
229,153,84831,1,8,0:0:0:0:
229,153,85002,1,0,0:0:0:0:
231,203,85345,1,8,0:0:0:0:
176,208,85517,1,0,0:0:0:0:
176,208,85688,1,0,0:0:0:0:
169,184,85859,1,8,0:0:0:0:
176,208,86202,1,8,0:0:0:0:
176,208,86545,1,0,0:0:0:0:
176,208,86888,1,8,0:0:0:0:
176,208,87059,1,0,0:0:0:0:
176,208,87231,1,8,0:0:0:0:
160,183,87574,1,0,0:0:0:0:
160,183,87745,1,8,0:0:0:0:
176,208,87917,5,0,0:0:0:0:
160,183,88259,1,0,0:0:0:0:
160,183,88431,1,0,0:0:0:0:
160,183,88602,1,8,0:0:0:0:
160,183,88945,1,8,0:0:0:0:
160,183,89117,1,0,0:0:0:0:
229,153,89288,1,8,0:0:0:0:
190,106,89631,1,8,0:0:0:0:
229,153,89802,1,8,0:0:0:0:
229,153,89974,1,0,0:0:0:0:
229,153,90317,1,8,0:0:0:0:
229,153,90488,1,0,0:0:0:0:
224,193,90659,1,0,0:0:0:0:
145,148,90831,1,12,0:0:0:0:
224,193,91174,1,8,0:0:0:0:
224,193,91517,1,8,0:0:0:0:
224,193,91859,1,8,0:0:0:0:
195,128,92031,1,0,0:0:0:0:
224,193,92202,1,8,0:0:0:0:
224,193,92545,1,8,0:0:0:0:
224,193,92888,1,8,0:0:0:0:
195,128,93059,1,0,0:0:0:0:
224,193,93231,1,8,0:0:0:0:
224,193,93402,1,8,0:0:0:0:
224,193,93488,1,8,0:0:0:0:
224,193,93574,1,8,0:0:0:0:
224,193,93917,1,8,0:0:0:0:
189,136,94259,1,8,0:0:0:0:
221,197,94602,1,8,0:0:0:0:
146,127,94774,1,0,0:0:0:0:
142,138,94945,1,8,0:0:0:0:
187,156,95288,1,8,0:0:0:0:
187,156,95631,1,8,0:0:0:0:
193,128,95802,1,0,0:0:0:0:
187,156,95974,1,8,0:0:0:0:
187,156,96145,1,8,0:0:0:0:
187,156,96231,1,8,0:0:0:0:
187,156,96317,1,0,0:0:0:0:
186,149,96488,1,0,0:0:0:0:
141,126,96659,1,8,0:0:0:0:
186,149,96831,1,8,0:0:0:0:
186,149,97002,1,0,0:0:0:0:
141,126,97174,1,8,0:0:0:0:
155,182,97345,1,0,0:0:0:0:
186,149,97517,1,8,0:0:0:0:
141,126,97602,1,8,0:0:0:0:
186,149,97688,1,0,0:0:0:0:
166,129,97859,1,8,0:0:0:0:
177,168,98031,1,0,0:0:0:0:
176,157,98202,1,8,0:0:0:0:
141,126,98288,1,8,0:0:0:0:
176,157,98374,1,0,0:0:0:0:
160,159,98545,1,8,0:0:0:0:
177,168,98717,1,0,0:0:0:0:
176,157,98888,1,8,0:0:0:0:
179,173,98974,1,8,0:0:0:0:
179,173,99059,1,0,0:0:0:0:
167,183,99145,1,8,0:0:0:0:
167,173,99231,1,0,0:0:0:0:
167,173,99317,1,8,0:0:0:0:
167,176,99402,1,0,0:0:0:0:
167,172,99488,1,0,0:0:0:0:
167,172,99574,1,8,0:0:0:0:
168,168,99659,1,8,0:0:0:0:
168,168,99745,1,0,0:0:0:0:
119,183,99831,1,8,0:0:0:0:
119,183,99917,1,0,0:0:0:0:
119,183,100002,1,8,0:0:0:0:
119,183,100088,1,0,0:0:0:0:
159,158,100145,1,0,0:0:0:0:
159,158,100202,1,0,0:0:0:0:
159,158,100259,1,8,0:0:0:0:
190,110,100345,1,8,0:0:0:0:
168,168,100431,1,0,0:0:0:0:
170,76,100602,1,0,0:0:0:0:
170,76,100688,5,0,0:0:0:0:
168,168,100774,1,8,0:0:0:0:
167,175,100945,1,8,0:0:0:0:
167,175,101031,1,8,0:0:0:0:
167,175,101117,1,0,0:0:0:0:
169,175,101202,1,8,0:0:0:0:
169,181,101288,1,0,0:0:0:0:
169,181,101459,1,12,0:0:0:0:
256,192,101802,5,4,0:0:0:0:
256,192,101974,1,0,0:0:0:0:
256,192,102145,1,8,0:0:0:0:
256,192,102317,1,0,0:0:0:0:
256,192,102402,1,0,0:0:0:0:
256,192,102488,1,8,0:0:0:0:
256,192,102659,1,8,0:0:0:0:
256,192,102745,1,8,0:0:0:0:
256,192,102831,1,0,0:0:0:0:
256,192,103002,1,8,0:0:0:0:
256,192,103174,1,8,0:0:0:0:
256,192,103345,1,0,0:0:0:0:
256,192,103431,1,8,0:0:0:0:
256,192,103517,1,0,0:0:0:0:
256,192,103688,1,8,0:0:0:0:
256,192,103774,1,8,0:0:0:0:
256,192,103859,1,0,0:0:0:0:
256,192,104031,1,8,0:0:0:0:
256,192,104202,1,0,0:0:0:0:
256,192,104288,1,0,0:0:0:0:
256,192,104374,1,8,0:0:0:0:
256,192,104459,1,0,0:0:0:0:
256,192,104545,1,8,0:0:0:0:
256,192,104717,1,0,0:0:0:0:
256,192,104888,1,8,0:0:0:0:
256,192,105059,1,8,0:0:0:0:
256,192,105145,1,8,0:0:0:0:
256,192,105231,1,0,0:0:0:0:
256,192,105402,1,0,0:0:0:0:
256,192,105574,1,8,0:0:0:0:
256,192,105659,1,0,0:0:0:0:
256,192,105745,1,8,0:0:0:0:
256,192,105831,1,8,0:0:0:0:
256,192,105917,1,0,0:0:0:0:
256,192,106088,1,8,0:0:0:0:
256,192,106259,1,0,0:0:0:0:
256,192,106431,1,0,0:0:0:0:
256,192,106517,1,0,0:0:0:0:
256,192,106602,1,8,0:0:0:0:
256,192,106774,1,8,0:0:0:0:
256,192,106945,1,0,0:0:0:0:
256,192,107288,1,8,0:0:0:0:
256,192,107459,1,0,0:0:0:0:
256,192,107631,1,8,0:0:0:0:
256,192,107717,1,0,0:0:0:0:
256,192,107802,1,8,0:0:0:0:
256,192,107974,1,8,0:0:0:0:
256,192,108145,1,0,0:0:0:0:
256,192,108231,1,0,0:0:0:0:
256,192,108317,1,8,0:0:0:0:
256,192,108488,1,0,0:0:0:0:
256,192,108659,1,8,0:0:0:0:
256,192,108831,1,0,0:0:0:0:
256,192,108917,1,0,0:0:0:0:
256,192,109002,1,8,0:0:0:0:
256,192,109088,1,0,0:0:0:0:
256,192,109174,1,8,0:0:0:0:
256,192,109259,1,8,0:0:0:0:
256,192,109345,1,0,0:0:0:0:
256,192,109517,1,8,0:0:0:0:
256,192,109688,1,0,0:0:0:0:
256,192,109774,1,8,0:0:0:0:
256,192,109859,1,0,0:0:0:0:
256,192,110031,1,8,0:0:0:0:
256,192,110202,1,0,0:0:0:0:
256,192,110374,1,8,0:0:0:0:
256,192,110459,1,8,0:0:0:0:
256,192,110545,1,0,0:0:0:0:
256,192,110631,1,0,0:0:0:0:
256,192,110717,1,8,0:0:0:0:
256,192,110888,1,0,0:0:0:0:
256,192,111059,1,8,0:0:0:0:
256,192,111145,1,8,0:0:0:0:
256,192,111231,1,0,0:0:0:0:
256,192,111317,1,8,0:0:0:0:
256,192,111402,1,0,0:0:0:0:
256,192,111574,1,8,0:0:0:0:
256,192,111745,1,0,0:0:0:0:
256,192,111831,1,0,0:0:0:0:
256,192,111917,1,8,0:0:0:0:
256,192,112002,1,8,0:0:0:0:
256,192,112088,1,8,0:0:0:0:
256,192,112174,1,8,0:0:0:0:
256,192,112259,1,0,0:0:0:0:
256,192,112431,1,12,0:0:0:0:
256,192,112774,1,4,0:0:0:0:
256,192,112945,1,0,0:0:0:0:
256,192,113117,1,8,0:0:0:0:
256,192,113288,1,0,0:0:0:0:
256,192,113374,1,0,0:0:0:0:
256,192,113459,1,8,0:0:0:0:
256,192,113631,1,8,0:0:0:0:
256,192,113717,1,8,0:0:0:0:
256,192,113802,1,0,0:0:0:0:
256,192,113974,1,8,0:0:0:0:
256,192,114145,1,8,0:0:0:0:
256,192,114317,1,0,0:0:0:0:
256,192,114402,1,8,0:0:0:0:
256,192,114488,1,0,0:0:0:0:
256,192,114659,1,8,0:0:0:0:
256,192,114745,1,8,0:0:0:0:
256,192,114831,1,0,0:0:0:0:
256,192,115002,1,8,0:0:0:0:
256,192,115174,1,0,0:0:0:0:
256,192,115259,1,0,0:0:0:0:
256,192,115345,1,8,0:0:0:0:
256,192,115431,1,0,0:0:0:0:
256,192,115517,1,8,0:0:0:0:
256,192,115688,1,0,0:0:0:0:
256,192,115859,1,8,0:0:0:0:
256,192,116031,1,8,0:0:0:0:
256,192,116117,1,8,0:0:0:0:
256,192,116202,1,0,0:0:0:0:
256,192,116374,1,0,0:0:0:0:
256,192,116545,1,8,0:0:0:0:
256,192,116631,1,0,0:0:0:0:
256,192,116717,1,8,0:0:0:0:
256,192,116802,1,8,0:0:0:0:
256,192,116888,1,0,0:0:0:0:
256,192,117059,1,8,0:0:0:0:
256,192,117145,1,8,0:0:0:0:
256,192,117231,1,0,0:0:0:0:
256,192,117402,1,0,0:0:0:0:
256,192,117488,1,0,0:0:0:0:
256,192,117574,1,8,0:0:0:0:
256,192,117745,1,8,0:0:0:0:
256,192,117917,1,0,0:0:0:0:
256,192,118002,1,8,0:0:0:0:
256,192,118088,1,0,0:0:0:0:
256,192,118259,1,8,0:0:0:0:
256,192,118431,1,0,0:0:0:0:
256,192,118602,1,8,0:0:0:0:
256,192,118688,1,8,0:0:0:0:
256,192,118774,1,0,0:0:0:0:
256,192,118945,1,8,0:0:0:0:
256,192,119117,1,0,0:0:0:0:
256,192,119202,1,0,0:0:0:0:
256,192,119288,1,8,0:0:0:0:
256,192,119374,1,8,0:0:0:0:
256,192,119459,1,0,0:0:0:0:
256,192,119631,1,8,0:0:0:0:
256,192,119802,1,0,0:0:0:0:
256,192,119888,1,0,0:0:0:0:
256,192,119974,1,8,0:0:0:0:
256,192,120059,1,8,0:0:0:0:
256,192,120145,1,0,0:0:0:0:
256,192,120231,1,8,0:0:0:0:
256,192,120317,1,0,0:0:0:0:
256,192,120488,1,8,0:0:0:0:
256,192,120659,1,0,0:0:0:0:
256,192,120745,1,0,0:0:0:0:
256,192,120831,1,0,0:0:0:0:
256,192,120917,1,0,0:0:0:0:
256,192,121002,1,8,0:0:0:0:
256,192,121174,1,0,0:0:0:0:
256,192,121259,1,0,0:0:0:0:
256,192,121345,1,8,0:0:0:0:
256,192,121431,1,0,0:0:0:0:
256,192,121517,1,8,0:0:0:0:
256,192,121602,1,8,0:0:0:0:
256,192,121688,1,0,0:0:0:0:
256,192,121774,1,0,0:0:0:0:
256,192,121859,1,8,0:0:0:0:
256,192,121945,1,8,0:0:0:0:
256,192,122031,1,0,0:0:0:0:
256,192,122088,1,0,0:0:0:0:
256,192,122145,1,0,0:0:0:0:
256,192,122202,1,8,0:0:0:0:
256,192,122288,1,8,0:0:0:0:
256,192,122374,1,0,0:0:0:0:
256,192,122545,1,8,0:0:0:0:
256,192,122717,5,0,0:0:0:0:
256,192,122888,1,8,0:0:0:0:
256,192,122974,1,8,0:0:0:0:
256,192,123059,1,8,0:0:0:0:
256,192,123231,1,0,0:0:0:0:
256,192,123402,1,12,0:0:0:0:
141,143,123745,5,4,0:0:0:0:
148,127,124002,1,0,0:0:0:0:
141,143,124088,1,8,0:0:0:0:
141,143,124259,1,0,0:0:0:0:
141,143,124431,1,8,0:0:0:0:
177,102,124517,1,8,0:0:0:0:
141,143,124602,1,0,0:0:0:0:
141,143,124774,1,8,0:0:0:0:
174,96,124945,1,0,0:0:0:0:
187,145,125031,1,8,0:0:0:0:
187,145,125117,1,0,0:0:0:0:
179,159,125288,1,0,0:0:0:0:
138,100,125459,1,8,0:0:0:0:
217,67,125631,1,0,0:0:0:0:
188,109,125717,1,0,0:0:0:0:
217,67,125802,1,0,0:0:0:0:
188,109,125888,1,8,0:0:0:0:
179,159,125974,1,0,0:0:0:0:
179,159,126145,1,8,0:0:0:0:
176,113,126317,1,0,0:0:0:0:
206,120,126488,1,8,0:0:0:0:
206,139,126574,1,0,0:0:0:0:
194,121,126659,1,0,0:0:0:0:
161,117,126831,1,8,0:0:0:0:
166,120,127002,1,0,0:0:0:0:
206,139,127088,1,0,0:0:0:0:
206,139,127174,1,8,0:0:0:0:
199,133,127345,1,0,0:0:0:0:
199,133,127517,1,8,0:0:0:0:
161,117,127602,1,8,0:0:0:0:
206,148,127688,1,0,0:0:0:0:
189,124,127774,1,0,0:0:0:0:
206,148,127859,1,8,0:0:0:0:
206,148,128031,1,0,0:0:0:0:
206,148,128202,1,8,0:0:0:0:
214,75,128374,1,0,0:0:0:0:
214,75,128459,1,0,0:0:0:0:
167,100,128545,1,0,0:0:0:0:
206,148,128717,1,0,0:0:0:0:
206,148,128888,1,8,0:0:0:0:
199,183,128974,1,0,0:0:0:0:
206,148,129059,1,8,0:0:0:0:
184,182,129145,1,8,0:0:0:0:
170,143,129231,1,0,0:0:0:0:
148,127,129488,1,0,0:0:0:0:
141,143,129574,1,8,0:0:0:0:
141,143,129745,1,0,0:0:0:0:
170,143,129831,1,0,0:0:0:0:
141,143,129917,1,8,0:0:0:0:
141,143,130088,1,0,0:0:0:0:
141,143,130259,1,8,0:0:0:0:
174,96,130431,1,0,0:0:0:0:
187,145,130517,1,8,0:0:0:0:
187,145,130602,1,0,0:0:0:0:
152,87,130688,1,0,0:0:0:0:
179,159,130774,1,0,0:0:0:0:
138,100,130945,1,8,0:0:0:0:
217,67,131117,1,0,0:0:0:0:
188,109,131202,1,0,0:0:0:0:
217,67,131288,1,0,0:0:0:0:
179,159,131459,1,0,0:0:0:0:
179,159,131631,1,8,0:0:0:0:
179,60,131717,1,0,0:0:0:0:
176,113,131802,1,0,0:0:0:0:
206,120,131974,1,8,0:0:0:0:
194,121,132145,1,0,0:0:0:0:
184,60,132231,1,0,0:0:0:0:
161,117,132317,1,8,0:0:0:0:
166,120,132488,1,0,0:0:0:0:
149,62,132659,1,8,0:0:0:0:
146,42,132745,1,8,0:0:0:0:
199,133,132831,1,0,0:0:0:0:
199,133,133002,1,8,0:0:0:0:
206,148,133174,1,0,0:0:0:0:
151,99,133259,1,0,0:0:0:0:
206,148,133345,1,8,0:0:0:0:
156,92,133431,1,0,0:0:0:0:
206,148,133517,1,0,0:0:0:0:
206,148,133688,5,8,0:0:0:0:
214,75,133859,1,0,0:0:0:0:
214,75,133945,1,0,0:0:0:0:
191,85,134031,1,8,0:0:0:0:
191,85,134117,1,8,0:0:0:0:
90,189,134202,1,0,0:0:0:0:
175,153,134374,1,12,0:0:0:0:
201,109,134717,1,4,0:0:0:0:
159,96,134974,1,0,0:0:0:0:
166,143,135059,1,8,0:0:0:0:
166,143,135231,1,0,0:0:0:0:
166,143,135402,1,8,0:0:0:0:
160,53,135488,1,8,0:0:0:0:
166,143,135574,1,0,0:0:0:0:
166,143,135745,1,8,0:0:0:0:
156,103,135917,1,0,0:0:0:0:
167,164,136002,1,8,0:0:0:0:
166,174,136088,1,0,0:0:0:0:
156,113,136259,1,0,0:0:0:0:
251,122,136345,1,0,0:0:0:0:
156,113,136431,1,8,0:0:0:0:
251,97,136602,1,8,0:0:0:0:
156,126,136774,1,0,0:0:0:0:
185,74,136859,1,0,0:0:0:0:
185,74,136945,1,8,0:0:0:0:
204,102,137031,1,0,0:0:0:0:
156,126,137117,1,8,0:0:0:0:
156,127,137288,1,0,0:0:0:0:
156,127,137459,1,8,0:0:0:0:
193,68,137545,1,0,0:0:0:0:
193,68,137631,1,0,0:0:0:0:
193,68,137802,1,8,0:0:0:0:
193,68,137974,1,0,0:0:0:0:
204,52,138059,1,0,0:0:0:0:
193,68,138145,1,8,0:0:0:0:
193,68,138317,1,0,0:0:0:0:
193,68,138488,1,8,0:0:0:0:
151,122,138574,1,8,0:0:0:0:
106,92,138659,1,8,0:0:0:0:
106,97,138745,1,8,0:0:0:0:
106,101,138831,1,0,0:0:0:0:
216,65,139002,1,0,0:0:0:0:
182,61,139088,1,0,0:0:0:0:
109,118,139174,1,8,0:0:0:0:
109,125,139345,1,0,0:0:0:0:
110,127,139517,1,8,0:0:0:0:
181,178,139602,1,8,0:0:0:0:
199,161,139688,1,0,0:0:0:0:
199,166,139859,1,8,0:0:0:0:
183,102,140031,1,0,0:0:0:0:
183,102,140117,1,8,0:0:0:0:
185,74,140202,1,0,0:0:0:0:
236,55,140459,1,0,0:0:0:0:
199,171,140545,1,8,0:0:0:0:
172,57,140717,1,0,0:0:0:0:
153,147,140802,1,0,0:0:0:0:
204,102,140888,1,0,0:0:0:0:
199,176,141059,1,0,0:0:0:0:
199,176,141231,1,8,0:0:0:0:
162,66,141402,1,0,0:0:0:0:
162,66,141488,1,0,0:0:0:0:
162,66,141574,1,8,0:0:0:0:
186,92,141745,1,0,0:0:0:0:
186,92,141917,1,8,0:0:0:0:
186,92,142088,1,0,0:0:0:0:
162,66,142174,1,0,0:0:0:0:
186,92,142259,1,8,0:0:0:0:
162,66,142345,1,0,0:0:0:0:
186,92,142431,1,0,0:0:0:0:
186,92,142602,1,8,0:0:0:0:
153,147,142774,1,8,0:0:0:0:
153,147,142859,1,8,0:0:0:0:
186,97,142945,1,0,0:0:0:0:
153,147,143117,1,0,0:0:0:0:
231,79,143202,1,0,0:0:0:0:
175,16,143288,1,8,0:0:0:0:
153,147,143459,1,8,0:0:0:0:
175,16,143545,1,8,0:0:0:0:
175,16,143631,1,0,0:0:0:0:
183,102,143717,1,0,0:0:0:0:
183,102,143802,1,8,0:0:0:0:
177,240,143888,1,0,0:0:0:0:
176,245,143974,1,8,0:0:0:0:
183,102,144059,1,8,0:0:0:0:
176,245,144145,1,0,0:0:0:0:
176,85,144317,1,12,0:0:0:0:
144,122,144659,1,0,0:0:0:0:
176,85,144831,1,12,0:0:0:0:
144,122,145174,5,0,0:0:0:0:
144,122,145345,1,8,0:0:0:0:
120,136,145517,1,8,0:0:0:0:
120,136,145688,1,4,0:0:0:0:
256,192,146031,5,12,0:0:0:0:
256,192,146374,1,0,0:0:0:0:
256,192,146545,1,0,0:0:0:0:
256,192,146717,1,8,0:0:0:0:
256,192,146802,1,8,0:0:0:0:
256,192,146888,1,0,0:0:0:0:
256,192,146974,1,8,0:0:0:0:
256,192,147059,1,0,0:0:0:0:
256,192,147231,1,8,0:0:0:0:
256,192,147402,1,0,0:0:0:0:
256,192,147488,1,0,0:0:0:0:
256,192,147574,1,0,0:0:0:0:
256,192,147745,1,8,0:0:0:0:
256,192,147917,1,0,0:0:0:0:
256,192,148002,1,0,0:0:0:0:
256,192,148088,1,8,0:0:0:0:
256,192,148174,1,8,0:0:0:0:
256,192,148259,1,0,0:0:0:0:
256,192,148431,1,8,0:0:0:0:
256,192,148517,1,0,0:0:0:0:
256,192,148602,1,0,0:0:0:0:
256,192,148688,1,0,0:0:0:0:
256,192,148774,1,8,0:0:0:0:
256,192,148859,1,8,0:0:0:0:
256,192,148945,1,0,0:0:0:0:
256,192,149117,1,8,0:0:0:0:
256,192,149288,1,0,0:0:0:0:
256,192,149374,1,8,0:0:0:0:
256,192,149459,1,0,0:0:0:0:
256,192,149545,1,0,0:0:0:0:
256,192,149631,1,8,0:0:0:0:
256,192,149717,1,8,0:0:0:0:
256,192,149802,1,0,0:0:0:0:
256,192,149974,1,8,0:0:0:0:
256,192,150145,1,0,0:0:0:0:
256,192,150317,1,0,0:0:0:0:
256,192,150402,1,0,0:0:0:0:
256,192,150488,1,8,0:0:0:0:
256,192,150659,1,8,0:0:0:0:
256,192,150831,1,0,0:0:0:0:
256,192,150917,1,8,0:0:0:0:
256,192,151002,1,0,0:0:0:0:
256,192,151174,1,8,0:0:0:0:
256,192,151431,1,8,0:0:0:0:
256,192,151517,1,0,0:0:0:0:
256,192,151688,1,8,0:0:0:0:
256,192,151859,1,0,0:0:0:0:
256,192,151945,1,0,0:0:0:0:
256,192,152031,1,0,0:0:0:0:
256,192,152202,1,8,0:0:0:0:
256,192,152288,1,8,0:0:0:0:
256,192,152374,1,0,0:0:0:0:
256,192,152459,1,0,0:0:0:0:
256,192,152545,1,8,0:0:0:0:
256,192,152717,1,0,0:0:0:0:
256,192,152888,1,8,0:0:0:0:
256,192,152974,1,8,0:0:0:0:
256,192,153059,1,8,0:0:0:0:
256,192,153231,1,0,0:0:0:0:
256,192,153402,1,0,0:0:0:0:
256,192,153488,1,0,0:0:0:0:
256,192,153574,1,8,0:0:0:0:
256,192,153745,1,8,0:0:0:0:
256,192,153917,1,0,0:0:0:0:
256,192,154002,1,0,0:0:0:0:
256,192,154088,1,8,0:0:0:0:
256,192,154174,1,8,0:0:0:0:
256,192,154259,1,0,0:0:0:0:
256,192,154345,1,8,0:0:0:0:
256,192,154431,1,0,0:0:0:0:
256,192,154517,1,0,0:0:0:0:
256,192,154602,1,8,0:0:0:0:
256,192,154774,1,0,0:0:0:0:
256,192,154945,1,8,0:0:0:0:
256,192,155117,1,8,0:0:0:0:
256,192,155202,1,8,0:0:0:0:
256,192,155288,1,0,0:0:0:0:
256,192,155459,1,0,0:0:0:0:
256,192,155545,1,0,0:0:0:0:
256,192,155631,1,8,0:0:0:0:
256,192,155717,1,0,0:0:0:0:
256,192,155802,1,0,0:0:0:0:
256,192,155888,1,0,0:0:0:0:
256,192,155974,1,8,0:0:0:0:
256,192,156145,1,0,0:0:0:0:
256,192,156317,1,12,0:0:0:0:
256,192,156488,1,8,0:0:0:0:
256,192,156659,1,4,0:0:0:0:
256,192,156917,1,0,0:0:0:0:
256,192,157002,1,8,0:0:0:0:
256,192,157174,1,0,0:0:0:0:
256,192,157259,1,0,0:0:0:0:
256,192,157345,1,8,0:0:0:0:
256,192,157517,1,0,0:0:0:0:
256,192,157688,1,8,0:0:0:0:
256,192,157774,1,8,0:0:0:0:
256,192,157859,1,0,0:0:0:0:
256,192,157945,1,0,0:0:0:0:
256,192,158031,1,8,0:0:0:0:
256,192,158202,1,0,0:0:0:0:
256,192,158288,1,8,0:0:0:0:
256,192,158374,1,0,0:0:0:0:
256,192,158459,1,0,0:0:0:0:
256,192,158631,1,0,0:0:0:0:
256,192,158717,1,8,0:0:0:0:
256,192,158888,1,0,0:0:0:0:
256,192,159059,1,8,0:0:0:0:
256,192,159145,1,0,0:0:0:0:
256,192,159231,1,8,0:0:0:0:
256,192,159317,1,8,0:0:0:0:
256,192,159402,1,0,0:0:0:0:
256,192,159574,1,0,0:0:0:0:
256,192,159659,1,0,0:0:0:0:
256,192,159745,1,8,0:0:0:0:
256,192,159917,1,0,0:0:0:0:
256,192,160088,1,8,0:0:0:0:
256,192,160174,1,8,0:0:0:0:
256,192,160259,1,0,0:0:0:0:
256,192,160345,1,0,0:0:0:0:
256,192,160431,1,8,0:0:0:0:
256,192,160602,1,0,0:0:0:0:
256,192,160688,1,8,0:0:0:0:
256,192,160774,1,0,0:0:0:0:
256,192,160945,1,8,0:0:0:0:
256,192,161031,1,8,0:0:0:0:
256,192,161117,1,0,0:0:0:0:
256,192,161202,1,0,0:0:0:0:
256,192,161374,1,0,0:0:0:0:
256,192,161459,1,8,0:0:0:0:
256,192,161631,1,0,0:0:0:0:
256,192,161717,1,0,0:0:0:0:
256,192,161802,1,8,0:0:0:0:
256,192,161888,1,8,0:0:0:0:
256,192,161974,1,0,0:0:0:0:
256,192,162059,1,0,0:0:0:0:
256,192,162145,1,8,0:0:0:0:
256,192,162402,1,0,0:0:0:0:
256,192,162488,1,8,0:0:0:0:
256,192,162659,1,0,0:0:0:0:
256,192,162831,1,8,0:0:0:0:
256,192,162917,1,8,0:0:0:0:
256,192,163002,1,0,0:0:0:0:
256,192,163174,1,8,0:0:0:0:
256,192,163345,1,0,0:0:0:0:
256,192,163431,1,0,0:0:0:0:
256,192,163517,1,8,0:0:0:0:
256,192,163688,1,0,0:0:0:0:
256,192,163774,1,0,0:0:0:0:
256,192,163859,1,8,0:0:0:0:
256,192,163945,1,8,0:0:0:0:
256,192,164031,1,0,0:0:0:0:
256,192,164117,1,8,0:0:0:0:
256,192,164202,1,0,0:0:0:0:
256,192,164374,1,8,0:0:0:0:
256,192,164459,1,8,0:0:0:0:
256,192,164545,1,0,0:0:0:0:
256,192,164717,1,8,0:0:0:0:
256,192,164888,1,0,0:0:0:0:
256,192,164974,1,0,0:0:0:0:
256,192,165059,1,8,0:0:0:0:
256,192,165145,1,0,0:0:0:0:
256,192,165231,1,8,0:0:0:0:
256,192,165317,1,8,0:0:0:0:
256,192,165402,1,0,0:0:0:0:
256,192,165488,1,0,0:0:0:0:
256,192,165574,1,8,0:0:0:0:
256,192,165659,1,8,0:0:0:0:
256,192,165745,1,8,0:0:0:0:
256,192,165831,1,8,0:0:0:0:
256,192,165917,1,0,0:0:0:0:
256,192,165974,1,0,0:0:0:0:
256,192,166031,1,0,0:0:0:0:
256,192,166088,1,8,0:0:0:0:
256,192,166174,1,8,0:0:0:0:
256,192,166259,1,0,0:0:0:0:
256,192,166431,1,8,0:0:0:0:
256,192,166517,5,8,0:0:0:0:
256,192,166602,1,8,0:0:0:0:
256,192,166774,1,0,0:0:0:0:
256,192,166859,1,0,0:0:0:0:
256,192,166945,1,8,0:0:0:0:
256,192,167031,1,0,0:0:0:0:
256,192,167117,1,0,0:0:0:0:
256,192,167288,1,12,0:0:0:0:
202,101,167631,5,4,0:0:0:0:
202,101,167802,1,0,0:0:0:0:
135,103,167888,1,0,0:0:0:0:
117,124,167974,1,8,0:0:0:0:
139,144,168145,1,8,0:0:0:0:
189,116,168317,1,0,0:0:0:0:
189,116,168488,1,8,0:0:0:0:
116,117,168574,1,8,0:0:0:0:
116,123,168659,1,0,0:0:0:0:
116,123,168831,1,8,0:0:0:0:
116,123,169002,1,0,0:0:0:0:
116,123,169088,1,0,0:0:0:0:
189,116,169174,1,8,0:0:0:0:
149,104,169345,1,0,0:0:0:0:
141,139,169517,1,0,0:0:0:0:
141,139,169602,1,8,0:0:0:0:
116,123,169688,1,0,0:0:0:0:
189,116,169859,1,8,0:0:0:0:
116,123,169945,1,0,0:0:0:0:
196,104,170031,1,8,0:0:0:0:
116,123,170117,1,8,0:0:0:0:
194,85,170202,1,0,0:0:0:0:
198,140,170374,1,0,0:0:0:0:
116,123,170545,1,0,0:0:0:0:
158,93,170631,1,0,0:0:0:0:
232,141,170717,1,8,0:0:0:0:
158,93,170888,1,8,0:0:0:0:
232,141,171059,1,0,0:0:0:0:
158,93,171145,1,0,0:0:0:0:
232,141,171231,1,8,0:0:0:0:
139,144,171317,1,8,0:0:0:0:
158,93,171402,1,0,0:0:0:0:
146,89,171574,1,8,0:0:0:0:
146,94,171659,1,8,0:0:0:0:
146,96,171745,1,0,0:0:0:0:
198,140,171917,1,8,0:0:0:0:
198,140,172088,1,0,0:0:0:0:
141,139,172259,1,0,0:0:0:0:
141,139,172345,1,8,0:0:0:0:
198,140,172431,1,0,0:0:0:0:
141,139,172517,1,0,0:0:0:0:
198,140,172602,1,8,0:0:0:0:
141,139,172688,1,0,0:0:0:0:
198,140,172774,1,8,0:0:0:0:
198,140,172945,1,8,0:0:0:0:
187,163,173117,1,0,0:0:0:0:
202,101,173288,1,0,0:0:0:0:
135,103,173374,1,0,0:0:0:0:
117,124,173459,1,8,0:0:0:0:
139,144,173631,1,8,0:0:0:0:
189,116,173802,1,0,0:0:0:0:
189,116,173974,1,8,0:0:0:0:
116,117,174059,1,8,0:0:0:0:
116,123,174145,1,0,0:0:0:0:
116,123,174317,1,8,0:0:0:0:
116,123,174488,1,0,0:0:0:0:
116,123,174574,1,0,0:0:0:0:
189,116,174659,1,8,0:0:0:0:
149,104,174831,1,0,0:0:0:0:
141,139,175002,1,0,0:0:0:0:
141,139,175088,1,8,0:0:0:0:
116,123,175174,1,0,0:0:0:0:
189,116,175345,1,8,0:0:0:0:
116,123,175431,1,0,0:0:0:0:
196,104,175517,1,8,0:0:0:0:
116,123,175602,1,8,0:0:0:0:
194,85,175688,1,0,0:0:0:0:
198,140,175859,1,0,0:0:0:0:
116,123,176031,1,0,0:0:0:0:
158,93,176117,1,0,0:0:0:0:
232,141,176202,1,8,0:0:0:0:
158,93,176374,1,8,0:0:0:0:
232,141,176545,1,0,0:0:0:0:
158,93,176631,1,0,0:0:0:0:
232,141,176717,1,8,0:0:0:0:
139,144,176802,1,8,0:0:0:0:
158,93,176888,1,0,0:0:0:0:
146,89,177059,1,8,0:0:0:0:
249,133,177231,1,4,0:0:0:0:
163,82,177745,1,0,0:0:0:0:
163,82,177802,1,0,0:0:0:0:
163,83,177859,1,0,0:0:0:0:
165,108,177917,1,8,0:0:0:0:
165,108,178002,1,8,0:0:0:0:
165,108,178088,1,0,0:0:0:0:
165,108,178259,1,12,0:0:0:0:
202,101,178602,5,4,0:0:0:0:
202,101,178774,1,0,0:0:0:0:
135,103,178859,1,0,0:0:0:0:
117,124,178945,1,8,0:0:0:0:
139,144,179117,1,8,0:0:0:0:
189,116,179288,1,0,0:0:0:0:
189,116,179459,1,8,0:0:0:0:
116,117,179545,1,8,0:0:0:0:
116,123,179631,1,0,0:0:0:0:
177,166,179802,1,0,0:0:0:0:
162,159,179888,1,8,0:0:0:0:
116,123,179974,1,0,0:0:0:0:
116,123,180059,1,0,0:0:0:0:
189,116,180145,1,8,0:0:0:0:
149,104,180317,1,0,0:0:0:0:
177,166,180488,1,8,0:0:0:0:
149,137,180574,1,0,0:0:0:0:
116,123,180659,1,0,0:0:0:0:
189,116,180831,1,8,0:0:0:0:
116,123,180917,1,0,0:0:0:0:
196,104,181002,1,8,0:0:0:0:
116,123,181088,1,8,0:0:0:0:
194,85,181174,1,0,0:0:0:0:
162,159,181259,1,8,0:0:0:0:
198,140,181345,1,0,0:0:0:0:
116,123,181517,1,0,0:0:0:0:
158,93,181602,1,0,0:0:0:0:
232,141,181688,1,8,0:0:0:0:
158,93,181859,1,8,0:0:0:0:
232,141,182031,1,0,0:0:0:0:
158,93,182117,1,0,0:0:0:0:
232,141,182202,1,8,0:0:0:0:
139,144,182288,1,8,0:0:0:0:
158,93,182374,1,0,0:0:0:0:
177,166,182545,1,0,0:0:0:0:
146,94,182631,1,8,0:0:0:0:
146,96,182717,1,0,0:0:0:0:
198,140,182888,1,8,0:0:0:0:
149,137,182974,1,0,0:0:0:0:
198,140,183059,1,0,0:0:0:0:
141,139,183231,1,0,0:0:0:0:
141,139,183317,1,8,0:0:0:0:
198,140,183402,1,0,0:0:0:0:
141,139,183488,1,0,0:0:0:0:
198,140,183574,1,8,0:0:0:0:
141,139,183659,1,0,0:0:0:0:
198,140,183745,1,8,0:0:0:0:
198,140,183917,1,8,0:0:0:0:
136,119,184002,1,8,0:0:0:0:
161,157,184088,1,0,0:0:0:0:
202,101,184259,1,0,0:0:0:0:
135,103,184345,1,0,0:0:0:0:
117,124,184431,1,8,0:0:0:0:
139,144,184602,1,8,0:0:0:0:
189,116,184774,1,0,0:0:0:0:
189,116,184945,1,8,0:0:0:0:
191,42,185031,1,8,0:0:0:0:
116,123,185117,1,0,0:0:0:0:
177,166,185288,1,0,0:0:0:0:
162,159,185374,1,8,0:0:0:0:
116,123,185459,1,0,0:0:0:0:
116,123,185545,1,0,0:0:0:0:
189,116,185631,1,8,0:0:0:0:
149,104,185802,1,0,0:0:0:0:
172,16,185974,1,8,0:0:0:0:
172,16,186059,1,0,0:0:0:0:
116,123,186145,1,0,0:0:0:0:
189,116,186317,1,8,0:0:0:0:
116,123,186402,1,0,0:0:0:0:
196,104,186488,1,8,0:0:0:0:
181,53,186574,1,8,0:0:0:0:
181,53,186659,1,0,0:0:0:0:
170,41,186745,1,8,0:0:0:0:
161,157,186831,1,0,0:0:0:0:
171,66,186917,1,0,0:0:0:0:
171,66,187002,1,8,0:0:0:0:
162,159,187088,1,0,0:0:0:0:
162,159,187174,1,8,0:0:0:0:
162,159,187259,1,8,0:0:0:0:
162,159,187345,1,0,0:0:0:0:
162,159,187431,1,8,0:0:0:0:
162,159,187517,1,0,0:0:0:0:
162,159,187602,1,0,0:0:0:0:
162,159,187688,1,8,0:0:0:0:
162,159,187774,1,8,0:0:0:0:
161,157,187859,1,0,0:0:0:0:
171,130,187917,1,0,0:0:0:0:
171,130,187974,1,0,0:0:0:0:
255,117,188031,1,8,0:0:0:0:
255,117,188117,1,8,0:0:0:0:
255,117,188202,1,0,0:0:0:0:
120,105,189059,1,8,0:0:0:0:
120,105,189231,1,12,0:0:0:0:
256,192,189574,5,4,0:0:0:0:
256,192,189917,1,8,0:0:0:0:
256,192,190088,1,0,0:0:0:0:
256,192,190174,1,0,0:0:0:0:
256,192,190259,1,8,0:0:0:0:
256,192,190431,1,0,0:0:0:0:
256,192,190602,1,8,0:0:0:0:
256,192,190774,1,8,0:0:0:0:
256,192,190945,1,0,0:0:0:0:
256,192,191031,1,0,0:0:0:0:
256,192,191117,1,8,0:0:0:0:
256,192,191202,1,8,0:0:0:0:
256,192,191288,1,0,0:0:0:0:
256,192,191459,1,8,0:0:0:0:
256,192,191802,1,8,0:0:0:0:
256,192,191974,1,0,0:0:0:0:
256,192,192059,1,0,0:0:0:0:
256,192,192145,1,0,0:0:0:0:
256,192,192317,1,8,0:0:0:0:
256,192,192488,1,0,0:0:0:0:
256,192,192574,1,0,0:0:0:0:
256,192,192659,1,8,0:0:0:0:
256,192,192831,1,0,0:0:0:0:
256,192,193174,1,8,0:0:0:0:
256,192,193345,1,0,0:0:0:0:
256,192,193517,1,8,0:0:0:0:
256,192,193602,1,8,0:0:0:0:
256,192,193688,1,0,0:0:0:0:
256,192,193859,1,8,0:0:0:0:
256,192,194031,1,0,0:0:0:0:
256,192,194117,1,0,0:0:0:0:
256,192,194202,1,8,0:0:0:0:
256,192,194288,1,0,0:0:0:0:
256,192,194374,1,0,0:0:0:0:
256,192,194545,1,12,0:0:0:0:
256,192,194717,1,12,0:0:0:0:
256,192,195059,1,0,0:0:0:0:
256,192,195231,1,8,0:0:0:0:
256,192,195402,1,8,0:0:0:0:
256,192,195574,1,0,0:0:0:0:
256,192,195745,1,8,0:0:0:0:
256,192,195917,1,8,0:0:0:0:
256,192,196088,1,0,0:0:0:0:
256,192,196259,1,8,0:0:0:0:
256,192,196431,1,0,0:0:0:0:
256,192,196602,1,8,0:0:0:0:
256,192,196774,1,8,0:0:0:0:
256,192,196945,1,8,0:0:0:0:
256,192,197117,1,0,0:0:0:0:
256,192,197288,1,0,0:0:0:0:
256,192,197459,1,8,0:0:0:0:
256,192,197631,1,8,0:0:0:0:
256,192,197802,1,0,0:0:0:0:
256,192,197888,1,0,0:0:0:0:
256,192,197974,1,8,0:0:0:0:
256,192,198059,1,0,0:0:0:0:
256,192,198145,1,8,0:0:0:0:
256,192,198231,1,8,0:0:0:0:
256,192,198317,1,0,0:0:0:0:
256,192,198402,1,0,0:0:0:0:
256,192,198488,1,0,0:0:0:0:
256,192,198574,1,0,0:0:0:0:
256,192,198659,1,8,0:0:0:0:
256,192,198745,1,8,0:0:0:0:
256,192,198831,1,0,0:0:0:0:
256,192,198888,1,0,0:0:0:0:
256,192,198945,1,0,0:0:0:0:
256,192,199002,1,8,0:0:0:0:
256,192,199088,1,8,0:0:0:0:
256,192,199174,1,0,0:0:0:0:
256,192,200031,5,0,0:0:0:0:
256,192,200202,1,12,0:0:0:0:
155,190,200545,5,4,0:0:0:0:
155,190,200888,1,8,0:0:0:0:
226,135,201059,1,8,0:0:0:0:
226,135,201145,1,8,0:0:0:0:
170,139,201231,1,0,0:0:0:0:
155,190,201402,1,0,0:0:0:0:
155,190,201574,1,8,0:0:0:0:
162,177,201745,1,0,0:0:0:0:
162,177,201831,1,8,0:0:0:0:
170,139,201917,1,0,0:0:0:0:
162,177,202002,1,0,0:0:0:0:
172,111,202174,1,0,0:0:0:0:
172,111,202259,1,8,0:0:0:0:
172,111,202431,1,8,0:0:0:0:
226,135,202517,1,0,0:0:0:0:
172,114,202602,1,0,0:0:0:0:
170,105,202774,1,0,0:0:0:0:
171,101,202945,1,8,0:0:0:0:
150,135,203117,1,8,0:0:0:0:
226,135,203202,1,8,0:0:0:0:
171,101,203288,1,0,0:0:0:0:
182,106,203459,1,0,0:0:0:0:
246,140,203545,1,0,0:0:0:0:
171,101,203631,1,8,0:0:0:0:
182,106,203802,1,0,0:0:0:0:
232,165,203974,1,0,0:0:0:0:
212,134,204059,1,8,0:0:0:0:
171,101,204145,1,0,0:0:0:0:
149,86,204231,1,0,0:0:0:0:
171,101,204317,1,8,0:0:0:0:
179,146,204488,1,8,0:0:0:0:
179,146,204659,1,0,0:0:0:0:
201,187,204745,1,0,0:0:0:0:
168,93,204917,1,0,0:0:0:0:
171,101,205002,1,8,0:0:0:0:
232,166,205174,1,0,0:0:0:0:
232,166,205259,1,0,0:0:0:0:
232,166,205345,1,8,0:0:0:0:
159,90,205517,1,0,0:0:0:0:
147,154,205688,1,12,0:0:0:0:
111,211,206031,1,4,0:0:0:0:
256,192,206202,1,0,0:0:0:0:
256,192,206374,1,8,0:0:0:0:
256,192,206545,1,0,0:0:0:0:
160,127,206717,1,8,0:0:0:0:
171,92,206888,1,0,0:0:0:0:
256,192,207059,1,8,0:0:0:0:
256,192,207231,1,0,0:0:0:0:
256,192,207402,1,8,0:0:0:0:
256,192,207574,1,0,0:0:0:0:
183,56,207659,1,0,0:0:0:0:
256,192,207745,1,8,0:0:0:0:
256,192,207917,1,0,0:0:0:0:
256,192,208088,1,8,0:0:0:0:
150,108,208259,1,0,0:0:0:0:
256,192,208431,1,8,0:0:0:0:
166,81,208602,1,0,0:0:0:0:
166,81,208774,1,8,0:0:0:0:
256,192,208945,1,0,0:0:0:0:
139,147,209031,1,0,0:0:0:0:
256,192,209117,1,8,0:0:0:0:
256,192,209288,1,0,0:0:0:0:
256,192,209459,1,8,0:0:0:0:
161,143,209545,1,8,0:0:0:0:
256,192,209631,1,0,0:0:0:0:
256,192,209802,1,8,0:0:0:0:
256,192,209974,1,8,0:0:0:0:
189,137,210145,1,0,0:0:0:0:
189,137,210231,1,0,0:0:0:0:
136,102,210317,1,8,0:0:0:0:
136,107,210402,1,8,0:0:0:0:
136,121,210488,1,0,0:0:0:0:
69,166,210545,1,0,0:0:0:0:
71,171,210602,1,0,0:0:0:0:
74,178,210659,1,8,0:0:0:0:
189,137,210745,1,8,0:0:0:0:
81,174,210831,1,0,0:0:0:0:
126,121,211174,1,12,0:0:0:0:
256,192,211517,5,4,0:0:0:0:
256,192,211774,1,0,0:0:0:0:
256,192,211859,1,8,0:0:0:0:
256,192,212031,1,0,0:0:0:0:
256,192,212202,1,8,0:0:0:0:
256,192,212288,1,8,0:0:0:0:
256,192,212374,1,0,0:0:0:0:
256,192,212545,1,8,0:0:0:0:
256,192,212631,1,0,0:0:0:0:
256,192,212717,1,8,0:0:0:0:
256,192,212802,1,8,0:0:0:0:
256,192,212888,1,0,0:0:0:0:
256,192,213059,1,8,0:0:0:0:
256,192,213231,1,0,0:0:0:0:
256,192,213317,1,0,0:0:0:0:
256,192,213402,1,0,0:0:0:0:
256,192,213574,1,8,0:0:0:0:
256,192,213745,1,0,0:0:0:0:
256,192,213831,1,0,0:0:0:0:
256,192,213917,1,8,0:0:0:0:
256,192,214002,1,8,0:0:0:0:
256,192,214088,1,0,0:0:0:0:
256,192,214259,1,8,0:0:0:0:
256,192,214345,1,0,0:0:0:0:
256,192,214517,1,0,0:0:0:0:
256,192,214602,1,8,0:0:0:0:
256,192,214688,1,8,0:0:0:0:
256,192,214774,1,0,0:0:0:0:
256,192,214945,1,8,0:0:0:0:
256,192,215117,1,0,0:0:0:0:
256,192,215202,1,0,0:0:0:0:
256,192,215288,1,8,0:0:0:0:
256,192,215374,1,0,0:0:0:0:
256,192,215459,1,8,0:0:0:0:
256,192,215545,1,8,0:0:0:0:
256,192,215631,1,0,0:0:0:0:
256,192,215802,1,0,0:0:0:0:
256,192,215974,1,8,0:0:0:0:
256,192,216059,1,8,0:0:0:0:
256,192,216145,1,8,0:0:0:0:
256,192,216317,1,0,0:0:0:0:
256,192,216402,1,0,0:0:0:0:
256,192,216488,1,8,0:0:0:0:
256,192,216574,1,8,0:0:0:0:
256,192,216659,1,0,0:0:0:0:
256,192,216831,1,8,0:0:0:0:
256,192,217002,1,0,0:0:0:0:
256,192,217259,1,8,0:0:0:0:
256,192,217345,1,0,0:0:0:0:
256,192,217517,1,8,0:0:0:0:
256,192,217688,1,0,0:0:0:0:
256,192,217774,1,0,0:0:0:0:
256,192,217859,1,8,0:0:0:0:
256,192,218031,1,0,0:0:0:0:
256,192,218117,1,8,0:0:0:0:
256,192,218202,1,0,0:0:0:0:
256,192,218288,1,0,0:0:0:0:
256,192,218374,1,8,0:0:0:0:
256,192,218545,1,0,0:0:0:0:
256,192,218717,1,8,0:0:0:0:
256,192,218802,1,8,0:0:0:0:
256,192,218888,1,8,0:0:0:0:
256,192,218974,1,8,0:0:0:0:
256,192,219059,1,0,0:0:0:0:
256,192,219231,1,0,0:0:0:0:
256,192,219402,1,8,0:0:0:0:
256,192,219488,1,8,0:0:0:0:
256,192,219574,1,8,0:0:0:0:
256,192,219745,1,0,0:0:0:0:
256,192,219831,1,8,0:0:0:0:
256,192,220002,1,8,0:0:0:0:
256,192,220088,1,0,0:0:0:0:
256,192,220259,1,8,0:0:0:0:
256,192,220431,1,0,0:0:0:0:
256,192,220517,1,0,0:0:0:0:
256,192,220602,1,8,0:0:0:0:
256,192,220688,1,0,0:0:0:0:
256,192,220774,1,8,0:0:0:0:
256,192,220945,1,0,0:0:0:0:
256,192,221117,1,8,0:0:0:0:
256,192,221202,1,8,0:0:0:0:
256,192,221288,1,0,0:0:0:0:
256,192,221374,1,8,0:0:0:0:
256,192,221459,1,0,0:0:0:0:
256,192,221545,1,0,0:0:0:0:
256,192,221631,1,8,0:0:0:0:
256,192,221717,1,0,0:0:0:0:
256,192,221802,1,8,0:0:0:0:
256,192,221888,1,8,0:0:0:0:
256,192,221974,1,0,0:0:0:0:
256,192,222145,1,12,0:0:0:0:
256,192,222488,1,4,0:0:0:0:
256,192,222745,1,0,0:0:0:0:
256,192,222831,1,8,0:0:0:0:
256,192,223002,1,0,0:0:0:0:
256,192,223088,1,0,0:0:0:0:
256,192,223174,1,8,0:0:0:0:
256,192,223345,1,0,0:0:0:0:
256,192,223517,1,8,0:0:0:0:
256,192,223602,1,8,0:0:0:0:
256,192,223688,1,0,0:0:0:0:
256,192,223774,1,0,0:0:0:0:
256,192,223859,1,8,0:0:0:0:
256,192,224031,1,0,0:0:0:0:
256,192,224117,1,0,0:0:0:0:
256,192,224202,1,8,0:0:0:0:
256,192,224288,1,8,0:0:0:0:
256,192,224374,1,0,0:0:0:0:
256,192,224459,1,8,0:0:0:0:
256,192,224545,1,0,0:0:0:0:
256,192,224717,1,8,0:0:0:0:
256,192,224888,1,0,0:0:0:0:
256,192,224974,1,0,0:0:0:0:
256,192,225059,1,8,0:0:0:0:
256,192,225231,1,0,0:0:0:0:
256,192,225317,1,8,0:0:0:0:
256,192,225488,1,8,0:0:0:0:
256,192,225574,1,0,0:0:0:0:
256,192,225659,1,0,0:0:0:0:
256,192,225745,1,8,0:0:0:0:
256,192,225917,1,0,0:0:0:0:
256,192,226002,1,0,0:0:0:0:
256,192,226088,1,8,0:0:0:0:
256,192,226174,1,0,0:0:0:0:
256,192,226259,1,8,0:0:0:0:
256,192,226431,1,0,0:0:0:0:
256,192,226602,1,8,0:0:0:0:
256,192,226688,1,0,0:0:0:0:
256,192,226859,1,0,0:0:0:0:
256,192,226945,1,8,0:0:0:0:
256,192,227117,1,0,0:0:0:0:
256,192,227288,1,8,0:0:0:0:
256,192,227374,1,0,0:0:0:0:
256,192,227459,1,0,0:0:0:0:
256,192,227545,1,0,0:0:0:0:
256,192,227631,1,8,0:0:0:0:
256,192,227717,1,8,0:0:0:0:
256,192,227802,1,0,0:0:0:0:
256,192,227888,1,0,0:0:0:0:
256,192,227974,1,8,0:0:0:0:
256,192,228231,1,0,0:0:0:0:
256,192,228317,1,8,0:0:0:0:
256,192,228488,1,8,0:0:0:0:
256,192,228659,1,0,0:0:0:0:
256,192,228745,1,0,0:0:0:0:
256,192,228831,1,0,0:0:0:0:
256,192,229002,1,8,0:0:0:0:
256,192,229174,1,8,0:0:0:0:
256,192,229345,1,0,0:0:0:0:
256,192,229431,1,0,0:0:0:0:
256,192,229517,1,8,0:0:0:0:
256,192,229602,1,8,0:0:0:0:
256,192,229688,1,0,0:0:0:0:
256,192,229859,1,8,0:0:0:0:
256,192,229945,1,8,0:0:0:0:
256,192,230031,1,0,0:0:0:0:
256,192,230117,1,8,0:0:0:0:
256,192,230202,1,0,0:0:0:0:
256,192,230288,1,0,0:0:0:0:
256,192,230374,1,8,0:0:0:0:
256,192,230545,1,0,0:0:0:0:
256,192,230717,1,8,0:0:0:0:
256,192,230802,1,8,0:0:0:0:
256,192,230888,1,0,0:0:0:0:
256,192,230974,1,0,0:0:0:0:
256,192,231059,1,8,0:0:0:0:
256,192,231145,1,8,0:0:0:0:
256,192,231231,1,8,0:0:0:0:
256,192,231317,1,8,0:0:0:0:
256,192,231402,1,0,0:0:0:0:
256,192,231488,1,0,0:0:0:0:
256,192,231574,1,8,0:0:0:0:
256,192,231659,1,0,0:0:0:0:
256,192,231745,1,8,0:0:0:0:
256,192,231831,1,8,0:0:0:0:
256,192,231917,1,0,0:0:0:0:
256,192,232088,1,12,0:0:0:0:
256,192,232431,1,0,0:0:0:0:
256,192,232602,5,12,0:0:0:0:
256,192,232945,1,0,0:0:0:0:
256,192,233117,1,8,0:0:0:0:
256,192,233288,1,8,0:0:0:0:
256,192,233459,1,4,0:0:0:0:
201,173,233802,5,12,0:0:0:0:
172,91,233974,1,0,0:0:0:0:
201,173,234145,1,8,0:0:0:0:
195,203,234231,1,8,0:0:0:0:
201,173,234317,1,0,0:0:0:0:
201,173,234488,1,8,0:0:0:0:
199,188,234659,1,0,0:0:0:0:
241,170,234745,1,8,0:0:0:0:
241,170,234831,1,0,0:0:0:0:
197,191,235002,1,0,0:0:0:0:
197,191,235174,1,8,0:0:0:0:
197,191,235345,1,0,0:0:0:0:
181,120,235431,1,0,0:0:0:0:
197,191,235517,1,8,0:0:0:0:
169,80,235602,1,8,0:0:0:0:
199,188,235688,1,0,0:0:0:0:
199,191,235774,1,0,0:0:0:0:
198,193,235859,1,8,0:0:0:0:
161,79,236031,1,8,0:0:0:0:
184,148,236202,1,0,0:0:0:0:
195,203,236374,1,0,0:0:0:0:
195,203,236459,1,0,0:0:0:0:
195,203,236545,1,8,0:0:0:0:
195,203,236717,1,0,0:0:0:0:
195,203,236888,1,8,0:0:0:0:
196,122,236974,1,8,0:0:0:0:
196,201,237059,1,0,0:0:0:0:
195,203,237231,1,8,0:0:0:0:
195,203,237402,1,0,0:0:0:0:
239,168,237488,1,8,0:0:0:0:
194,209,237574,1,0,0:0:0:0:
194,209,237745,1,0,0:0:0:0:
206,52,237831,1,0,0:0:0:0:
194,210,237917,1,8,0:0:0:0:
158,176,238088,1,8,0:0:0:0:
206,52,238174,1,8,0:0:0:0:
158,176,238259,1,0,0:0:0:0:
206,52,238345,1,0,0:0:0:0:
206,52,238431,1,8,0:0:0:0:
206,52,238517,1,0,0:0:0:0:
158,176,238602,1,8,0:0:0:0:
158,176,238774,1,8,0:0:0:0:
134,153,238945,1,0,0:0:0:0:
136,64,239288,1,8,0:0:0:0:
140,147,239459,1,0,0:0:0:0:
201,173,239631,1,8,0:0:0:0:
126,112,239717,1,8,0:0:0:0:
201,173,239802,1,0,0:0:0:0:
201,173,239974,1,8,0:0:0:0:
199,188,240145,1,0,0:0:0:0:
241,170,240231,1,8,0:0:0:0:
241,170,240317,1,0,0:0:0:0:
197,191,240488,1,0,0:0:0:0:
197,191,240659,1,8,0:0:0:0:
157,5,240745,1,0,0:0:0:0:
197,191,240831,1,0,0:0:0:0:
181,120,240917,1,0,0:0:0:0:
197,191,241002,1,8,0:0:0:0:
169,80,241088,1,8,0:0:0:0:
199,188,241174,1,0,0:0:0:0:
198,193,241345,1,8,0:0:0:0:
207,191,241517,1,0,0:0:0:0:
207,191,241602,1,0,0:0:0:0:
207,192,241688,1,8,0:0:0:0:
195,203,241859,1,0,0:0:0:0:
195,203,242031,1,8,0:0:0:0:
217,143,242117,1,8,0:0:0:0:
195,203,242202,1,0,0:0:0:0:
195,203,242374,1,8,0:0:0:0:
196,201,242545,1,0,0:0:0:0:
209,113,242631,1,0,0:0:0:0:
195,203,242717,1,8,0:0:0:0:
179,131,242802,1,8,0:0:0:0:
195,203,242888,1,0,0:0:0:0:
239,168,242974,1,8,0:0:0:0:
194,209,243059,1,0,0:0:0:0:
194,209,243231,1,0,0:0:0:0:
206,52,243317,1,0,0:0:0:0:
194,210,243402,1,8,0:0:0:0:
158,176,243574,5,8,0:0:0:0:
206,52,243659,1,8,0:0:0:0:
158,176,243745,1,0,0:0:0:0:
206,52,243831,1,0,0:0:0:0:
206,93,243917,1,0,0:0:0:0:
168,145,244088,1,12,0:0:0:0:
201,83,244259,1,8,0:0:0:0:
208,162,244431,1,4,0:0:0:0:
256,192,244774,5,8,0:0:0:0:
256,192,244945,1,0,0:0:0:0:
256,192,245031,1,0,0:0:0:0:
256,192,245117,1,8,0:0:0:0:
256,192,245288,1,0,0:0:0:0:
256,192,245459,1,8,0:0:0:0:
256,192,245545,1,8,0:0:0:0:
256,192,245631,1,0,0:0:0:0:
256,192,245802,1,8,0:0:0:0:
256,192,245974,1,0,0:0:0:0:
184,38,246059,1,0,0:0:0:0:
184,38,246145,1,8,0:0:0:0:
208,162,246231,1,8,0:0:0:0:
256,192,246402,1,0,0:0:0:0:
256,192,246488,1,8,0:0:0:0:
256,192,246659,1,0,0:0:0:0:
256,192,246831,1,8,0:0:0:0:
174,134,246917,1,0,0:0:0:0:
256,192,247002,1,8,0:0:0:0:
256,192,247088,1,8,0:0:0:0:
256,192,247174,1,0,0:0:0:0:
256,192,247345,1,0,0:0:0:0:
256,192,247431,1,0,0:0:0:0:
256,192,247517,1,8,0:0:0:0:
256,192,247688,1,0,0:0:0:0:
256,192,247859,1,8,0:0:0:0:
256,192,247945,1,8,0:0:0:0:
256,192,248031,1,0,0:0:0:0:
256,192,248202,1,8,0:0:0:0:
256,192,248374,1,0,0:0:0:0:
256,192,248459,1,8,0:0:0:0:
256,192,248545,1,0,0:0:0:0:
143,86,248717,1,0,0:0:0:0:
137,99,248802,1,0,0:0:0:0:
137,101,248888,1,8,0:0:0:0:
191,112,248974,1,8,0:0:0:0:
256,192,249145,1,0,0:0:0:0:
256,192,249231,1,8,0:0:0:0:
256,192,249402,1,0,0:0:0:0:
256,192,249488,1,0,0:0:0:0:
107,78,249574,1,8,0:0:0:0:
109,86,249659,1,0,0:0:0:0:
138,97,249745,1,8,0:0:0:0:
139,85,249831,1,8,0:0:0:0:
139,85,249917,1,0,0:0:0:0:
141,103,250088,1,0,0:0:0:0:
256,192,250174,1,0,0:0:0:0:
256,192,250259,1,8,0:0:0:0:
256,192,250431,1,0,0:0:0:0:
256,192,250602,1,8,0:0:0:0:
141,103,250688,1,0,0:0:0:0:
256,192,250774,1,0,0:0:0:0:
256,192,250945,1,8,0:0:0:0:
184,123,251117,1,8,0:0:0:0:
184,123,251202,1,8,0:0:0:0:
184,123,251288,1,0,0:0:0:0:
184,133,251459,1,0,0:0:0:0:
183,136,251545,1,0,0:0:0:0:
183,138,251631,1,8,0:0:0:0:
182,138,251802,1,0,0:0:0:0:
182,139,251974,1,8,0:0:0:0:
182,139,252059,1,0,0:0:0:0:
182,141,252145,1,0,0:0:0:0:
182,145,252231,1,0,0:0:0:0:
182,149,252317,1,8,0:0:0:0:
182,149,252488,1,8,0:0:0:0:
182,149,252574,1,8,0:0:0:0:
256,192,252659,1,0,0:0:0:0:
256,192,252745,1,0,0:0:0:0:
256,192,252831,1,8,0:0:0:0:
256,192,252917,1,0,0:0:0:0:
256,192,253002,1,8,0:0:0:0:
256,192,253088,1,8,0:0:0:0:
256,192,253174,1,0,0:0:0:0:
256,192,253259,1,0,0:0:0:0:
256,192,253345,1,8,0:0:0:0:
182,149,253431,1,0,0:0:0:0:
256,192,253517,1,8,0:0:0:0:
256,192,253602,1,8,0:0:0:0:
256,192,253688,1,0,0:0:0:0:
256,192,253745,1,0,0:0:0:0:
256,192,253802,1,0,0:0:0:0:
256,192,253859,1,8,0:0:0:0:
181,141,253945,1,8,0:0:0:0:
181,141,254031,1,0,0:0:0:0:
156,100,254202,1,0,0:0:0:0:
150,117,254288,1,0,0:0:0:0:
256,192,254374,1,8,0:0:0:0:
139,133,254545,1,8,0:0:0:0:
134,155,254631,1,8,0:0:0:0:
131,174,254717,1,0,0:0:0:0:
131,174,254802,1,8,0:0:0:0:
256,192,254888,1,0,0:0:0:0:
256,192,255059,1,12,0:0:0:0:
256,192,255402,5,4,0:0:0:0:
256,192,255574,1,8,0:0:0:0:
256,192,255659,1,8,0:0:0:0:
256,192,255745,1,0,0:0:0:0:
256,192,255917,1,8,0:0:0:0:
256,192,256088,1,0,0:0:0:0:
256,192,256174,1,0,0:0:0:0:
256,192,256259,1,0,0:0:0:0:
256,192,256431,1,8,0:0:0:0:
256,192,256602,1,0,0:0:0:0:
256,192,256688,1,0,0:0:0:0:
256,192,256859,1,0,0:0:0:0:
256,192,256945,1,8,0:0:0:0:
256,192,257117,1,0,0:0:0:0:
256,192,257288,1,8,0:0:0:0:
256,192,257374,1,8,0:0:0:0:
256,192,257459,1,0,0:0:0:0:
256,192,257631,1,0,0:0:0:0:
256,192,257802,1,8,0:0:0:0:
256,192,258145,1,0,0:0:0:0:
256,192,258317,1,0,0:0:0:0:
256,192,258402,1,0,0:0:0:0:
256,192,258488,1,8,0:0:0:0:
256,192,258659,1,0,0:0:0:0:
256,192,258831,1,8,0:0:0:0:
256,192,258917,1,8,0:0:0:0:
256,192,259002,1,8,0:0:0:0:
256,192,259174,1,0,0:0:0:0:
256,192,259345,1,8,0:0:0:0:
256,192,259431,1,0,0:0:0:0:
256,192,259602,1,0,0:0:0:0:
256,192,259688,1,8,0:0:0:0:
256,192,259859,1,0,0:0:0:0:
256,192,260031,1,8,0:0:0:0:
256,192,260117,1,8,0:0:0:0:
256,192,260202,1,8,0:0:0:0:
256,192,260374,1,8,0:0:0:0:
256,192,260545,1,0,0:0:0:0:
256,192,260888,1,8,0:0:0:0:
256,192,261059,1,0,0:0:0:0:
256,192,261145,1,0,0:0:0:0:
256,192,261231,1,8,0:0:0:0:
256,192,261402,1,0,0:0:0:0:
256,192,261574,1,8,0:0:0:0:
256,192,261659,1,8,0:0:0:0:
256,192,261745,1,0,0:0:0:0:
256,192,261917,1,8,0:0:0:0:
256,192,262088,1,0,0:0:0:0:
256,192,262174,1,0,0:0:0:0:
256,192,262345,1,0,0:0:0:0:
256,192,262431,1,8,0:0:0:0:
256,192,262602,1,0,0:0:0:0:
256,192,262774,1,8,0:0:0:0:
256,192,262859,1,0,0:0:0:0:
256,192,262945,1,8,0:0:0:0:
256,192,263117,1,8,0:0:0:0:
256,192,263288,1,0,0:0:0:0:
256,192,263631,1,8,0:0:0:0:
256,192,263802,1,0,0:0:0:0:
256,192,263888,1,0,0:0:0:0:
256,192,263974,1,8,0:0:0:0:
256,192,264145,1,0,0:0:0:0:
256,192,264317,1,8,0:0:0:0:
256,192,264402,1,8,0:0:0:0:
256,192,264488,1,8,0:0:0:0:
256,192,264659,1,0,0:0:0:0:
256,192,264831,1,8,0:0:0:0:
256,192,264917,1,0,0:0:0:0:
256,192,265088,1,0,0:0:0:0:
256,192,265174,1,8,0:0:0:0:
256,192,265345,1,0,0:0:0:0:
256,192,265517,1,8,0:0:0:0:
256,192,265602,1,8,0:0:0:0:
256,192,265688,1,8,0:0:0:0:
256,192,265859,1,0,0:0:0:0:
256,192,266031,1,12,0:0:0:0:
256,192,266374,1,4,0:0:0:0:
256,192,266545,1,8,0:0:0:0:
256,192,266631,1,8,0:0:0:0:
256,192,266717,1,0,0:0:0:0:
256,192,266888,1,8,0:0:0:0:
256,192,267059,1,0,0:0:0:0:
256,192,267145,1,0,0:0:0:0:
256,192,267231,1,0,0:0:0:0:
256,192,267402,1,8,0:0:0:0:
256,192,267488,1,8,0:0:0:0:
256,192,267574,1,0,0:0:0:0:
256,192,267659,1,0,0:0:0:0:
256,192,267831,1,0,0:0:0:0:
256,192,267917,1,8,0:0:0:0:
256,192,268088,1,0,0:0:0:0:
256,192,268259,1,8,0:0:0:0:
256,192,268345,1,8,0:0:0:0:
256,192,268431,1,0,0:0:0:0:
256,192,268517,1,8,0:0:0:0:
256,192,268602,1,0,0:0:0:0:
256,192,268688,1,0,0:0:0:0:
256,192,268774,1,8,0:0:0:0:
256,192,268945,1,8,0:0:0:0:
256,192,269117,1,0,0:0:0:0:
256,192,269202,1,8,0:0:0:0:
256,192,269288,1,0,0:0:0:0:
256,192,269374,1,0,0:0:0:0:
256,192,269459,1,8,0:0:0:0:
256,192,269631,1,0,0:0:0:0:
256,192,269802,1,8,0:0:0:0:
256,192,269888,1,8,0:0:0:0:
256,192,269974,1,8,0:0:0:0:
256,192,270145,1,0,0:0:0:0:
256,192,270317,1,8,0:0:0:0:
256,192,270402,1,0,0:0:0:0:
256,192,270574,1,0,0:0:0:0:
256,192,270659,1,8,0:0:0:0:
256,192,270745,1,8,0:0:0:0:
256,192,270831,1,0,0:0:0:0:
256,192,271002,1,8,0:0:0:0:
256,192,271088,1,8,0:0:0:0:
256,192,271174,1,8,0:0:0:0:
256,192,271345,1,8,0:0:0:0:
256,192,271517,1,0,0:0:0:0:
256,192,271859,1,8,0:0:0:0:
256,192,272031,1,0,0:0:0:0:
256,192,272117,1,0,0:0:0:0:
256,192,272202,1,8,0:0:0:0:
256,192,272374,1,0,0:0:0:0:
256,192,272545,1,8,0:0:0:0:
256,192,272631,1,8,0:0:0:0:
256,192,272717,1,0,0:0:0:0:
256,192,272888,1,8,0:0:0:0:
256,192,272974,1,8,0:0:0:0:
256,192,273059,1,0,0:0:0:0:
256,192,273145,1,0,0:0:0:0:
256,192,273317,1,0,0:0:0:0:
256,192,273402,1,8,0:0:0:0:
256,192,273574,1,0,0:0:0:0:
256,192,273745,1,8,0:0:0:0:
256,192,273831,1,0,0:0:0:0:
256,192,273917,1,8,0:0:0:0:
256,192,274002,1,8,0:0:0:0:
256,192,274088,1,0,0:0:0:0:
256,192,274174,1,0,0:0:0:0:
256,192,274259,1,8,0:0:0:0:
256,192,274431,1,8,0:0:0:0:
256,192,274602,1,0,0:0:0:0:
256,192,274688,1,0,0:0:0:0:
256,192,274774,1,8,0:0:0:0:
256,192,274859,1,8,0:0:0:0:
256,192,274945,1,0,0:0:0:0:
256,192,275031,1,8,0:0:0:0:
256,192,275117,1,0,0:0:0:0:
256,192,275202,1,0,0:0:0:0:
256,192,275288,1,8,0:0:0:0:
256,192,275374,1,0,0:0:0:0:
256,192,275459,1,8,0:0:0:0:
256,192,275545,1,8,0:0:0:0:
256,192,275631,1,0,0:0:0:0:
256,192,275688,1,0,0:0:0:0:
256,192,275745,1,0,0:0:0:0:
256,192,275802,1,8,0:0:0:0:
241,188,277345,5,4,0:0:0:0:
256,192,285574,12,0,288145,0:0:0:0:
175,193,288317,5,4,0:0:0:0:
175,193,288659,1,8,0:0:0:0:
175,193,288831,1,0,0:0:0:0:
175,193,289174,1,0,0:0:0:0:
175,193,289345,1,8,0:0:0:0:
165,169,289517,1,8,0:0:0:0:
175,193,289688,1,0,0:0:0:0:
175,193,290031,1,8,0:0:0:0:
175,193,290202,1,0,0:0:0:0:
175,193,290545,1,0,0:0:0:0:
175,193,290717,1,8,0:0:0:0:
165,169,290888,1,0,0:0:0:0:
175,193,291059,1,0,0:0:0:0:
175,193,291402,1,8,0:0:0:0:
186,185,291574,1,8,0:0:0:0:
175,193,291745,1,0,0:0:0:0:
175,193,291917,1,0,0:0:0:0:
175,193,292088,1,8,0:0:0:0:
165,169,292259,1,8,0:0:0:0:
175,193,292431,1,0,0:0:0:0:
175,193,292774,1,8,0:0:0:0:
175,193,292945,1,0,0:0:0:0:
175,193,293117,1,0,0:0:0:0:
175,193,293288,1,0,0:0:0:0:
175,193,293459,1,8,0:0:0:0:
201,80,293631,1,8,0:0:0:0:
175,193,293802,1,0,0:0:0:0:
175,193,294145,1,8,0:0:0:0:
203,125,294317,1,0,0:0:0:0:
196,89,294488,1,0,0:0:0:0:
175,193,294831,1,8,0:0:0:0:
177,20,295002,1,0,0:0:0:0:
186,97,295345,1,0,0:0:0:0:
175,193,295517,1,8,0:0:0:0:
158,128,295688,1,0,0:0:0:0:
158,128,296031,1,0,0:0:0:0:
175,193,296202,1,8,0:0:0:0:
175,193,296374,1,8,0:0:0:0:
199,71,296545,1,4,0:0:0:0:
199,71,296888,1,8,0:0:0:0:
199,71,297231,1,8,0:0:0:0:
199,71,297574,1,8,0:0:0:0:
147,91,297745,1,0,0:0:0:0:
199,71,297917,1,8,0:0:0:0:
199,71,298259,1,8,0:0:0:0:
147,91,298602,1,8,0:0:0:0:
147,91,298945,1,8,0:0:0:0:
147,91,299117,1,0,0:0:0:0:
147,91,299288,1,8,0:0:0:0:
131,155,299459,1,8,0:0:0:0:
131,155,299631,1,0,0:0:0:0:
131,155,299802,1,8,0:0:0:0:
185,111,299974,1,0,0:0:0:0:
181,107,300145,1,0,0:0:0:0:
147,91,300317,1,8,0:0:0:0:
182,68,300488,1,0,0:0:0:0:
147,91,300659,1,8,0:0:0:0:
182,68,300745,1,0,0:0:0:0:
147,91,300831,1,8,0:0:0:0:
181,73,300917,1,8,0:0:0:0:
180,82,301002,1,0,0:0:0:0:
180,82,301088,1,0,0:0:0:0:
180,82,301174,1,8,0:0:0:0:
221,99,301259,1,0,0:0:0:0:
180,84,301345,1,0,0:0:0:0:
180,84,301431,1,0,0:0:0:0:
180,84,301517,1,8,0:0:0:0:
180,84,301602,1,8,0:0:0:0:
234,138,301688,1,0,0:0:0:0:
234,138,301745,1,0,0:0:0:0:
233,144,301802,1,0,0:0:0:0:
232,145,301859,1,8,0:0:0:0:
221,99,301945,1,8,0:0:0:0:
180,82,302031,1,0,0:0:0:0:
221,99,302374,1,8,0:0:0:0:
222,144,302488,1,0,0:0:0:0:
222,144,302602,1,0,0:0:0:0:
222,144,302717,1,8,0:0:0:0:
222,144,302831,1,0,0:0:0:0:
221,148,302945,1,0,0:0:0:0:
221,153,303059,1,8,0:0:0:0:
221,158,303174,1,0,0:0:0:0:
221,158,303288,1,8,0:0:0:0:
221,158,303402,1,0,0:0:0:0:
221,99,303574,1,0,0:0:0:0:
221,99,303659,1,0,0:0:0:0:
221,99,303745,1,8,0:0:0:0:
221,99,303917,1,8,0:0:0:0:
221,99,304002,1,8,0:0:0:0:
221,99,304088,1,0,0:0:0:0:
221,99,304174,1,8,0:0:0:0:
221,99,304259,1,0,0:0:0:0:
213,66,304431,1,12,0:0:0:0:
213,66,304602,1,0,0:0:0:0:
213,66,304774,1,4,0:0:0:0:
213,66,307174,5,12,0:0:0:0:
213,66,307345,1,8,0:0:0:0:
256,192,307517,5,4,0:0:0:0:
256,192,307774,1,0,0:0:0:0:
256,192,307859,1,8,0:0:0:0:
256,192,308031,1,0,0:0:0:0:
256,192,308117,1,0,0:0:0:0:
256,192,308202,1,8,0:0:0:0:
256,192,308374,1,0,0:0:0:0:
256,192,308459,1,0,0:0:0:0:
256,192,308545,1,8,0:0:0:0:
256,192,308631,1,0,0:0:0:0:
256,192,308717,1,8,0:0:0:0:
256,192,308802,1,8,0:0:0:0:
256,192,308888,1,0,0:0:0:0:
256,192,309059,1,0,0:0:0:0:
256,192,309231,1,8,0:0:0:0:
256,192,309317,1,8,0:0:0:0:
256,192,309402,1,0,0:0:0:0:
256,192,309488,1,8,0:0:0:0:
256,192,309574,1,0,0:0:0:0:
256,192,309745,1,0,0:0:0:0:
256,192,309831,1,0,0:0:0:0:
256,192,309917,1,8,0:0:0:0:
256,192,310088,1,8,0:0:0:0:
256,192,310174,1,8,0:0:0:0:
256,192,310259,1,0,0:0:0:0:
256,192,310345,1,8,0:0:0:0:
256,192,310517,1,8,0:0:0:0:
256,192,310602,1,0,0:0:0:0:
256,192,310774,1,8,0:0:0:0:
256,192,310945,1,0,0:0:0:0:
256,192,311031,1,0,0:0:0:0:
256,192,311117,1,8,0:0:0:0:
256,192,311202,1,8,0:0:0:0:
256,192,311288,1,0,0:0:0:0:
256,192,311374,1,8,0:0:0:0:
256,192,311459,1,0,0:0:0:0:
256,192,311545,1,0,0:0:0:0:
256,192,311631,1,8,0:0:0:0:
256,192,311802,1,0,0:0:0:0:
256,192,311974,1,8,0:0:0:0:
256,192,312059,1,0,0:0:0:0:
256,192,312145,1,8,0:0:0:0:
256,192,312231,1,8,0:0:0:0:
256,192,312317,1,0,0:0:0:0:
256,192,312402,1,0,0:0:0:0:
256,192,312488,1,8,0:0:0:0:
256,192,312659,1,0,0:0:0:0:
256,192,312745,1,0,0:0:0:0:
256,192,312831,1,8,0:0:0:0:
256,192,313002,1,0,0:0:0:0:
256,192,313088,1,8,0:0:0:0:
256,192,313259,1,8,0:0:0:0:
256,192,313345,1,0,0:0:0:0:
256,192,313517,1,8,0:0:0:0:
256,192,313602,1,8,0:0:0:0:
256,192,313688,1,0,0:0:0:0:
256,192,313774,1,0,0:0:0:0:
256,192,313859,1,8,0:0:0:0:
256,192,313945,1,0,0:0:0:0:
256,192,314031,1,8,0:0:0:0:
256,192,314202,1,0,0:0:0:0:
256,192,314374,1,8,0:0:0:0:
256,192,314459,1,8,0:0:0:0:
256,192,314545,1,0,0:0:0:0:
256,192,314631,1,8,0:0:0:0:
256,192,314717,1,0,0:0:0:0:
256,192,314802,1,0,0:0:0:0:
256,192,314888,1,8,0:0:0:0:
256,192,314974,1,0,0:0:0:0:
256,192,315059,1,8,0:0:0:0:
256,192,315145,1,8,0:0:0:0:
256,192,315231,1,0,0:0:0:0:
256,192,315402,1,12,0:0:0:0:
256,192,315745,1,4,0:0:0:0:
256,192,316002,1,0,0:0:0:0:
256,192,316088,1,8,0:0:0:0:
256,192,316259,1,0,0:0:0:0:
256,192,316345,1,0,0:0:0:0:
256,192,316431,1,8,0:0:0:0:
256,192,316602,1,0,0:0:0:0:
256,192,316774,1,8,0:0:0:0:
256,192,316859,1,8,0:0:0:0:
256,192,316945,1,0,0:0:0:0:
256,192,317031,1,0,0:0:0:0:
256,192,317117,1,8,0:0:0:0:
256,192,317288,1,0,0:0:0:0:
256,192,317374,1,0,0:0:0:0:
256,192,317459,1,8,0:0:0:0:
256,192,317545,1,8,0:0:0:0:
256,192,317631,1,0,0:0:0:0:
256,192,317717,1,8,0:0:0:0:
256,192,317802,1,0,0:0:0:0:
256,192,317974,1,8,0:0:0:0:
256,192,318145,1,0,0:0:0:0:
256,192,318231,1,0,0:0:0:0:
256,192,318317,1,8,0:0:0:0:
256,192,318488,1,0,0:0:0:0:
256,192,318574,1,8,0:0:0:0:
256,192,318745,1,8,0:0:0:0:
256,192,318831,1,0,0:0:0:0:
256,192,318917,1,0,0:0:0:0:
256,192,319002,1,8,0:0:0:0:
256,192,319174,1,0,0:0:0:0:
256,192,319259,1,0,0:0:0:0:
256,192,319345,1,8,0:0:0:0:
256,192,319431,1,0,0:0:0:0:
256,192,319517,1,8,0:0:0:0:
256,192,319602,1,8,0:0:0:0:
256,192,319688,1,0,0:0:0:0:
256,192,319859,1,8,0:0:0:0:
256,192,319945,1,0,0:0:0:0:
256,192,320117,1,0,0:0:0:0:
256,192,320202,1,8,0:0:0:0:
256,192,320374,1,0,0:0:0:0:
256,192,320545,1,8,0:0:0:0:
256,192,320631,1,0,0:0:0:0:
256,192,320717,1,0,0:0:0:0:
256,192,320802,1,0,0:0:0:0:
256,192,320888,1,8,0:0:0:0:
256,192,320974,1,8,0:0:0:0:
256,192,321059,1,0,0:0:0:0:
256,192,321145,1,0,0:0:0:0:
256,192,321231,1,8,0:0:0:0:
256,192,321402,1,0,0:0:0:0:
256,192,321488,1,8,0:0:0:0:
256,192,321574,1,0,0:0:0:0:
256,192,321745,1,8,0:0:0:0:
256,192,321917,1,0,0:0:0:0:
256,192,322002,1,0,0:0:0:0:
256,192,322088,1,0,0:0:0:0:
256,192,322174,1,0,0:0:0:0:
256,192,322259,1,8,0:0:0:0:
256,192,322431,1,8,0:0:0:0:
256,192,322602,1,0,0:0:0:0:
256,192,322688,1,0,0:0:0:0:
256,192,322774,1,8,0:0:0:0:
256,192,322859,1,8,0:0:0:0:
256,192,322945,1,0,0:0:0:0:
256,192,323117,1,8,0:0:0:0:
256,192,323202,1,8,0:0:0:0:
256,192,323288,1,0,0:0:0:0:
256,192,323374,1,8,0:0:0:0:
256,192,323459,1,0,0:0:0:0:
256,192,323545,1,0,0:0:0:0:
256,192,323631,1,8,0:0:0:0:
256,192,323802,1,8,0:0:0:0:
256,192,323974,1,0,0:0:0:0:
256,192,324059,1,0,0:0:0:0:
256,192,324145,1,8,0:0:0:0:
256,192,324231,1,0,0:0:0:0:
256,192,324317,1,8,0:0:0:0:
256,192,324402,1,8,0:0:0:0:
256,192,324488,1,0,0:0:0:0:
256,192,324574,1,8,0:0:0:0:
256,192,324659,1,0,0:0:0:0:
256,192,324745,1,0,0:0:0:0:
256,192,324831,1,8,0:0:0:0:
256,192,324917,1,8,0:0:0:0:
256,192,325002,1,8,0:0:0:0:
256,192,325088,1,8,0:0:0:0:
256,192,325174,1,0,0:0:0:0:
256,192,325345,1,12,0:0:0:0:
256,192,325688,1,0,0:0:0:0:
256,192,325859,5,12,0:0:0:0:
256,192,326202,1,0,0:0:0:0:
256,192,326374,1,8,0:0:0:0:
256,192,326545,1,8,0:0:0:0:
256,192,326717,1,4,0:0:0:0:
166,73,327059,5,12,0:0:0:0:
168,79,327231,1,0,0:0:0:0:
166,73,327402,1,8,0:0:0:0:
214,114,327574,1,0,0:0:0:0:
191,173,327659,1,8,0:0:0:0:
166,73,327745,1,0,0:0:0:0:
171,33,327917,1,8,0:0:0:0:
166,73,328088,1,0,0:0:0:0:
166,73,328174,1,0,0:0:0:0:
176,208,328259,1,8,0:0:0:0:
186,203,328345,1,8,0:0:0:0:
176,208,328431,1,0,0:0:0:0:
176,208,328602,1,8,0:0:0:0:
174,50,328774,1,0,0:0:0:0:
191,173,328859,1,0,0:0:0:0:
191,173,328945,1,8,0:0:0:0:
191,173,329031,1,0,0:0:0:0:
160,183,329117,1,8,0:0:0:0:
191,168,329288,1,8,0:0:0:0:
172,66,329459,1,0,0:0:0:0:
160,183,329631,1,0,0:0:0:0:
172,66,329717,1,0,0:0:0:0:
172,66,329802,1,8,0:0:0:0:
172,194,329974,1,0,0:0:0:0:
172,66,330059,1,8,0:0:0:0:
186,203,330145,1,0,0:0:0:0:
186,203,330231,1,0,0:0:0:0:
160,183,330317,1,8,0:0:0:0:
190,72,330488,1,8,0:0:0:0:
175,170,330574,1,0,0:0:0:0:
229,153,330659,1,8,0:0:0:0:
181,138,330745,1,8,0:0:0:0:
143,61,330831,1,0,0:0:0:0:
160,141,331002,1,0,0:0:0:0:
229,153,331174,1,8,0:0:0:0:
160,141,331259,1,8,0:0:0:0:
160,141,331345,1,0,0:0:0:0:
176,71,331431,1,8,0:0:0:0:
176,71,331517,1,0,0:0:0:0:
176,71,331602,1,0,0:0:0:0:
229,153,331688,1,8,0:0:0:0:
132,158,331774,1,0,0:0:0:0:
132,158,331859,1,8,0:0:0:0:
132,158,332031,1,8,0:0:0:0:
132,158,332202,1,0,0:0:0:0:
146,138,332374,1,0,0:0:0:0:
132,158,332459,1,0,0:0:0:0:
132,158,332545,1,8,0:0:0:0:
145,138,332717,1,0,0:0:0:0:
145,138,332888,1,8,0:0:0:0:
186,203,332974,1,8,0:0:0:0:
141,132,333059,1,0,0:0:0:0:
166,73,333145,1,8,0:0:0:0:
166,73,333231,1,0,0:0:0:0:
171,33,333402,1,8,0:0:0:0:
166,73,333574,1,0,0:0:0:0:
166,73,333659,1,0,0:0:0:0:
176,208,333745,1,8,0:0:0:0:
145,138,333831,1,8,0:0:0:0:
176,208,333917,1,0,0:0:0:0:
176,208,334088,1,8,0:0:0:0:
174,44,334174,1,8,0:0:0:0:
174,50,334259,1,0,0:0:0:0:
176,208,334345,1,0,0:0:0:0:
176,208,334431,1,8,0:0:0:0:
176,208,334517,1,0,0:0:0:0:
160,183,334602,1,8,0:0:0:0:
176,208,334774,1,8,0:0:0:0:
196,222,334859,1,8,0:0:0:0:
172,66,334945,1,0,0:0:0:0:
160,183,335117,1,0,0:0:0:0:
172,66,335202,1,0,0:0:0:0:
172,66,335288,1,8,0:0:0:0:
146,158,335459,1,0,0:0:0:0:
172,66,335545,1,8,0:0:0:0:
172,66,335631,1,0,0:0:0:0:
172,66,335717,1,0,0:0:0:0:
160,183,335802,1,8,0:0:0:0:
190,72,335888,1,0,0:0:0:0:
190,72,335974,1,8,0:0:0:0:
229,153,336145,1,8,0:0:0:0:
143,61,336231,1,0,0:0:0:0:
143,61,336317,1,0,0:0:0:0:
178,122,336488,1,0,0:0:0:0:
181,138,336574,1,0,0:0:0:0:
179,116,336659,1,8,0:0:0:0:
176,71,336745,1,0,0:0:0:0:
176,71,336831,1,8,0:0:0:0:
176,71,336917,1,8,0:0:0:0:
176,71,337002,1,0,0:0:0:0:
181,138,337088,1,0,0:0:0:0:
131,203,337174,1,0,0:0:0:0:
231,113,337345,1,12,0:0:0:0:
231,113,337517,1,8,0:0:0:0:
231,113,337688,1,4,0:0:0:0:
138,201,337945,1,0,0:0:0:0:
138,201,338031,1,8,0:0:0:0:
256,192,338202,1,0,0:0:0:0:
256,192,338288,1,0,0:0:0:0:
256,192,338374,1,8,0:0:0:0:
256,192,338545,1,0,0:0:0:0:
256,192,338717,1,8,0:0:0:0:
256,192,338802,1,8,0:0:0:0:
256,192,338888,1,0,0:0:0:0:
89,193,338974,1,0,0:0:0:0:
256,192,339059,1,8,0:0:0:0:
256,192,339231,1,0,0:0:0:0:
184,38,339317,1,0,0:0:0:0:
184,38,339402,1,8,0:0:0:0:
208,162,339488,1,8,0:0:0:0:
256,192,339659,1,0,0:0:0:0:
194,147,339745,1,8,0:0:0:0:
256,192,339917,1,0,0:0:0:0:
256,192,340088,1,8,0:0:0:0:
174,134,340174,1,0,0:0:0:0:
256,192,340259,1,8,0:0:0:0:
256,192,340345,1,8,0:0:0:0:
256,192,340431,1,0,0:0:0:0:
256,192,340602,1,0,0:0:0:0:
256,192,340688,1,0,0:0:0:0:
256,192,340774,1,8,0:0:0:0:
256,192,340945,1,0,0:0:0:0:
256,200,341031,1,0,0:0:0:0:
256,192,341117,1,8,0:0:0:0:
256,192,341202,1,8,0:0:0:0:
256,192,341288,1,0,0:0:0:0:
256,192,341459,1,8,0:0:0:0:
256,192,341631,1,0,0:0:0:0:
256,192,341717,1,8,0:0:0:0:
256,192,341802,1,0,0:0:0:0:
143,86,341974,1,0,0:0:0:0:
137,99,342059,1,0,0:0:0:0:
137,101,342145,1,8,0:0:0:0:
191,112,342231,1,8,0:0:0:0:
256,192,342402,1,0,0:0:0:0:
256,192,342488,1,8,0:0:0:0:
256,192,342659,1,0,0:0:0:0:
256,192,342745,1,0,0:0:0:0:
107,78,342831,1,8,0:0:0:0:
109,86,342917,1,0,0:0:0:0:
138,97,343002,1,8,0:0:0:0:
139,85,343088,1,8,0:0:0:0:
139,85,343174,1,0,0:0:0:0:
141,103,343345,1,0,0:0:0:0:
256,192,343431,1,0,0:0:0:0:
256,192,343517,1,8,0:0:0:0:
256,192,343688,1,0,0:0:0:0:
256,192,343859,1,8,0:0:0:0:
141,103,343945,1,0,0:0:0:0:
256,192,344031,1,0,0:0:0:0:
256,192,344202,1,8,0:0:0:0:
184,123,344374,1,8,0:0:0:0:
184,123,344459,1,8,0:0:0:0:
184,123,344545,1,0,0:0:0:0:
184,133,344717,1,0,0:0:0:0:
183,136,344802,1,0,0:0:0:0:
183,138,344888,1,8,0:0:0:0:
182,138,345059,1,0,0:0:0:0:
182,139,345231,1,8,0:0:0:0:
182,139,345317,1,0,0:0:0:0:
182,141,345402,1,0,0:0:0:0:
182,145,345488,1,0,0:0:0:0:
182,149,345574,1,8,0:0:0:0:
182,149,345745,1,8,0:0:0:0:
182,149,345831,1,8,0:0:0:0:
256,192,345917,1,0,0:0:0:0:
256,192,346002,1,0,0:0:0:0:
256,192,346088,1,8,0:0:0:0:
256,192,346174,1,0,0:0:0:0:
256,192,346259,1,8,0:0:0:0:
256,192,346345,1,8,0:0:0:0:
256,192,346431,1,0,0:0:0:0:
256,192,346517,1,0,0:0:0:0:
256,192,346602,1,8,0:0:0:0:
182,149,346688,1,0,0:0:0:0:
256,192,346774,1,8,0:0:0:0:
256,192,346859,1,8,0:0:0:0:
256,192,346945,1,0,0:0:0:0:
256,192,347002,1,0,0:0:0:0:
256,192,347059,1,0,0:0:0:0:
256,192,347117,1,8,0:0:0:0:
181,141,347202,1,8,0:0:0:0:
181,141,347288,1,0,0:0:0:0:
156,100,347459,5,0,0:0:0:0:
150,117,347545,1,0,0:0:0:0:
256,192,347631,1,8,0:0:0:0:
139,133,347802,1,8,0:0:0:0:
134,155,347888,1,8,0:0:0:0:
131,174,347974,1,0,0:0:0:0:
131,174,348059,1,8,0:0:0:0:
256,192,348145,1,0,0:0:0:0:
138,201,348317,1,8,0:0:0:0:
256,192,348659,5,4,0:0:0:0:
256,192,349002,1,8,0:0:0:0:
256,192,349174,1,8,0:0:0:0:
256,192,349345,1,0,0:0:0:0:
256,192,349431,1,0,0:0:0:0:
256,192,349517,1,0,0:0:0:0:
256,192,349688,1,8,0:0:0:0:
256,192,349859,1,0,0:0:0:0:
256,192,349945,1,0,0:0:0:0:
256,192,350031,1,8,0:0:0:0:
256,192,350202,1,0,0:0:0:0:
256,192,350374,1,8,0:0:0:0:
256,192,350545,1,8,0:0:0:0:
256,192,350631,1,8,0:0:0:0:
256,192,350717,1,0,0:0:0:0:
256,192,350888,1,0,0:0:0:0:
256,192,351059,1,8,0:0:0:0:
256,192,351145,1,0,0:0:0:0:
256,192,351231,1,8,0:0:0:0:
256,192,351317,1,8,0:0:0:0:
256,192,351402,1,0,0:0:0:0:
256,192,351659,1,0,0:0:0:0:
256,192,351745,1,8,0:0:0:0:
256,192,351917,1,0,0:0:0:0:
256,192,352088,1,8,0:0:0:0:
256,192,352174,1,8,0:0:0:0:
256,192,352345,1,0,0:0:0:0:
256,192,352431,1,8,0:0:0:0:
256,192,352517,1,8,0:0:0:0:
256,192,352602,1,0,0:0:0:0:
256,192,352774,1,8,0:0:0:0:
256,192,352945,1,0,0:0:0:0:
256,192,353031,1,0,0:0:0:0:
256,192,353117,1,8,0:0:0:0:
256,192,353288,1,8,0:0:0:0:
256,192,353459,1,0,0:0:0:0:
256,192,353545,1,0,0:0:0:0:
256,192,353631,1,0,0:0:0:0:
256,192,353802,1,8,0:0:0:0:
256,192,353974,1,8,0:0:0:0:
256,192,354145,1,4,0:0:0:0:
256,192,354488,1,8,0:0:0:0:
256,192,354659,1,0,0:0:0:0:
256,192,354831,1,8,0:0:0:0:
256,192,355002,1,0,0:0:0:0:
256,192,355174,1,8,0:0:0:0:
256,192,355259,1,8,0:0:0:0:
256,192,355345,1,0,0:0:0:0:
256,192,355517,1,8,0:0:0:0:
256,192,355688,1,0,0:0:0:0:
256,192,355859,1,8,0:0:0:0:
256,192,356031,1,0,0:0:0:0:
256,192,356202,1,8,0:0:0:0:
256,192,356288,1,8,0:0:0:0:
256,192,356374,1,0,0:0:0:0:
256,192,356545,1,8,0:0:0:0:
256,192,356717,1,0,0:0:0:0:
256,192,356888,1,8,0:0:0:0:
256,192,356974,1,0,0:0:0:0:
256,192,357059,1,0,0:0:0:0:
256,192,357145,1,0,0:0:0:0:
256,192,357231,1,8,0:0:0:0:
256,192,357317,1,8,0:0:0:0:
256,192,357402,1,8,0:0:0:0:
256,192,357488,1,8,0:0:0:0:
256,192,357574,1,0,0:0:0:0:
256,192,357659,1,0,0:0:0:0:
256,192,357745,1,8,0:0:0:0:
256,192,357831,1,8,0:0:0:0:
256,192,357917,1,0,0:0:0:0:
256,192,357974,1,0,0:0:0:0:
256,192,358031,1,0,0:0:0:0:
256,192,358088,1,8,0:0:0:0:
256,192,358174,1,8,0:0:0:0:
256,192,358259,1,0,0:0:0:0:
256,192,359631,1,0,0:0:0:0:
256,192,359802,1,0,0:0:0:0:
256,192,359888,5,0,0:0:0:0:
256,192,359974,1,8,0:0:0:0:
256,192,360145,1,0,0:0:0:0:
256,192,360231,1,8,0:0:0:0:
256,192,360317,1,0,0:0:0:0:
256,192,360402,1,8,0:0:0:0:
256,192,360488,1,0,0:0:0:0:
256,192,360659,1,12,0:0:0:0:
167,207,361002,5,4,0:0:0:0:
264,178,361174,1,8,0:0:0:0:
264,178,361259,1,8,0:0:0:0:
264,178,361345,1,0,0:0:0:0:
264,181,361517,1,8,0:0:0:0:
264,178,361688,1,0,0:0:0:0:
203,168,361774,1,0,0:0:0:0:
191,184,361859,1,0,0:0:0:0:
191,184,362031,1,8,0:0:0:0:
191,184,362202,1,0,0:0:0:0:
152,117,362288,1,0,0:0:0:0:
166,140,362459,1,0,0:0:0:0:
257,181,362545,1,8,0:0:0:0:
258,188,362717,1,0,0:0:0:0:
259,194,362802,1,0,0:0:0:0:
259,197,362888,1,8,0:0:0:0:
217,208,362974,1,8,0:0:0:0:
259,197,363059,1,8,0:0:0:0:
259,198,363231,1,8,0:0:0:0:
259,198,363402,1,0,0:0:0:0:
167,207,363745,1,0,0:0:0:0:
264,178,363917,1,8,0:0:0:0:
264,178,364002,1,8,0:0:0:0:
264,178,364088,1,0,0:0:0:0:
264,181,364259,1,8,0:0:0:0:
264,178,364431,1,0,0:0:0:0:
184,142,364517,1,0,0:0:0:0:
191,184,364602,1,0,0:0:0:0:
191,184,364774,1,8,0:0:0:0:
191,184,364945,1,0,0:0:0:0:
152,117,365031,1,0,0:0:0:0:
166,140,365202,1,0,0:0:0:0:
257,181,365288,1,8,0:0:0:0:
182,153,365374,1,8,0:0:0:0:
258,188,365459,1,0,0:0:0:0:
259,197,365631,1,8,0:0:0:0:
161,118,365717,1,8,0:0:0:0:
259,197,365802,1,8,0:0:0:0:
259,198,365974,1,8,0:0:0:0:
156,158,366145,1,0,0:0:0:0:
167,207,366488,1,0,0:0:0:0:
167,207,366574,1,0,0:0:0:0:
264,178,366659,1,8,0:0:0:0:
129,141,366745,1,8,0:0:0:0:
264,178,366831,1,0,0:0:0:0:
264,181,367002,1,8,0:0:0:0:
197,134,367088,1,8,0:0:0:0:
264,178,367174,1,0,0:0:0:0:
191,184,367345,1,0,0:0:0:0:
209,122,367431,1,0,0:0:0:0:
191,184,367517,1,8,0:0:0:0:
209,122,367688,1,8,0:0:0:0:
152,117,367774,1,0,0:0:0:0:
166,140,367945,1,0,0:0:0:0:
257,181,368031,1,8,0:0:0:0:
258,188,368202,1,0,0:0:0:0:
259,194,368288,1,0,0:0:0:0:
259,197,368374,1,8,0:0:0:0:
217,208,368459,1,8,0:0:0:0:
259,197,368545,1,8,0:0:0:0:
259,198,368717,1,8,0:0:0:0:
259,198,368888,1,0,0:0:0:0:
124,161,369231,1,0,0:0:0:0:
124,161,369317,1,0,0:0:0:0:
264,178,369402,1,8,0:0:0:0:
129,141,369488,1,8,0:0:0:0:
264,178,369574,1,0,0:0:0:0:
264,181,369745,1,8,0:0:0:0:
156,166,369831,1,8,0:0:0:0:
264,178,369917,1,0,0:0:0:0:
191,184,370088,1,0,0:0:0:0:
198,98,370174,1,0,0:0:0:0:
191,184,370259,1,8,0:0:0:0:
197,118,370431,1,8,0:0:0:0:
196,117,370517,1,0,0:0:0:0:
166,140,370688,1,0,0:0:0:0:
257,181,370774,1,8,0:0:0:0:
182,153,370859,1,8,0:0:0:0:
258,188,370945,1,0,0:0:0:0:
259,197,371117,1,8,0:0:0:0:
161,118,371202,1,8,0:0:0:0:
259,197,371288,1,8,0:0:0:0:
195,101,371459,1,0,0:0:0:0:
221,171,371631,1,12,0:0:0:0:
187,91,371974,1,4,0:0:0:0:
264,178,372145,1,8,0:0:0:0:
264,178,372231,1,8,0:0:0:0:
264,178,372317,1,0,0:0:0:0:
264,181,372488,1,8,0:0:0:0:
264,178,372659,1,0,0:0:0:0:
203,168,372745,1,0,0:0:0:0:
191,184,372831,1,0,0:0:0:0:
191,184,373002,1,8,0:0:0:0:
191,184,373174,1,0,0:0:0:0:
152,117,373259,1,0,0:0:0:0:
166,140,373431,1,0,0:0:0:0:
257,181,373517,1,8,0:0:0:0:
258,188,373688,1,0,0:0:0:0:
259,194,373774,1,0,0:0:0:0:
259,197,373859,1,8,0:0:0:0:
217,208,373945,1,8,0:0:0:0:
259,197,374031,1,8,0:0:0:0:
259,198,374202,1,8,0:0:0:0:
259,198,374374,1,0,0:0:0:0:
151,138,374545,1,0,0:0:0:0:
151,138,374631,1,0,0:0:0:0:
155,158,374717,1,8,0:0:0:0:
264,178,374888,1,8,0:0:0:0:
264,178,374974,1,8,0:0:0:0:
264,178,375059,1,0,0:0:0:0:
264,181,375231,1,8,0:0:0:0:
264,178,375402,1,0,0:0:0:0:
184,142,375488,1,0,0:0:0:0:
191,184,375574,1,0,0:0:0:0:
191,184,375745,1,8,0:0:0:0:
191,184,375917,1,0,0:0:0:0:
152,117,376002,1,0,0:0:0:0:
166,140,376174,1,0,0:0:0:0:
257,181,376259,1,8,0:0:0:0:
182,153,376345,1,8,0:0:0:0:
258,188,376431,1,0,0:0:0:0:
259,197,376602,1,8,0:0:0:0:
161,118,376688,1,8,0:0:0:0:
259,197,376774,1,8,0:0:0:0:
259,198,376945,1,8,0:0:0:0:
156,158,377117,1,0,0:0:0:0:
191,137,377288,1,0,0:0:0:0:
191,137,377374,1,0,0:0:0:0:
221,171,377459,1,8,0:0:0:0:
184,198,377545,1,8,0:0:0:0:
175,104,377631,1,0,0:0:0:0:
173,137,377802,1,8,0:0:0:0:
134,133,377974,1,8,0:0:0:0:
134,137,378059,1,8,0:0:0:0:
264,178,378145,1,0,0:0:0:0:
191,184,378317,1,0,0:0:0:0:
231,123,378402,1,0,0:0:0:0:
191,184,378488,1,8,0:0:0:0:
162,119,378659,1,8,0:0:0:0:
152,117,378745,1,0,0:0:0:0:
166,140,378917,1,0,0:0:0:0:
257,181,379002,1,8,0:0:0:0:
258,188,379174,1,0,0:0:0:0:
259,194,379259,1,0,0:0:0:0:
259,197,379345,1,8,0:0:0:0:
217,208,379431,1,8,0:0:0:0:
259,197,379517,1,8,0:0:0:0:
259,198,379688,1,8,0:0:0:0:
259,198,379859,1,0,0:0:0:0:
191,137,380031,1,0,0:0:0:0:
191,137,380117,1,0,0:0:0:0:
154,126,380202,1,8,0:0:0:0:
161,129,380288,1,8,0:0:0:0:
161,135,380374,1,0,0:0:0:0:
264,178,380459,1,8,0:0:0:0:
264,178,380545,1,0,0:0:0:0:
191,137,380631,1,0,0:0:0:0:
264,181,380717,1,8,0:0:0:0:
191,137,380802,1,8,0:0:0:0:
264,178,380888,1,0,0:0:0:0:
184,142,380974,1,0,0:0:0:0:
163,61,381059,1,8,0:0:0:0:
166,86,381145,1,8,0:0:0:0:
146,217,381231,1,0,0:0:0:0:
160,203,381288,1,0,0:0:0:0:
174,189,381345,1,0,0:0:0:0:
227,120,381402,1,8,0:0:0:0:
256,192,382945,5,4,0:0:0:0:
256,192,383288,1,8,0:0:0:0:
256,192,383459,1,0,0:0:0:0:
256,192,383545,1,0,0:0:0:0:
256,192,383631,1,8,0:0:0:0:
256,192,383802,1,0,0:0:0:0:
256,192,383974,1,8,0:0:0:0:
256,192,384317,1,0,0:0:0:0:
256,192,384488,1,0,0:0:0:0:
256,192,384659,1,8,0:0:0:0:
256,192,384745,1,8,0:0:0:0:
256,192,384831,1,8,0:0:0:0:
256,192,385002,1,0,0:0:0:0:
256,192,385174,1,0,0:0:0:0:
256,192,385345,1,8,0:0:0:0:
256,192,385688,1,0,0:0:0:0:
256,192,385859,1,0,0:0:0:0:
256,192,386031,1,8,0:0:0:0:
256,192,386202,1,8,0:0:0:0:
256,192,386288,1,8,0:0:0:0:
256,192,386374,1,0,0:0:0:0:
256,192,386545,1,0,0:0:0:0:
256,192,386717,1,8,0:0:0:0:
256,192,387059,1,0,0:0:0:0:
256,192,387231,1,0,0:0:0:0:
256,192,387402,1,8,0:0:0:0:
256,192,387488,1,0,0:0:0:0:
256,192,387574,1,8,0:0:0:0:
256,192,387745,1,0,0:0:0:0:
256,192,387917,1,0,0:0:0:0:
256,192,388088,1,8,0:0:0:0:
256,192,388431,1,0,0:0:0:0:
256,192,388602,1,0,0:0:0:0:
256,192,388774,1,8,0:0:0:0:
256,192,388945,1,0,0:0:0:0:
256,192,389031,1,0,0:0:0:0:
256,192,389117,1,8,0:0:0:0:
256,192,389288,1,0,0:0:0:0:
256,192,389459,1,8,0:0:0:0:
256,192,389802,1,0,0:0:0:0:
256,192,389974,1,0,0:0:0:0:
256,192,390145,1,8,0:0:0:0:
256,192,390231,1,8,0:0:0:0:
256,192,390317,1,0,0:0:0:0:
256,192,390488,1,8,0:0:0:0:
256,192,390659,1,0,0:0:0:0:
256,192,390831,1,8,0:0:0:0:
256,192,391174,1,0,0:0:0:0:
256,192,391345,1,0,0:0:0:0:
256,192,391517,1,8,0:0:0:0:
256,192,391688,1,8,0:0:0:0:
256,192,391859,1,0,0:0:0:0:
256,192,391945,1,0,0:0:0:0:
256,192,392031,1,8,0:0:0:0:
256,192,392117,1,0,0:0:0:0:
256,192,392202,1,8,0:0:0:0:
256,192,392374,1,0,0:0:0:0:
256,192,392545,1,12,0:0:0:0:
256,192,393059,1,8,0:0:0:0:
256,192,393117,1,8,0:0:0:0:
256,192,393174,1,8,0:0:0:0:
256,192,393231,1,0,0:0:0:0:
256,192,393317,1,0,0:0:0:0:
256,192,393488,1,0,0:0:0:0:
256,192,393574,1,8,0:0:0:0:
256,192,393917,1,4,0:0:0:0:
256,192,394259,1,8,0:0:0:0:
256,192,394602,1,0,0:0:0:0:
256,192,394774,1,0,0:0:0:0:
256,192,394945,1,8,0:0:0:0:
256,192,395288,1,0,0:0:0:0:
256,192,395631,1,8,0:0:0:0:
256,192,395974,1,0,0:0:0:0:
256,192,396145,1,0,0:0:0:0:
256,192,396317,1,8,0:0:0:0:
256,192,396488,1,8,0:0:0:0:
256,192,396574,1,8,0:0:0:0:
256,192,396659,1,0,0:0:0:0:
256,192,397002,1,8,0:0:0:0:
256,192,397345,1,0,0:0:0:0:
256,192,397517,1,0,0:0:0:0:
256,192,397688,1,8,0:0:0:0:
256,192,398031,1,0,0:0:0:0:
256,192,398374,1,8,0:0:0:0:
256,192,398717,1,0,0:0:0:0:
256,192,398888,1,0,0:0:0:0:
256,192,399059,1,8,0:0:0:0:
256,192,399231,1,8,0:0:0:0:
256,192,399317,1,8,0:0:0:0:
256,192,399402,1,0,0:0:0:0:
256,192,399574,1,0,0:0:0:0:
256,192,399745,1,8,0:0:0:0:
256,192,399917,1,8,0:0:0:0:
256,192,400088,1,0,0:0:0:0:
256,192,400259,1,0,0:0:0:0:
256,192,400431,1,8,0:0:0:0:
256,192,400602,1,8,0:0:0:0:
256,192,400688,1,8,0:0:0:0:
256,192,400774,1,0,0:0:0:0:
256,192,400945,1,0,0:0:0:0:
256,192,401117,1,8,0:0:0:0:
256,192,401288,1,8,0:0:0:0:
256,192,401459,1,0,0:0:0:0:
256,192,401631,1,0,0:0:0:0:
256,192,401802,1,8,0:0:0:0:
256,192,401974,1,8,0:0:0:0:
256,192,402059,1,8,0:0:0:0:
256,192,402145,1,0,0:0:0:0:
256,192,402231,1,0,0:0:0:0:
256,192,402317,1,8,0:0:0:0:
256,192,402402,1,0,0:0:0:0:
256,192,402488,1,8,0:0:0:0:
256,192,402574,1,8,0:0:0:0:
256,192,402659,1,0,0:0:0:0:
256,192,402745,1,0,0:0:0:0:
256,192,402831,1,8,0:0:0:0:
256,192,402917,1,8,0:0:0:0:
256,192,403002,1,8,0:0:0:0:
256,192,403088,1,8,0:0:0:0:
256,192,403174,1,0,0:0:0:0:
256,192,403231,1,0,0:0:0:0:
256,192,403288,1,0,0:0:0:0:
256,192,403345,1,8,0:0:0:0:
256,192,403431,1,8,0:0:0:0:
256,192,403517,1,0,0:0:0:0:
