osu file format v14

[General]
AudioFilename: audio.mp3
AudioLeadIn: 0
PreviewTime: 37703
Countdown: 0
SampleSet: Normal
StackLeniency: 0.7
Mode: 1
LetterboxInBreaks: 0
WidescreenStoryboard: 1

[Editor]
Bookmarks: 2850,14144,31085,31615,60732
DistanceSpacing: 0.9
BeatDivisor: 4
GridSize: 32
TimelineZoom: 2

[Metadata]
Title:Hana no Tou (TV Size)
TitleUnicode:花の塔 (TV Size)
Artist:Sayuri
ArtistUnicode:さユり
Creator:iloveyou4ever
Version:Muzukashii
Source:リコリス・リコイル
Tags:酸欠少女さユり sanketsu-girl sanketsu shoujo shojo hypoxia girl yuri japanese pop jpop j-pop jrock j-rock rock anime ed ending lycoris recoil rikorisu rikoiru flower tower
BeatmapID:3704790
BeatmapSetID:1806559

[Difficulty]
HPDrainRate:7
CircleSize:3
OverallDifficulty:5
ApproachRate:0
SliderMultiplier:1.4
SliderTickRate:1

[Events]
//Background and Video events
0,0,"99018897_p0.jpg",0,0
Video,-41,"output.mp4"
//Break Periods
//Storyboard Layer 0 (Background)
//Storyboard Layer 1 (Fail)
//Storyboard Layer 2 (Pass)
//Storyboard Layer 3 (Foreground)
//Storyboard Layer 4 (Overlay)
//Storyboard Sound Samples

[TimingPoints]
27,352.941176470588,4,1,0,90,1,0
12203,-96.1538461538461,4,1,0,90,0,0
12379,-92.5925925925926,4,1,0,90,0,0
12556,-89.2857142857143,4,1,0,90,0,0
13615,-95.2380952380952,4,1,0,90,0,0
14144,-100,4,1,0,75,0,0
23850,-90.9090909090909,4,1,0,75,0,0
25438,-105.263157894737,4,1,0,80,0,0
31085,-100,4,1,0,90,0,0
38144,-95.2380952380952,4,1,0,90,0,1
48026,-90.9090909090909,4,1,0,90,0,1
49438,-95.2380952380952,4,1,0,90,0,1
81909,-95.2380952380952,4,1,0,90,0,0
82791,-111.111111111111,4,1,0,75,0,0
83318,-100,4,1,0,90,0,0
87026,-96.1538461538461,4,1,0,90,0,0
87203,-92.5925925925926,4,1,0,90,0,0
87379,-89.2857142857143,4,1,0,90,0,0
87556,-89.2857142857143,4,1,0,80,0,0
88350,-89.2857142857143,4,1,0,78,0,0
88438,-89.2857142857143,4,1,0,75,0,0
88526,-89.2857142857143,4,1,0,72,0,0
88615,-89.2857142857143,4,1,0,70,0,0
88703,-89.2857142857143,4,1,0,68,0,0
88791,-89.2857142857143,4,1,0,65,0,0
88879,-89.2857142857143,4,1,0,62,0,0
88968,-89.2857142857143,4,1,0,60,0,0
89056,-89.2857142857143,4,1,0,58,0,0
89144,-89.2857142857143,4,1,0,55,0,0
89232,-89.2857142857143,4,1,0,52,0,0
89321,-89.2857142857143,4,1,0,50,0,0
89409,-89.2857142857143,4,1,0,48,0,0
89497,-89.2857142857143,4,1,0,45,0,0
89585,-89.2857142857143,4,1,0,42,0,0
89674,-89.2857142857143,4,1,0,40,0,0
89762,-89.2857142857143,4,1,0,38,0,0
89850,-89.2857142857143,4,1,0,35,0,0
89938,-89.2857142857143,4,1,0,32,0,0
90026,-89.2857142857143,4,1,0,30,0,0
90115,-89.2857142857143,4,1,0,28,0,0
90203,-89.2857142857143,4,1,0,25,0,0
90291,-89.2857142857143,4,1,0,22,0,0
90379,-89.2857142857143,4,1,0,20,0,0

[HitObjects]
388,190,27,5,12,0:0:0:0:
388,190,203,1,12,0:0:0:0:
388,190,556,1,12,0:0:0:0:
388,190,732,1,4,0:0:0:0:
388,190,1085,1,4,0:0:0:0:
388,190,1262,1,4,0:0:0:0:
469,196,1615,1,12,0:0:0:0:
435,173,1791,1,4,0:0:0:0:
435,173,2144,1,0,0:0:0:0:
388,190,2232,1,0,0:0:0:0:
388,190,2321,1,0,0:0:0:0:
388,186,2497,1,8,0:0:0:0:
388,186,2850,1,12,0:0:0:0:
462,188,3026,1,0,0:0:0:0:
448,128,3203,1,0,0:0:0:0:
441,198,3379,1,8,0:0:0:0:
503,181,3556,1,0,0:0:0:0:
384,192,3909,1,0,0:0:0:0:
462,188,4438,1,8,0:0:0:0:
462,188,4615,1,0,0:0:0:0:
366,185,4791,1,8,0:0:0:0:
366,185,4879,1,8,0:0:0:0:
503,181,4968,1,8,0:0:0:0:
462,188,5144,1,8,0:0:0:0:
433,244,5321,1,0,0:0:0:0:
462,188,5674,1,8,0:0:0:0:
503,181,5850,1,0,0:0:0:0:
503,181,6026,1,8,0:0:0:0:
503,181,6203,1,0,0:0:0:0:
480,224,6379,1,0,0:0:0:0:
352,192,6732,1,0,0:0:0:0:
503,181,7262,1,8,0:0:0:0:
503,181,7438,1,0,0:0:0:0:
371,171,7615,1,8,0:0:0:0:
370,171,7703,1,8,0:0:0:0:
480,192,7791,1,8,0:0:0:0:
430,231,7968,1,0,0:0:0:0:
433,174,8144,1,8,0:0:0:0:
432,176,8497,1,12,0:0:0:0:
462,188,8674,1,0,0:0:0:0:
433,174,8850,1,0,0:0:0:0:
494,160,9026,1,8,0:0:0:0:
433,174,9203,1,0,0:0:0:0:
300,180,9556,1,0,0:0:0:0:
462,188,10085,1,8,0:0:0:0:
462,188,10262,1,0,0:0:0:0:
366,181,10438,1,8,0:0:0:0:
366,181,10526,1,8,0:0:0:0:
432,167,10615,1,8,0:0:0:0:
462,188,10791,1,8,0:0:0:0:
462,188,10968,1,0,0:0:0:0:
463,167,11321,1,8,0:0:0:0:
416,160,11497,1,0,0:0:0:0:
432,167,11585,1,0,0:0:0:0:
462,188,11674,1,0,0:0:0:0:
483,175,11850,1,8,0:0:0:0:
463,167,12026,1,0,0:0:0:0:
432,176,12203,1,8,0:0:0:0:
483,175,12379,1,8,0:0:0:0:
425,147,12556,1,4,0:0:0:0:
466,218,13615,1,0,0:0:0:0:
463,186,13703,1,0,0:0:0:0:
436,161,13791,1,0,0:0:0:0:
408,105,14144,1,4,0:0:0:0:
463,186,14497,1,8,0:0:0:0:
463,186,14674,1,8,0:0:0:0:
436,161,15026,1,0,0:0:0:0:
436,161,15203,1,8,0:0:0:0:
436,161,15379,1,0,0:0:0:0:
436,161,15909,1,0,0:0:0:0:
433,160,16085,1,8,0:0:0:0:
352,256,16438,1,8,0:0:0:0:
384,192,16615,1,0,0:0:0:0:
488,196,16968,1,0,0:0:0:0:
435,160,17144,1,0,0:0:0:0:
490,189,17321,1,8,0:0:0:0:
459,182,17497,1,0,0:0:0:0:
435,160,17850,1,8,0:0:0:0:
435,160,18026,1,8,0:0:0:0:
435,160,18203,1,0,0:0:0:0:
478,174,18556,1,0,0:0:0:0:
352,128,18909,1,0,0:0:0:0:
416,160,19085,1,0,0:0:0:0:
377,209,19262,1,12,0:0:0:0:
384,256,19438,1,0,0:0:0:0:
416,224,19526,1,0,0:0:0:0:
416,224,19615,1,0,0:0:0:0:
478,174,19791,1,8,0:0:0:0:
478,174,20321,1,8,0:0:0:0:
448,229,20497,1,8,0:0:0:0:
415,180,20850,1,8,0:0:0:0:
478,174,21026,1,0,0:0:0:0:
358,213,21379,1,0,0:0:0:0:
418,193,21556,1,0,0:0:0:0:
478,174,21732,1,8,0:0:0:0:
418,172,21909,1,8,0:0:0:0:
478,174,22262,1,8,0:0:0:0:
478,174,22438,1,0,0:0:0:0:
415,180,22615,1,8,0:0:0:0:
467,188,22791,1,0,0:0:0:0:
478,174,22968,1,8,0:0:0:0:
478,174,23144,1,8,0:0:0:0:
492,299,23497,1,8,0:0:0:0:
485,236,23674,1,8,0:0:0:0:
441,190,23850,1,4,0:0:0:0:
488,183,24203,1,12,0:0:0:0:
488,183,24556,1,4,0:0:0:0:
488,183,24732,1,12,0:0:0:0:
426,167,25085,1,8,0:0:0:0:
426,167,25438,1,4,0:0:0:0:
472,196,25968,1,8,0:0:0:0:
352,192,26321,1,0,0:0:0:0:
416,192,26497,1,0,0:0:0:0:
448,183,26850,1,8,0:0:0:0:
472,196,27115,1,0,0:0:0:0:
472,196,27379,1,8,0:0:0:0:
482,170,27732,1,0,0:0:0:0:
472,196,27909,1,8,0:0:0:0:
448,256,28085,1,0,0:0:0:0:
448,256,28174,1,0,0:0:0:0:
472,196,28262,1,0,0:0:0:0:
363,145,28615,1,0,0:0:0:0:
416,172,28791,1,8,0:0:0:0:
384,192,29321,1,8,0:0:0:0:
453,180,29674,1,8,0:0:0:0:
503,180,29850,1,0,0:0:0:0:
432,276,30203,1,0,0:0:0:0:
429,212,30379,1,0,0:0:0:0:
453,180,30556,1,8,0:0:0:0:
429,212,30909,1,8,0:0:0:0:
477,176,31085,1,4,0:0:0:0:
511,224,31262,1,0,0:0:0:0:
511,224,31350,1,0,0:0:0:0:
511,224,31438,1,0,0:0:0:0:
453,180,31615,1,8,0:0:0:0:
503,180,31968,1,8,0:0:0:0:
453,180,32144,1,8,0:0:0:0:
453,180,32321,1,0,0:0:0:0:
453,180,32497,1,8,0:0:0:0:
453,180,32674,1,0,0:0:0:0:
453,180,32762,1,0,0:0:0:0:
443,175,32850,1,0,0:0:0:0:
473,173,33026,1,8,0:0:0:0:
474,188,33379,1,0,0:0:0:0:
503,180,33556,1,8,0:0:0:0:
473,173,33732,1,8,0:0:0:0:
473,173,33909,1,4,0:0:0:0:
361,231,34262,1,0,0:0:0:0:
449,208,34615,1,8,0:0:0:0:
449,208,34968,1,8,0:0:0:0:
449,208,35144,1,8,0:0:0:0:
416,192,35321,1,0,0:0:0:0:
416,192,35497,1,0,0:0:0:0:
416,160,35585,1,0,0:0:0:0:
449,208,35674,1,0,0:0:0:0:
473,173,35850,1,8,0:0:0:0:
384,256,36203,1,0,0:0:0:0:
473,173,36379,1,8,0:0:0:0:
473,173,36732,1,8,0:0:0:0:
416,160,36909,1,0,0:0:0:0:
416,192,36997,1,0,0:0:0:0:
441,183,37085,1,0,0:0:0:0:
473,173,37262,1,12,0:0:0:0:
353,170,37615,1,12,0:0:0:0:
444,172,38144,1,4,0:0:0:0:
444,172,38497,1,8,0:0:0:0:
444,172,38850,1,8,0:0:0:0:
444,172,39026,1,0,0:0:0:0:
444,172,39203,1,8,0:0:0:0:
444,172,39379,1,0,0:0:0:0:
412,183,39468,1,0,0:0:0:0:
412,183,39556,1,0,0:0:0:0:
412,183,39732,1,0,0:0:0:0:
444,172,39909,1,8,0:0:0:0:
412,183,40438,1,0,0:0:0:0:
444,172,40615,1,8,0:0:0:0:
510,183,40968,1,8,0:0:0:0:
428,208,41144,1,0,0:0:0:0:
510,183,41321,1,8,0:0:0:0:
428,208,41497,1,0,0:0:0:0:
428,208,41585,1,0,0:0:0:0:
428,208,41674,1,0,0:0:0:0:
476,178,41850,1,0,0:0:0:0:
476,178,42026,1,8,0:0:0:0:
476,178,42203,1,8,0:0:0:0:
476,178,42379,1,0,0:0:0:0:
495,195,42732,1,8,0:0:0:0:
495,195,43262,1,0,0:0:0:0:
495,195,43438,1,8,0:0:0:0:
416,224,43615,1,8,0:0:0:0:
380,166,43791,1,4,0:0:0:0:
447,180,44144,1,8,0:0:0:0:
320,192,44497,1,0,0:0:0:0:
480,176,44674,1,0,0:0:0:0:
480,176,44850,1,8,0:0:0:0:
480,176,45026,1,8,0:0:0:0:
480,176,45115,1,8,0:0:0:0:
448,192,45203,1,8,0:0:0:0:
448,192,45379,1,0,0:0:0:0:
448,192,45556,1,8,0:0:0:0:
448,192,46085,1,0,0:0:0:0:
480,176,46262,1,8,0:0:0:0:
480,176,46615,1,8,0:0:0:0:
480,176,46791,1,0,0:0:0:0:
480,176,46968,1,8,0:0:0:0:
480,176,47144,1,8,0:0:0:0:
448,189,47232,1,8,0:0:0:0:
479,178,47321,1,8,0:0:0:0:
479,178,47497,1,0,0:0:0:0:
479,178,47674,1,12,0:0:0:0:
479,178,48026,1,4,0:0:0:0:
479,178,48203,1,0,0:0:0:0:
479,178,48291,1,0,0:0:0:0:
462,207,48379,1,0,0:0:0:0:
479,178,48556,1,8,0:0:0:0:
416,160,48732,1,0,0:0:0:0:
479,178,48821,1,0,0:0:0:0:
479,178,48909,1,0,0:0:0:0:
479,178,49085,1,8,0:0:0:0:
444,181,49438,1,4,0:0:0:0:
479,178,49791,1,8,0:0:0:0:
444,181,50144,1,8,0:0:0:0:
479,178,50321,1,0,0:0:0:0:
479,178,50497,1,8,0:0:0:0:
506,156,50674,1,0,0:0:0:0:
449,197,50762,1,0,0:0:0:0:
449,197,50850,1,0,0:0:0:0:
479,178,51026,1,0,0:0:0:0:
479,178,51203,1,8,0:0:0:0:
420,172,51556,1,8,0:0:0:0:
460,270,51909,1,0,0:0:0:0:
420,215,52262,1,8,0:0:0:0:
449,197,52438,1,0,0:0:0:0:
381,181,52615,1,8,0:0:0:0:
479,178,52791,1,0,0:0:0:0:
444,185,52879,1,0,0:0:0:0:
449,197,52968,1,0,0:0:0:0:
478,178,53144,1,0,0:0:0:0:
478,178,53321,1,8,0:0:0:0:
449,197,53674,1,0,0:0:0:0:
479,178,53850,1,0,0:0:0:0:
479,178,54026,1,8,0:0:0:0:
449,197,54203,1,8,0:0:0:0:
449,197,54291,1,8,0:0:0:0:
462,208,54379,1,8,0:0:0:0:
443,178,54556,1,0,0:0:0:0:
508,181,54732,1,8,0:0:0:0:
479,178,54909,1,8,0:0:0:0:
421,144,55085,1,4,0:0:0:0:
479,178,55438,1,12,0:0:0:0:
411,160,55791,1,0,0:0:0:0:
361,110,55968,1,0,0:0:0:0:
411,160,56144,1,12,0:0:0:0:
479,178,56497,1,0,0:0:0:0:
412,159,56850,1,12,0:0:0:0:
444,177,57203,1,8,0:0:0:0:
479,178,57379,1,0,0:0:0:0:
444,177,57556,1,12,0:0:0:0:
444,177,57909,1,4,0:0:0:0:
416,192,58262,1,8,0:0:0:0:
444,177,58438,1,0,0:0:0:0:
444,177,58615,1,0,0:0:0:0:
416,192,58703,1,0,0:0:0:0:
479,178,58791,1,0,0:0:0:0:
479,178,58968,1,8,0:0:0:0:
444,177,59144,1,4,0:0:0:0:
448,224,59674,1,0,0:0:0:0:
448,224,59850,1,0,0:0:0:0:
408,183,60026,1,8,0:0:0:0:
424,198,60379,1,0,0:0:0:0:
424,198,60468,1,0,0:0:0:0:
473,196,60556,1,0,0:0:0:0:
444,177,60732,1,12,0:0:0:0:
454,292,61085,1,0,0:0:0:0:
444,177,61262,1,8,0:0:0:0:
448,256,61438,1,0,0:0:0:0:
448,256,61615,1,0,0:0:0:0:
483,163,61791,1,8,0:0:0:0:
483,163,61968,1,0,0:0:0:0:
470,186,62144,1,8,0:0:0:0:
384,288,62497,1,0,0:0:0:0:
470,186,62674,1,8,0:0:0:0:
460,240,62850,1,0,0:0:0:0:
416,192,63203,1,8,0:0:0:0:
476,173,63556,1,12,0:0:0:0:
337,177,63909,1,0,0:0:0:0:
436,177,64085,1,8,0:0:0:0:
460,240,64262,1,0,0:0:0:0:
476,173,64438,1,0,0:0:0:0:
469,187,64615,1,8,0:0:0:0:
416,192,64791,1,0,0:0:0:0:
480,320,64968,1,8,0:0:0:0:
469,187,65321,1,8,0:0:0:0:
436,177,65497,1,0,0:0:0:0:
503,193,65674,1,8,0:0:0:0:
436,177,65850,1,8,0:0:0:0:
497,217,66026,1,0,0:0:0:0:
497,217,66115,1,0,0:0:0:0:
497,217,66203,1,0,0:0:0:0:
434,189,66379,1,12,0:0:0:0:
390,165,66732,1,0,0:0:0:0:
503,193,66909,1,8,0:0:0:0:
448,224,67085,1,0,0:0:0:0:
434,189,67262,1,0,0:0:0:0:
469,187,67438,1,8,0:0:0:0:
469,187,67615,1,8,0:0:0:0:
320,192,67791,1,4,0:0:0:0:
434,189,68144,1,8,0:0:0:0:
406,192,68321,1,0,0:0:0:0:
375,214,68850,1,0,0:0:0:0:
512,256,69026,1,0,0:0:0:0:
469,187,69203,1,12,0:0:0:0:
447,276,69556,1,0,0:0:0:0:
512,160,69732,1,8,0:0:0:0:
448,160,69909,1,0,0:0:0:0:
448,160,70085,1,0,0:0:0:0:
448,160,70262,1,8,0:0:0:0:
384,160,70438,1,8,0:0:0:0:
512,192,70615,1,0,0:0:0:0:
480,192,70703,1,0,0:0:0:0:
480,192,70791,1,0,0:0:0:0:
480,192,70968,1,12,0:0:0:0:
384,160,71321,1,8,0:0:0:0:
288,192,71497,1,0,0:0:0:0:
480,192,71674,1,8,0:0:0:0:
480,192,71762,1,8,0:0:0:0:
448,192,71850,1,8,0:0:0:0:
496,190,72026,1,4,0:0:0:0:
427,178,72203,1,0,0:0:0:0:
480,192,72379,1,8,0:0:0:0:
448,192,72732,1,8,0:0:0:0:
456,167,72909,1,0,0:0:0:0:
456,167,73085,1,8,0:0:0:0:
480,192,73262,1,0,0:0:0:0:
480,192,73350,1,0,0:0:0:0:
456,167,73438,1,0,0:0:0:0:
480,192,73615,1,0,0:0:0:0:
456,167,73791,1,8,0:0:0:0:
456,167,74144,1,0,0:0:0:0:
488,173,74497,1,8,0:0:0:0:
488,173,74674,1,8,0:0:0:0:
480,192,74850,1,4,0:0:0:0:
480,192,75203,1,8,0:0:0:0:
488,173,75379,1,0,0:0:0:0:
488,173,75556,1,12,0:0:0:0:
452,173,75909,1,8,0:0:0:0:
452,173,76262,1,4,0:0:0:0:
488,173,76615,1,8,0:0:0:0:
459,192,76968,1,0,0:0:0:0:
420,187,77056,1,0,0:0:0:0:
416,256,77144,1,0,0:0:0:0:
416,192,77321,1,12,0:0:0:0:
420,187,77674,1,4,0:0:0:0:
448,192,78026,1,8,0:0:0:0:
416,192,78203,1,0,0:0:0:0:
416,192,78291,1,0,0:0:0:0:
416,192,78379,1,0,0:0:0:0:
448,192,78556,1,0,0:0:0:0:
416,128,78732,1,8,0:0:0:0:
480,192,78909,1,8,0:0:0:0:
480,192,79085,1,0,0:0:0:0:
448,192,79438,1,8,0:0:0:0:
480,192,79615,1,0,0:0:0:0:
480,192,79791,1,8,0:0:0:0:
448,192,79968,1,0,0:0:0:0:
448,192,80056,1,0,0:0:0:0:
448,192,80144,1,0,0:0:0:0:
480,192,80321,1,0,0:0:0:0:
448,192,80497,1,12,0:0:0:0:
448,192,80850,1,0,0:0:0:0:
448,192,81026,1,8,0:0:0:0:
512,192,81203,1,0,0:0:0:0:
512,192,81379,1,0,0:0:0:0:
480,160,81556,1,8,0:0:0:0:
480,192,81732,1,8,0:0:0:0:
480,192,81821,1,8,0:0:0:0:
480,192,81909,1,8,0:0:0:0:
448,224,82791,1,0,0:0:0:0:
448,224,82879,1,0,0:0:0:0:
448,224,82968,1,0,0:0:0:0:
480,160,83321,1,12,0:0:0:0:
480,160,83497,1,0,0:0:0:0:
448,192,83674,1,0,0:0:0:0:
448,192,83850,1,8,0:0:0:0:
448,192,84026,1,0,0:0:0:0:
441,291,84379,1,8,0:0:0:0:
448,192,84556,1,0,0:0:0:0:
512,192,84909,1,8,0:0:0:0:
512,192,85085,1,0,0:0:0:0:
480,160,85262,1,8,0:0:0:0:
470,191,85350,1,8,0:0:0:0:
512,160,85438,1,8,0:0:0:0:
446,167,85615,1,8,0:0:0:0:
480,160,85791,1,0,0:0:0:0:
480,160,86144,1,8,0:0:0:0:
470,191,86232,1,8,0:0:0:0:
436,187,86321,1,8,0:0:0:0:
470,191,86497,1,8,0:0:0:0:
470,191,86674,1,0,0:0:0:0:
448,203,86762,1,0,0:0:0:0:
480,192,86850,1,0,0:0:0:0:
480,160,87026,1,0,0:0:0:0:
470,191,87203,1,0,0:0:0:0:
384,192,87379,1,12,0:0:0:0:
256,192,87556,12,0,90379,0:0:0:0:
