osu file format v14

[General]
AudioFilename: audio.mp3
AudioLeadIn: 0
PreviewTime: 37703
Countdown: 0
SampleSet: Normal
StackLeniency: 0.7
Mode: 1
LetterboxInBreaks: 0
WidescreenStoryboard: 1

[Editor]
Bookmarks: 2850,14144,31085,31615,60732
DistanceSpacing: 0.9
BeatDivisor: 4
GridSize: 32
TimelineZoom: 1.8

[Metadata]
Title:Hana no Tou (TV Size)
TitleUnicode:花の塔 (TV Size)
Artist:Sayuri
ArtistUnicode:さユり
Creator:iloveyou4ever
Version:Kantan
Source:リコリス・リコイル
Tags:酸欠少女さユり sanketsu-girl sanketsu shoujo shojo hypoxia girl yuri japanese pop jpop j-pop jrock j-rock rock anime ed ending lycoris recoil rikorisu rikoiru flower tower
BeatmapID:3704789
BeatmapSetID:1806559

[Difficulty]
HPDrainRate:9
CircleSize:3
OverallDifficulty:3
ApproachRate:0
SliderMultiplier:1.4
SliderTickRate:1

[Events]
//Background and Video events
0,0,"99018897_p0.jpg",0,0
Video,-41,"output.mp4"
//Break Periods
//Storyboard Layer 0 (Background)
//Storyboard Layer 1 (Fail)
//Storyboard Layer 2 (Pass)
//Storyboard Layer 3 (Foreground)
//Storyboard Layer 4 (Overlay)
//Storyboard Sound Samples

[TimingPoints]
27,352.941176470588,4,1,0,90,1,0
14144,-100,4,1,0,75,0,0
25438,-105.263157894737,4,1,0,80,0,0
31085,-100,4,1,0,90,0,0
38144,-100,4,1,0,90,0,1
81909,-100,4,1,0,90,0,0
87556,-100,4,1,0,80,0,0
88350,-100,4,1,0,78,0,0
88438,-100,4,1,0,75,0,0
88526,-100,4,1,0,72,0,0
88615,-100,4,1,0,70,0,0
88703,-100,4,1,0,68,0,0
88791,-100,4,1,0,65,0,0
88879,-100,4,1,0,62,0,0
88968,-100,4,1,0,60,0,0
89056,-100,4,1,0,58,0,0
89144,-100,4,1,0,55,0,0
89232,-100,4,1,0,52,0,0
89321,-100,4,1,0,50,0,0
89409,-100,4,1,0,48,0,0
89497,-100,4,1,0,45,0,0
89585,-100,4,1,0,42,0,0
89674,-100,4,1,0,40,0,0
89762,-100,4,1,0,38,0,0
89850,-100,4,1,0,35,0,0
89938,-100,4,1,0,32,0,0
90026,-100,4,1,0,30,0,0
90115,-100,4,1,0,28,0,0
90203,-100,4,1,0,25,0,0
90291,-100,4,1,0,22,0,0
90379,-100,4,1,0,20,0,0

[HitObjects]
469,196,27,5,12,0:0:0:0:
456,186,556,1,12,0:0:0:0:
354,185,1085,1,4,0:0:0:0:
420,184,1615,1,12,0:0:0:0:
480,224,2497,1,0,0:0:0:0:
288,192,2850,1,12,0:0:0:0:
487,207,3379,1,8,0:0:0:0:
384,192,3909,1,0,0:0:0:0:
462,188,4438,1,8,0:0:0:0:
462,188,5674,1,8,0:0:0:0:
503,181,6203,1,0,0:0:0:0:
352,192,6732,1,0,0:0:0:0:
503,181,7262,1,8,0:0:0:0:
503,181,7791,1,8,0:0:0:0:
462,188,8497,1,12,0:0:0:0:
494,160,9026,1,8,0:0:0:0:
300,180,9556,1,0,0:0:0:0:
462,188,10085,1,8,0:0:0:0:
463,167,11321,1,8,0:0:0:0:
422,155,12026,1,0,0:0:0:0:
480,192,12556,1,12,0:0:0:0:
430,175,14144,1,4,0:0:0:0:
384,288,14674,1,8,0:0:0:0:
436,161,15026,1,0,0:0:0:0:
463,186,15379,1,8,0:0:0:0:
338,186,16085,1,8,0:0:0:0:
488,196,16968,1,0,0:0:0:0:
459,182,17497,1,0,0:0:0:0:
435,160,17850,1,8,0:0:0:0:
435,160,18203,1,0,0:0:0:0:
384,160,19085,1,8,0:0:0:0:
415,180,19791,1,8,0:0:0:0:
448,229,20497,1,8,0:0:0:0:
354,202,21026,1,0,0:0:0:0:
384,352,21909,1,8,0:0:0:0:
441,190,22615,1,0,0:0:0:0:
478,174,23144,1,8,0:0:0:0:
441,219,23850,1,0,0:0:0:0:
448,192,24203,1,8,0:0:0:0:
448,192,24732,1,8,0:0:0:0:
426,167,25085,1,8,0:0:0:0:
426,167,25438,1,4,0:0:0:0:
472,196,25968,1,8,0:0:0:0:
448,183,26850,1,8,0:0:0:0:
472,196,27379,1,8,0:0:0:0:
472,196,28262,1,0,0:0:0:0:
288,160,28791,1,8,0:0:0:0:
429,212,29674,1,0,0:0:0:0:
429,212,30203,1,0,0:0:0:0:
421,195,31085,1,4,0:0:0:0:
453,180,31615,1,8,0:0:0:0:
453,180,32144,1,8,0:0:0:0:
453,180,32497,1,8,0:0:0:0:
473,173,33026,1,8,0:0:0:0:
503,180,33556,1,8,0:0:0:0:
384,160,33909,1,4,0:0:0:0:
449,208,34615,1,8,0:0:0:0:
449,208,34968,1,8,0:0:0:0:
480,320,35321,1,0,0:0:0:0:
387,172,35850,1,8,0:0:0:0:
473,173,36732,1,8,0:0:0:0:
436,202,37262,1,12,0:0:0:0:
436,202,37615,1,12,0:0:0:0:
444,172,38144,1,4,0:0:0:0:
444,172,38497,1,8,0:0:0:0:
444,172,38850,1,8,0:0:0:0:
320,192,39203,1,0,0:0:0:0:
448,192,39909,1,0,0:0:0:0:
480,192,40615,1,8,0:0:0:0:
444,172,40968,1,8,0:0:0:0:
448,320,41321,1,0,0:0:0:0:
447,180,42026,1,8,0:0:0:0:
447,180,42379,1,8,0:0:0:0:
495,195,43438,1,8,0:0:0:0:
380,166,43791,1,4,0:0:0:0:
447,180,44144,1,8,0:0:0:0:
320,192,44497,1,0,0:0:0:0:
480,176,44850,1,8,0:0:0:0:
448,192,45556,1,8,0:0:0:0:
480,224,46262,1,0,0:0:0:0:
480,176,46615,1,8,0:0:0:0:
444,181,46968,1,0,0:0:0:0:
352,192,47321,1,8,0:0:0:0:
444,181,47674,1,8,0:0:0:0:
444,181,48026,1,0,0:0:0:0:
444,181,49438,1,4,0:0:0:0:
479,178,49791,1,8,0:0:0:0:
444,181,50144,1,8,0:0:0:0:
479,178,50497,1,8,0:0:0:0:
449,197,50850,1,0,0:0:0:0:
448,160,51556,1,0,0:0:0:0:
420,215,52262,1,8,0:0:0:0:
449,197,52968,1,0,0:0:0:0:
478,178,53321,1,8,0:0:0:0:
449,197,53674,1,0,0:0:0:0:
462,208,54379,1,8,0:0:0:0:
508,181,54732,1,8,0:0:0:0:
478,178,55085,1,4,0:0:0:0:
444,177,55791,1,8,0:0:0:0:
480,160,56497,1,0,0:0:0:0:
480,224,57203,1,8,0:0:0:0:
406,175,57909,1,4,0:0:0:0:
461,189,58968,1,8,0:0:0:0:
405,204,59321,1,0,0:0:0:0:
416,192,60379,1,0,0:0:0:0:
470,186,60732,1,12,0:0:0:0:
416,192,61085,1,0,0:0:0:0:
444,177,61438,1,8,0:0:0:0:
483,163,61791,1,8,0:0:0:0:
448,224,62497,1,0,0:0:0:0:
476,173,63203,1,8,0:0:0:0:
387,214,63556,1,0,0:0:0:0:
469,187,64615,1,8,0:0:0:0:
436,177,64968,1,0,0:0:0:0:
497,217,66026,1,0,0:0:0:0:
434,189,66379,1,12,0:0:0:0:
469,187,66732,1,8,0:0:0:0:
434,189,67085,1,8,0:0:0:0:
434,189,67438,1,0,0:0:0:0:
434,189,68144,1,8,0:0:0:0:
434,189,68850,1,0,0:0:0:0:
447,271,69203,1,8,0:0:0:0:
448,192,70262,1,8,0:0:0:0:
398,191,70615,1,8,0:0:0:0:
480,192,71674,1,8,0:0:0:0:
448,192,72026,1,4,0:0:0:0:
448,192,72732,1,8,0:0:0:0:
387,189,73085,1,8,0:0:0:0:
381,139,73438,1,0,0:0:0:0:
456,167,73791,1,8,0:0:0:0:
456,167,74144,1,8,0:0:0:0:
455,203,74850,1,0,0:0:0:0:
480,192,75556,1,8,0:0:0:0:
420,187,75909,1,0,0:0:0:0:
384,288,76262,1,0,0:0:0:0:
488,173,76615,1,8,0:0:0:0:
384,256,76968,1,8,0:0:0:0:
442,10,77674,1,4,0:0:0:0:
448,192,78026,1,8,0:0:0:0:
416,128,78732,1,8,0:0:0:0:
480,192,79085,1,0,0:0:0:0:
448,192,79438,1,8,0:0:0:0:
320,224,79791,1,0,0:0:0:0:
448,192,80144,1,0,0:0:0:0:
448,192,80497,1,8,0:0:0:0:
512,192,81203,1,0,0:0:0:0:
480,160,81556,1,8,0:0:0:0:
480,192,81909,1,0,0:0:0:0:
480,192,83321,1,12,0:0:0:0:
446,167,83850,1,8,0:0:0:0:
448,192,84379,1,0,0:0:0:0:
512,192,84909,1,8,0:0:0:0:
429,190,85438,1,0,0:0:0:0:
480,160,86144,1,8,0:0:0:0:
429,167,86850,1,0,0:0:0:0:
480,160,87379,1,12,0:0:0:0:
256,192,87556,12,0,90379,0:0:0:0:
