osu file format v14

[General]
AudioFilename: audio.mp3
AudioLeadIn: 0
PreviewTime: 37716
Countdown: 0
SampleSet: Soft
StackLeniency: 0.7
Mode: 0
LetterboxInBreaks: 0
WidescreenStoryboard: 1

[Editor]
DistanceSpacing: 0.9
BeatDivisor: 4
GridSize: 32
TimelineZoom: 1

[Metadata]
Title:Hana no Tou (TV Size)
TitleUnicode:花の塔 (TV Size)
Artist:Sayuri
ArtistUnicode:さユり
Creator:Rtyzen
Version:Normal
Source:リコリス・リコイル
Tags:Fsjallink Yurino Ayumi DayDreamkwy ed ending anime lycoris recoil lycoreco リコリコ jpop japanese pop j-pop flower tower 酸欠少女さユり sanketsu-girl sanketsu shoujo shojo hypoxia girl yuri
BeatmapID:3700424
BeatmapSetID:1804015

[Difficulty]
HPDrainRate:3
CircleSize:3
OverallDifficulty:4
ApproachRate:5
SliderMultiplier:0.999999999999999
SliderTickRate:1

[Events]
//Background and Video events
Video,120,"video.mp4"
0,0,"chisatobg.png",0,0
//Break Periods
//Storyboard Layer 0 (Background)
//Storyboard Layer 1 (Fail)
//Storyboard Layer 2 (Pass)
//Storyboard Layer 3 (Foreground)
//Storyboard Layer 4 (Overlay)
//Storyboard Sound Samples

[TimingPoints]
40,352.941176470588,4,2,1,80,1,0
2863,-100,4,2,1,70,0,0
13628,-100,4,2,1,60,0,0
23863,-100,4,2,1,65,0,0
25539,-100,4,2,1,55,0,0
31098,-100,4,2,1,60,0,0
31804,-100,4,2,1,65,0,0
32510,-100,4,2,1,70,0,0
33216,-100,4,2,1,75,0,0
33922,-100,4,2,1,80,0,0
34275,-100,4,2,1,60,0,0
34628,-100,4,2,1,70,0,0
34981,-100,4,2,1,80,0,0
35334,-100,4,2,1,90,0,0
37804,-100,4,2,1,50,0,0
38157,-100,4,2,1,90,0,1
38245,-100,4,2,1,80,0,1
60745,-90.9090909090909,4,2,1,80,0,0
63569,-100,4,2,1,80,0,0
66392,-90.9090909090909,4,2,1,80,0,0
69216,-100,4,2,1,80,0,0
72039,-100,4,2,1,75,0,0
82275,-100,4,2,1,55,0,0
83334,-100,4,2,1,70,0,0
88892,-100,4,2,1,5,0,0

[Colours]
Combo1 : 255,255,111
Combo2 : 244,137,91
Combo3 : 208,27,17

[HitObjects]
104,290,40,6,0,L|115:221,1,50,4|2,3:2|3:2,0:0:0:0:
194,276,569,2,0,L|205:207,1,50,2|2,3:2|3:2,0:0:0:0:
284,262,1098,2,0,L|295:193,1,50,2|2,3:2|3:2,0:0:0:0:
374,248,1628,2,0,L|385:179,1,50,2|2,3:2|3:2,0:0:0:0:
388,153,1981,1,0,0:0:0:0:
393,108,2157,2,0,L|332:119,2,50,8|4|4,0:2|0:3|3:2,0:0:0:0:
488,100,2863,5,6,3:2:0:0:
488,100,3039,2,0,P|475:149|453:205,1,99.9999999999999,2|2,0:0|0:0,0:0:0:0:
437,235,3569,1,2,3:2:0:0:
365,290,3922,1,10,0:2:0:0:
365,290,4098,2,0,P|318:273|269:260,1,99.9999999999999,2|2,0:0|0:0,0:0:0:0:
230,236,4628,1,10,0:2:0:0:
177,162,4981,1,2,3:2:0:0:
88,178,5334,1,10,0:2:0:0:
34,250,5687,5,2,3:2:0:0:
34,250,5863,2,0,P|38:289|108:312,1,99.9999999999999,2|2,0:0|0:0,0:0:0:0:
128,299,6392,1,2,3:2:0:0:
198,244,6745,1,10,0:2:0:0:
198,244,6922,2,0,P|218:200|265:190,1,99.9999999999999,2|2,0:0|0:0,0:0:0:0:
310,188,7451,2,0,P|353:208|363:255,1,99.9999999999999,10|6,0:2|3:2,0:0:0:0:
316,333,8157,1,14,0:2:0:0:
403,363,8510,5,6,3:2:0:0:
403,363,8687,2,0,B|442:331|442:331|497:313,1,99.9999999999999,2|2,0:0|0:0,0:0:0:0:
507,274,9216,1,2,3:2:0:0:
439,223,9569,1,10,0:2:0:0:
439,223,9745,2,0,B|400:255|400:255|345:273,1,99.9999999999999,2|2,0:0|0:0,0:0:0:0:
307,267,10275,2,0,B|308:217|295:164,1,99.9999999999999,10|2,0:2|3:2,0:0:0:0:
219,119,10981,1,10,0:2:0:0:
286,59,11334,6,0,P|349:72|392:81,1,99.9999999999999,10|4,0:2|0:3,0:0:0:0:
414,113,11863,2,0,P|409:146|402:173,1,50,2|10,3:2|0:2,0:0:0:0:
441,188,12216,2,0,P|446:221|453:248,1,50,6|10,0:0|0:2,0:0:0:0:
421,272,12569,1,6,3:2:0:0:
55,108,14157,6,0,L|46:170,2,50,6|2|10,3:2|3:2|0:2,0:0:0:0:
89,78,14687,2,0,L|196:91,1,99.9999999999999,2|2,3:2|3:2,0:0:0:0:
266,135,15392,2,0,L|373:122,1,99.9999999999999,2|0,3:2|3:2,0:0:0:0:
455,130,16098,2,0,P|441:189|441:247,1,99.9999999999999,2|2,3:2|3:2,0:0:0:0:
433,273,16628,1,10,0:2:0:0:
367,335,16981,6,0,L|376:397,2,50,2|2|8,3:2|3:2|0:2,0:0:0:0:
329,309,17510,2,0,P|262:284|240:299,1,99.9999999999999,2|2,3:2|3:2,0:0:0:0:
164,339,18216,2,0,P|97:364|75:349,1,99.9999999999999,2|2,3:2|3:2,0:0:0:0:
21,289,18922,1,2,3:2:0:0:
21,289,19098,2,0,P|37:210|43:180,1,99.9999999999999,2|12,3:2|0:2,0:0:0:0:
122,152,19804,6,0,P|176:116|176:74,1,99.9999999999999,2|8,3:2|0:2,0:0:0:0:
242,19,20510,2,0,P|284:21|321:79,1,99.9999999999999,2|10,0:0|0:2,0:0:0:0:
351,95,21039,2,0,B|341:156|312:132|305:193,2,99.9999999999999,2|2|2,3:2|3:2|3:2,0:0:0:0:
394,81,21922,1,2,0:0:0:0:
467,133,22275,2,0,P|498:166|498:190,1,50,10|2,0:2|3:2,0:0:0:0:
499,214,22628,6,0,P|442:234|423:276,1,99.9999999999999,6|10,3:2|0:2,0:0:0:0:
389,294,23157,2,0,B|344:304|344:304|336:317|336:317|283:325,2,99.9999999999999,2|2|10,3:2|3:2|3:2,0:0:0:0:
340,218,24216,2,0,B|295:228|295:228|287:241|287:241|234:249,1,99.9999999999999,10|10,3:2|3:2,0:0:0:0:
203,243,24745,2,0,B|176:199|176:199|207:144,1,99.9999999999999,10|10,3:2|3:2,0:0:0:0:
272,103,25451,6,0,L|436:78,2,150,4|8|10,3:2|0:2|0:2,0:0:0:0:
201,46,26863,2,0,P|154:30|111:52,1,99.9999999999999,2|2,3:2|0:0,0:0:0:0:
95,94,27392,2,0,P|97:146|144:173,1,99.9999999999999,10|2,0:2|3:2,0:0:0:0:
178,174,27922,1,10,0:2:0:0:
267,187,28275,6,0,P|290:231|246:333,1,150,2|10,3:2|0:2,0:0:0:0:
216,315,28981,1,2,0:0:0:0:
135,274,29334,1,10,0:2:0:0:
60,328,29687,2,0,B|45:252|20:170,2,150,2|12|8,3:2|0:2|0:2,0:0:0:0:
135,274,31098,6,0,P|180:224|203:177,1,99.9999999999999,4|0,3:2|1:0,0:0:0:0:
213,153,31628,1,6,3:2:0:0:
257,151,31804,2,0,P|299:147|319:134,1,50,2|0,1:2|1:0,0:0:0:0:
325,103,32157,1,6,3:2:0:0:
414,93,32510,2,0,P|446:136|423:187,1,99.9999999999999,4|8,3:2|0:2,0:0:0:0:
400,206,33039,2,0,P|384:257|423:297,1,99.9999999999999,6|10,3:2|0:2,0:0:0:0:
439,325,33569,1,4,3:2:0:0:
362,372,33922,6,0,P|322:329|282:306,1,99.9999999999999,6|0,3:2|3:2,0:0:0:0:
246,288,34451,1,0,3:2:0:0:
202,274,34628,1,2,3:2:0:0:
113,292,34981,2,0,P|75:306|55:324,1,50,2|2,3:2|3:2,0:0:0:0:
36,280,35334,2,0,L|45:214,1,50,4|8,3:2|0:2,0:0:0:0:
82,208,35687,2,0,L|91:142,1,50,8|4,0:2|0:3,0:0:0:0:
127,135,36039,2,0,L|123:22,1,99.9999999999999,8|8,0:2|0:2,0:0:0:0:
213,24,36745,6,0,B|263:20|279:59|276:59|272:59|297:100|351:83,1,150,12|4,0:2|3:2,0:0:0:0:
450,167,37804,2,0,P|423:188|419:217,1,50,2|2,0:0|0:0,0:0:0:0:
437,243,38157,6,0,P|395:275|381:339,1,99.9999999999999,4|10,3:2|0:2,0:0:0:0:
293,292,38863,2,0,P|301:243|281:198,1,99.9999999999999,2|10,0:0|0:2,0:0:0:0:
239,180,39392,1,0,0:0:0:0:
194,173,39569,2,0,L|74:194,2,99.9999999999999,0|10|0,3:2|0:2|0:0,0:0:0:0:
230,90,40628,2,0,P|251:68|275:60,1,50,10|0,0:2|0:0,0:0:0:0:
313,53,40981,6,0,P|364:51|400:112,1,99.9999999999999,2|10,3:2|0:2,0:0:0:0:
416,124,41510,1,0,0:0:0:0:
431,166,41687,2,0,P|450:218|475:267,1,99.9999999999999,2|10,0:0|0:2,0:0:0:0:
422,334,42392,1,2,3:2:0:0:
337,302,42745,1,8,0:2:0:0:
249,330,43098,2,0,P|230:278|205:229,1,99.9999999999999,0|10,0:0|0:2,0:0:0:0:
175,208,43628,1,10,0:2:0:0:
134,188,43804,6,0,P|73:169|60:124,1,99.9999999999999,4|10,3:2|0:2,0:0:0:0:
70,49,44510,2,0,P|126:19|167:41,1,99.9999999999999,2|10,0:0|0:2,0:0:0:0:
192,67,45039,1,0,0:0:0:0:
230,90,45216,2,0,P|297:104|347:117,1,99.9999999999999,0|10,3:2|0:2,0:0:0:0:
394,172,45922,2,0,P|461:186|511:199,1,99.9999999999999,0|10,0:0|0:2,0:0:0:0:
451,273,46628,5,2,3:2:0:0:
380,328,46981,1,10,0:2:0:0:
293,304,47334,1,2,0:0:0:0:
257,221,47687,2,0,L|248:149,1,50,10|0,0:2|3:2,0:0:0:0:
255,126,48039,2,0,P|212:75|159:74,1,99.9999999999999,6|0,3:2|3:2,0:0:0:0:
137,77,48569,1,4,0:3:0:0:
99,100,48745,2,0,L|83:163,1,50,0|8,3:2|0:2,0:0:0:0:
126,169,49098,2,0,L|142:232,1,50,4|8,3:2|0:2,0:0:0:0:
156,258,49451,6,0,P|205:254|231:198,1,99.9999999999999,4|10,3:2|0:2,0:0:0:0:
317,241,50157,2,0,P|319:290|374:316,1,99.9999999999999,2|10,0:0|0:2,0:0:0:0:
403,309,50687,1,0,0:0:0:0:
444,291,50863,2,0,B|466:265|466:265|461:185,1,99.9999999999999,2|10,3:2|0:2,0:0:0:0:
438,112,51569,2,0,B|412:90|412:90|332:95,1,99.9999999999999,2|8,0:0|0:2,0:0:0:0:
304,76,52098,1,0,0:0:0:0:
259,66,52275,5,2,3:2:0:0:
173,94,52628,2,0,P|192:131|208:135,1,50,10|0,0:2|0:0,0:0:0:0:
211,175,52981,2,0,L|237:288,1,99.9999999999999,2|10,0:0|0:2,0:0:0:0:
317,305,53687,1,2,3:2:0:0:
405,290,54039,1,10,0:2:0:0:
425,202,54392,2,0,P|373:167|322:192,1,99.9999999999999,2|10,0:0|0:2,0:0:0:0:
251,157,55098,6,0,P|267:220|287:267,1,99.9999999999999,6|8,3:2|0:2,0:0:0:0:
281,297,55628,1,0,0:0:0:0:
261,337,55804,2,0,P|221:351|197:345,1,50,2|0,0:0|3:2,0:0:0:0:
170,338,56157,1,12,0:2:0:0:
86,305,56510,2,0,L|19:317,2,50,2|0|12,3:2|3:2|0:2,0:0:0:0:
154,245,57216,2,0,P|146:186|189:153,1,99.9999999999999,2|8,0:0|0:2,0:0:0:0:
209,134,57745,1,0,0:0:0:0:
249,113,57922,6,0,L|241:49,2,50,6|0|8,3:2|3:2|0:2,0:0:0:0:
339,119,58628,2,0,L|331:55,2,50,0|0|10,0:0|3:2|0:2,0:0:0:0:
342,164,59157,2,0,P|404:174|473:199,1,99.9999999999999,4|8,3:2|0:2,0:0:0:0:
478,201,59687,2,0,P|495:228|496:257,1,50,8|0,0:2|3:2,0:0:0:0:
473,283,60039,1,12,0:2:0:0:
383,270,60392,2,0,L|320:254,1,50,4|2,0:3|3:2,0:0:0:0:
285,252,60745,6,0,P|215:282|187:380,2,165.0000050354,14|8|10,0:2|0:2|0:2,0:0:0:0:
336,166,62157,2,0,P|266:136|240:42,2,165.0000050354,12|8|10,0:2|0:2|0:2,0:0:0:0:
426,155,63569,6,0,L|440:47,1,99.9999999999999,14|0,0:2|3:2,0:0:0:0:
416,16,64098,2,0,L|308:30,1,99.9999999999999,8|0,0:2|3:2,0:0:0:0:
272,37,64628,1,8,0:2:0:0:
213,105,64981,2,0,B|161:157|161:157|77:134,2,150,14|12|10,0:2|0:2|0:2,0:0:0:0:
294,142,66392,6,0,B|337:204|337:204|311:251|331:298,2,165.0000050354,14|8|10,0:2|0:2|0:2,0:0:0:0:
225,214,67804,2,0,B|193:282|193:282|139:283|108:324,2,165.0000050354,12|8|10,0:2|0:2|0:2,0:0:0:0:
222,124,69216,6,0,L|101:111,1,99.9999999999999,14|0,0:2|3:2,0:0:0:0:
83,135,69745,2,0,P|57:174|70:227,1,99.9999999999999,8|0,0:2|3:2,0:0:0:0:
107,244,70275,1,10,0:2:0:0:
36,300,70628,2,0,P|63:329|92:331,1,50,10|0,0:2|3:2,0:0:0:0:
116,334,70981,1,12,0:2:0:0:
157,317,71157,2,0,P|205:312|240:345,1,99.9999999999999,8|12,0:2|0:2,0:0:0:0:
275,374,71687,1,2,3:2:0:0:
362,352,72039,6,0,P|388:307|375:254,1,99.9999999999999,4|10,3:2|0:2,0:0:0:0:
361,220,72569,1,0,0:0:0:0:
336,182,72745,1,2,0:0:0:0:
255,141,73098,2,0,P|247:93|273:51,1,99.9999999999999,10|0,0:2|3:2,0:0:0:0:
360,29,73804,1,10,0:2:0:0:
428,87,74157,2,0,P|436:135|410:177,1,99.9999999999999,2|10,0:0|0:2,0:0:0:0:
369,197,74687,1,2,0:0:0:0:
369,197,74863,6,0,P|293:181|250:174,1,99.9999999999999,6|8,3:2|0:2,0:0:0:0:
310,96,75569,2,0,P|234:80|191:73,1,99.9999999999999,6|10,3:2|0:2,0:0:0:0:
121,85,76275,2,0,B|120:146|155:121|148:186,2,99.9999999999999,6|10|2,3:2|0:2|0:0,0:0:0:0:
39,46,77334,2,0,P|27:76|37:111,1,50,10|4,0:2|0:3,0:0:0:0:
35,137,77687,6,0,L|21:247,1,99.9999999999999,6|10,3:2|0:2,0:0:0:0:
71,311,78392,2,0,L|181:325,1,99.9999999999999,0|10,0:0|0:2,0:0:0:0:
215,330,78922,1,0,0:0:0:0:
259,335,79098,1,2,3:2:0:0:
334,286,79451,1,10,0:2:0:0:
319,197,79804,1,2,0:0:0:0:
379,129,80157,2,0,L|429:136,1,50,10|8,0:2|0:2,0:0:0:0:
469,115,80510,6,0,P|477:62|449:30,1,99.9999999999999,6|0,3:2|0:0,0:0:0:0:
404,19,81039,2,0,L|291:32,1,99.9999999999999,12|0,0:2|3:2,0:0:0:0:
260,42,81569,2,0,L|251:100,1,50,4|0,0:3|3:2,0:0:0:0:
267,134,81922,1,12,0:2:0:0:
70,295,83334,5,6,3:2:0:0:
70,295,83510,2,0,P|119:308|175:330,1,99.9999999999999,2|2,0:0|0:0,0:0:0:0:
207,340,84039,1,2,3:2:0:0:
288,298,84392,1,10,0:2:0:0:
288,298,84568,2,0,P|337:311|393:333,1,99.9999999999999,2|2,0:0|0:0,0:0:0:0:
425,343,85097,1,10,0:2:0:0:
479,271,85451,1,2,3:2:0:0:
425,198,85804,1,10,0:2:0:0:
441,109,86157,6,0,L|341:78,1,99.9999999999999,10|4,0:2|0:3,0:0:0:0:
308,106,86687,2,0,P|275:114|252:125,1,50,2|10,3:2|0:2,0:0:0:0:
247,77,87039,2,0,P|214:69|191:58,1,50,6|10,0:0|0:2,0:0:0:0:
157,80,87392,1,6,3:2:0:0:
256,192,87481,12,0,88892,0:0:0:0:
