osu file format v14

[General]
AudioFilename: audio.mp3
AudioLeadIn: 0
PreviewTime: 37716
Countdown: 0
SampleSet: Soft
StackLeniency: 0.7
Mode: 0
LetterboxInBreaks: 0
WidescreenStoryboard: 1

[Editor]
DistanceSpacing: 0.7
BeatDivisor: 4
GridSize: 32
TimelineZoom: 1

[Metadata]
Title:Hana no Tou (TV Size)
TitleUnicode:花の塔 (TV Size)
Artist:Sayuri
ArtistUnicode:さユり
Creator:Rtyzen
Version:Fsjallink's Insane
Source:リコリス・リコイル
Tags:Fsjallink Yurino Ayumi DayDreamkwy ed ending anime lycoris recoil lycoreco リコリコ jpop japanese pop j-pop flower tower 酸欠少女さユり sanketsu-girl sanketsu shoujo shojo hypoxia girl yuri
BeatmapID:3708351
BeatmapSetID:1804015

[Difficulty]
HPDrainRate:5
CircleSize:4
OverallDifficulty:8
ApproachRate:9
SliderMultiplier:1.6
SliderTickRate:1

[Events]
//Background and Video events
0,0,"takinabg.png",0,0
Video,120,"video.mp4"
//Break Periods
//Storyboard Layer 0 (Background)
//Storyboard Layer 1 (Fail)
//Storyboard Layer 2 (Pass)
//Storyboard Layer 3 (Foreground)
//Storyboard Layer 4 (Overlay)
//Storyboard Sound Samples

[TimingPoints]
40,352.941176470588,4,2,1,80,1,0
40,-83.3333333333333,4,2,1,80,0,0
2510,-200,4,2,1,80,0,0
2863,-90.9090909090909,4,2,1,70,0,0
13628,-90.9090909090909,4,2,1,60,0,0
14157,-100,4,2,1,60,0,0
15922,-100,4,2,1,60,0,0
23863,-100,4,2,1,65,0,0
25451,-125,4,2,1,65,0,0
25539,-125,4,2,1,55,0,0
31098,-90.9090909090909,4,2,1,60,0,0
31804,-90.9090909090909,4,2,1,65,0,0
32510,-90.9090909090909,4,2,1,70,0,0
33216,-90.9090909090909,4,2,1,75,0,0
33922,-90.9090909090909,4,2,1,80,0,0
34275,-90.9090909090909,4,2,1,60,0,0
34628,-90.9090909090909,4,2,1,70,0,0
34981,-90.9090909090909,4,2,1,80,0,0
35334,-83.3333333333333,4,2,1,90,0,0
37804,-83.3333333333333,4,2,1,50,0,0
38157,-71.4285714285714,4,2,1,90,0,1
38245,-71.4285714285714,4,2,1,80,0,1
60745,-83.3333333333333,4,2,1,80,0,0
72039,-83.3333333333333,4,2,1,75,0,0
82275,-83.3333333333333,4,2,1,55,0,0
83334,-90.9090909090909,4,2,1,70,0,0
88892,-90.9090909090909,4,2,1,5,0,0

[Colours]
Combo1 : 74,165,255
Combo2 : 164,255,72
Combo3 : 255,255,111

[HitObjects]
39,72,40,6,0,L|152:54,1,95.9999970703126,4|2,3:2|3:2,0:0:0:0:
473,312,569,2,0,L|360:330,1,95.9999970703126,2|2,3:2|3:2,0:0:0:0:
77,19,1098,6,0,L|191:31,1,95.9999970703126,2|2,3:2|3:2,0:0:0:0:
434,364,1627,2,0,L|320:352,1,95.9999970703126,2|2,3:2|3:2,0:0:0:0:
338,353,1981,1,2,0:0:0:0:
462,275,2157,1,8,0:2:0:0:
474,249,2245,1,8,0:3:0:0:
481,220,2334,1,4,0:3:0:0:
478,191,2422,1,0,3:0:0:0:
471,163,2510,2,0,P|430:161|403:164,1,60,4|0,3:2|0:0,0:0:0:0:
480,69,2863,6,0,P|430:73|361:54,1,88.000002685547,6|2,3:2|0:0,0:0:0:0:
303,11,3216,1,8,0:2:0:0:
326,207,3392,5,2,0:0:0:0:
248,162,3569,2,0,P|236:113|230:64,1,88.000002685547,2|0,3:2|0:0,0:0:0:0:
247,264,3922,5,10,0:2:0:0:
169,219,4099,2,0,P|157:170|151:121,1,88.000002685547,2|0,0:0|3:2,0:0:0:0:
373,108,4451,1,2,0:0:0:0:
440,253,4628,6,0,P|436:308|421:367,1,88.000002685547,10|2,0:2|0:0,0:0:0:0:
428,360,4892,1,2,0:0:0:0:
428,360,4981,1,2,3:2:0:0:
356,196,5157,1,2,0:0:0:0:
221,231,5334,2,0,P|145:264|94:304,1,132.00000402832,10|0,0:2|0:0,0:0:0:0:
82,308,5687,5,2,3:2:0:0:
19,176,5863,2,0,P|10:124|10:71,1,88.000002685547,2|8,0:0|0:2,0:0:0:0:
45,301,6216,5,2,0:0:0:0:
97,135,6392,2,0,P|115:85|141:39,1,88.000002685547,2|0,3:2|0:0,0:0:0:0:
7,295,6745,5,10,0:2:0:0:
186,133,6922,2,0,P|226:99|272:72,1,88.000002685547,2|0,0:0|3:2,0:0:0:0:
458,156,7275,1,2,0:0:0:0:
257,185,7451,6,0,P|252:234|250:301,1,88.000002685547,10|2,0:2|0:0,0:0:0:0:
250,297,7716,1,2,0:0:0:0:
250,297,7804,1,6,3:2:0:0:
265,86,7981,1,10,0:2:0:0:
479,107,8157,1,14,0:2:0:0:
479,107,8510,5,6,3:2:0:0:
356,271,8687,2,0,P|411:249|463:222,1,88.000002685547,2|8,0:0|0:2,0:0:0:0:
449,85,9039,5,2,0:0:0:0:
313,265,9216,2,0,P|326:321|335:391,1,88.000002685547,2|0,3:2|0:0,0:0:0:0:
418,63,9569,5,10,0:2:0:0:
335,226,9745,2,0,P|274:247|217:255,1,88.000002685547,2|0,0:0|3:2,0:0:0:0:
388,43,10098,1,2,0:0:0:0:
438,224,10275,6,0,P|431:275|430:335,1,88.000002685547,10|2,0:2|0:0,0:0:0:0:
433,338,10539,1,2,0:0:0:0:
433,338,10628,1,2,3:2:0:0:
511,306,10804,1,2,0:0:0:0:
339,285,10981,1,10,0:2:0:0:
181,305,11157,1,0,3:2:0:0:
181,305,11245,1,0,3:2:0:0:
181,305,11334,6,0,P|133:318|118:326,1,44.0000013427735,10|8,0:2|0:2,0:0:0:0:
243,250,11510,2,0,P|255:201|256:184,1,44.0000013427735,2|0,3:2|3:2,0:0:0:0:
261,325,11687,2,0,P|296:360|310:369,1,44.0000013427735,4|4,0:3|0:3,0:0:0:0:
161,213,11863,1,2,3:2:0:0:
137,200,11951,1,0,3:2:0:0:
111,192,12039,1,10,0:2:0:0:
48,295,12216,5,6,0:0:0:0:
73,84,12392,1,10,0:2:0:0:
256,192,12569,1,6,3:2:0:0:
256,192,12657,12,4,13804,0:3:0:0:
423,194,14157,6,0,P|418:257|427:356,1,160,6|10,3:2|0:2,0:0:0:0:
275,353,14687,2,0,P|283:273|278:193,1,160,2|2,3:2|3:2,0:0:0:0:
278,193,15216,1,8,0:2:0:0:
148,231,15392,2,0,P|99:256|85:365,1,160,0|0,3:2|3:2,0:0:0:0:
78,352,15922,1,8,0:2:0:0:
280,319,16098,1,2,3:2:0:0:
280,319,16451,5,2,3:2:0:0:
237,220,16628,1,10,0:2:0:0:
158,315,16804,1,2,3:2:0:0:
234,207,16981,1,2,3:2:0:0:
140,144,17157,2,0,P|93:151|53:164,1,80,2|8,3:2|0:2,0:0:0:0:
141,29,17510,2,0,P|207:14|316:14,1,160,2|2,3:2|3:2,0:0:0:0:
291,178,18039,1,10,0:2:0:0:
412,107,18216,6,0,P|356:90|307:90,1,80,2|0,3:2|0:0,0:0:0:0:
186,244,18569,2,0,P|242:261|291:261,1,80,2|8,3:2|0:2,0:0:0:0:
263,262,18922,1,2,3:2:0:0:
102,199,19098,2,0,P|86:162|79:122,1,80,2|12,3:2|0:2,0:0:0:0:
98,295,19451,1,12,0:2:0:0:
223,104,19628,1,0,3:2:0:0:
223,104,19716,1,0,3:2:0:0:
223,104,19804,6,0,P|291:93|396:95,1,160,2|8,3:2|0:2,0:0:0:0:
500,120,20334,1,2,3:2:0:0:
266,187,20510,2,0,P|324:185|379:173,1,80,2|0,0:0|3:2,0:0:0:0:
364,56,20863,1,10,0:2:0:0:
421,265,21039,1,2,3:2:0:0:
421,265,21392,6,0,P|439:209|446:172,1,80,2|8,3:2|0:2,0:0:0:0:
380,357,21745,1,2,3:2:0:0:
271,309,21922,2,0,P|220:288|134:281,1,120,2|0,0:0|0:0,0:0:0:0:
120,275,22275,2,0,P|109:325|111:373,1,80,10|2,0:2|3:2,0:0:0:0:
142,170,22628,1,6,3:2:0:0:
16,264,22804,1,2,3:2:0:0:
155,164,22981,1,10,0:2:0:0:
38,37,23157,2,0,P|32:85|33:133,1,80,2|0,3:2|0:0,0:0:0:0:
250,57,23510,2,0,P|249:96|243:136,1,80,2|8,3:2|0:2,0:0:0:0:
470,69,23863,5,10,3:2:0:0:
166,44,24216,1,10,3:2:0:0:
470,69,24569,1,10,3:2:0:0:
396,120,24745,2,0,P|398:188|410:222,1,80,10|0,3:2|3:2,0:0:0:0:
324,363,25098,2,0,P|328:306|304:212,1,120,10|0,3:2|0:0,0:0:0:0:
297,217,25451,6,0,P|233:223|152:240,1,128,4|0,3:2|0:0,0:0:0:0:
50,151,25981,2,0,P|114:145|195:128,1,128,8|2,0:2|3:2,0:0:0:0:
227,48,26510,1,10,0:2:0:0:
391,177,26687,1,2,0:0:0:0:
339,105,26863,2,0,P|331:73|327:14,1,64,2|0,3:2|0:0,0:0:0:0:
421,165,27216,1,2,0:0:0:0:
369,93,27392,2,0,P|361:61|357:2,1,64,10|0,0:2|0:0,0:0:0:0:
451,157,27745,1,2,3:2:0:0:
325,275,27922,1,10,0:2:0:0:
315,175,28098,1,10,0:2:0:0:
315,175,28187,1,8,0:2:0:0:
315,175,28275,6,0,P|363:187|403:207,2,64,2|2|2,3:2|0:0|0:0,0:0:0:0:
211,249,28804,1,10,0:2:0:0:
248,104,28981,2,0,P|254:68|260:12,2,64,2|2|10,0:0|3:2|0:2,0:0:0:0:
218,240,29510,1,2,0:0:0:0:
218,240,29687,1,2,3:2:0:0:
182,153,29863,2,0,P|121:134|57:175,1,128,2|12,3:2|0:2,0:0:0:0:
272,182,30392,1,2,3:2:0:0:
272,182,30569,2,0,P|324:180|363:185,1,64,4|8,0:3|0:2,0:0:0:0:
500,242,30922,2,0,P|497:284|493:302,1,32,10|8,0:2|0:2,0:0:0:0:
428,178,31098,6,0,P|418:127|418:52,1,88.000002685547,4|0,3:2|1:0,0:0:0:0:
416,70,31363,1,0,1:0:0:0:
416,70,31451,1,0,1:0:0:0:
504,34,31628,1,6,3:2:0:0:
322,103,31804,1,2,1:2:0:0:
295,99,31892,1,0,1:0:0:0:
269,93,31981,1,0,1:0:0:0:
243,87,32069,1,0,1:0:0:0:
217,78,32157,5,6,3:2:0:0:
271,177,32334,2,0,P|267:220|258:263,1,88.000002685547,4|4,0:3|3:2,0:0:0:0:
35,354,32687,2,0,P|38:310|47:267,1,88.000002685547,10|8,0:2|0:2,0:0:0:0:
53,247,32951,1,8,0:2:0:0:
53,247,33039,1,6,3:2:0:0:
203,347,33216,1,8,0:2:0:0:
203,347,33304,1,8,0:2:0:0:
203,347,33392,2,0,P|256:360|298:366,1,88.000002685547,10|4,0:2|3:2,0:0:0:0:
437,344,33745,2,0,P|486:331|502:324,1,44.0000013427735,10|8,0:2|0:2,0:0:0:0:
354,299,33922,6,0,P|337:228|340:120,1,176.000005371094,6|0,3:2|3:2,0:0:0:0:
339,125,34451,1,0,3:2:0:0:
261,258,34628,1,2,3:2:0:0:
128,197,34804,1,0,3:2:0:0:
210,60,34981,1,2,3:2:0:0:
239,157,35157,1,2,3:2:0:0:
124,20,35334,6,0,P|67:17|1:29,1,95.9999970703126,4|8,3:2|0:2,0:0:0:0:
10,29,35598,1,8,0:2:0:0:
10,29,35687,1,8,0:2:0:0:
62,252,35863,2,0,P|119:255|179:236,1,95.9999970703126,4|8,0:3|0:2,0:0:0:0:
176,243,36127,1,8,0:2:0:0:
176,243,36216,1,8,0:2:0:0:
270,175,36392,2,0,P|266:123|261:104,3,47.9999985351563,8|8|4|0,0:2|0:3|0:3|3:0,0:0:0:0:
326,237,36745,5,12,0:2:0:0:
358,222,36834,1,8,0:2:0:0:
392,217,36922,1,8,0:2:0:0:
425,219,37010,1,8,0:2:0:0:
456,230,37098,1,8,0:2:0:0:
484,248,37187,1,8,0:2:0:0:
503,275,37275,2,0,P|509:200|510:115,1,143.999995605469,4|0,3:2|0:0,0:0:0:0:
512,112,37628,1,0,3:2:0:0:
512,112,38157,6,0,P|436:104|366:63,1,111.999996582031,4|0,3:2|3:2,0:0:0:0:
171,314,38510,2,0,P|247:322|317:363,1,111.999996582031,10|0,0:2|3:0,0:0:0:0:
294,344,38775,1,8,0:2:0:0:
294,344,38863,2,0,P|308:272|309:197,1,111.999996582031,2|0,3:2|3:2,0:0:0:0:
124,82,39216,1,10,0:2:0:0:
132,216,39392,1,0,0:0:0:0:
271,156,39569,6,0,P|332:142|465:155,1,167.999994873047,0|0,3:2|0:0,0:0:0:0:
458,153,39922,2,0,P|457:217|446:298,1,111.999996582031,10|0,0:2|3:0,0:0:0:0:
450,284,40187,1,8,0:2:0:0:
450,284,40275,1,0,3:0:0:0:
463,72,40451,1,0,3:2:0:0:
255,48,40628,1,10,0:2:0:0:
255,48,40981,6,0,P|325:46|390:62,1,111.999996582031,2|0,3:2|3:2,0:0:0:0:
147,228,41334,2,0,P|77:230|12:214,1,111.999996582031,10|0,0:2|3:0,0:0:0:0:
20,220,41598,1,8,0:2:0:0:
20,220,41687,1,2,3:2:0:0:
215,132,41863,1,0,3:2:0:0:
176,351,42039,2,0,P|262:328|372:336,1,167.999994873047,10|0,0:2|0:0,0:0:0:0:
368,332,42392,6,0,P|380:269|384:201,1,111.999996582031,2|0,3:2|3:2,0:0:0:0:
202,17,42745,2,0,P|190:80|186:148,1,111.999996582031,8|0,0:2|3:0,0:0:0:0:
184,148,43010,1,8,0:2:0:0:
184,148,43098,1,0,3:0:0:0:
90,165,43275,1,0,3:2:0:0:
273,144,43451,1,10,0:2:0:0:
465,133,43628,1,10,0:2:0:0:
465,133,43716,1,8,0:2:0:0:
465,133,43804,6,0,P|473:203|461:286,1,111.999996582031,4|0,3:2|3:2,0:0:0:0:
235,354,44157,2,0,P|227:284|239:201,1,111.999996582031,10|0,0:2|3:0,0:0:0:0:
239,219,44422,1,8,0:2:0:0:
239,218,44510,2,0,P|148:225|73:235,1,111.999996582031,2|0,3:2|3:2,0:0:0:0:
13,37,44863,2,0,P|99:76|256:42,1,223.999993164063,10|0,0:2|3:2,0:0:0:0:
303,24,45392,1,0,3:2:0:0:
130,192,45569,2,0,P|213:167|288:171,1,111.999996582031,10|0,0:2|3:0,0:0:0:0:
260,164,45834,1,8,0:2:0:0:
260,164,45922,1,0,3:0:0:0:
284,347,46098,1,0,3:2:0:0:
96,368,46275,1,10,0:2:0:0:
96,368,46628,6,0,P|120:306|132:221,1,111.999996582031,2|0,3:2|3:2,0:0:0:0:
0,41,46981,2,0,P|-2:109|21:237,1,167.999994873047,10|8,0:2|0:2,0:0:0:0:
21,220,47334,2,0,P|86:188|165:172,1,111.999996582031,2|0,0:0|3:2,0:0:0:0:
349,271,47687,1,10,0:2:0:0:
225,363,47863,1,0,3:2:0:0:
225,363,47951,1,0,3:2:0:0:
225,363,48039,2,0,P|218:303|216:211,1,111.999996582031,6|8,3:2|0:2,0:0:0:0:
308,74,48392,5,0,3:2:0:0:
345,60,48481,1,8,0:2:0:0:
383,54,48569,2,0,P|449:65|464:68,1,55.9999982910157,4|0,0:3|0:0,0:0:0:0:
353,295,48745,1,0,3:2:0:0:
333,260,48834,1,8,0:2:0:0:
326,221,48922,2,0,P|342:163|350:143,1,55.9999982910157,8|8,0:2|0:2,0:0:0:0:
487,132,49098,1,4,3:2:0:0:
511,276,49275,1,8,0:2:0:0:
509,315,49363,1,8,0:2:0:0:
493,351,49451,6,0,P|409:364|330:374,1,111.999996582031,4|0,3:2|3:2,0:0:0:0:
129,257,49804,2,0,P|184:249|239:240,1,111.999996582031,10|0,0:2|0:0,0:0:0:0:
494,66,50157,2,0,P|430:23|307:49,1,167.999994873047,2|0,0:0|0:0,0:0:0:0:
313,33,50510,2,0,P|312:119|328:178,1,111.999996582031,10|0,0:2|0:0,0:0:0:0:
152,10,50863,1,2,3:2:0:0:
152,10,51216,6,0,P|166:100|135:206,1,167.999994873047,10|8,0:2|0:2,0:0:0:0:
142,191,51569,1,2,0:0:0:0:
251,203,51745,1,0,3:2:0:0:
38,178,51922,2,0,P|21:245|34:334,1,111.999996582031,8|0,0:2|0:0,0:0:0:0:
301,368,52275,2,0,P|327:297|319:161,1,167.999994873047,2|0,3:2|0:0,0:0:0:0:
327,176,52628,2,0,L|460:187,1,111.999996582031,10|0,0:2|0:0,0:0:0:0:
224,314,52981,2,0,L|91:303,1,111.999996582031,2|0,0:0|3:2,0:0:0:0:
401,154,53334,2,0,P|381:101|244:67,1,167.999994873047,10|0,0:2|0:0,0:0:0:0:
255,58,53687,5,2,3:2:0:0:
247,236,53863,1,0,3:2:0:0:
425,240,54039,1,10,0:2:0:0:
439,60,54216,1,0,0:0:0:0:
339,157,54392,2,0,P|331:227|348:319,1,111.999996582031,2|0,0:0|3:2,0:0:0:0:
206,363,54745,1,10,0:2:0:0:
114,279,54922,1,0,3:0:0:0:
114,279,55010,1,8,0:2:0:0:
114,279,55098,6,0,P|128:161|100:37,1,223.999993164063,6|8,3:2|0:2,0:0:0:0:
208,21,55628,1,0,3:0:0:0:
208,21,55716,1,8,0:2:0:0:
208,21,55804,2,0,P|275:25|341:27,1,111.999996582031,2|0,3:2|3:2,0:0:0:0:
397,222,56157,2,0,P|399:161|409:86,1,111.999996582031,12|0,0:2|0:0,0:0:0:0:
494,64,56510,1,2,3:2:0:0:
482,254,56687,1,0,3:2:0:0:
292,239,56863,6,0,P|199:231|142:232,1,111.999996582031,12|0,0:2|3:0,0:0:0:0:
150,231,57128,1,8,0:2:0:0:
150,231,57216,1,2,3:2:0:0:
376,251,57392,1,0,3:2:0:0:
60,226,57569,1,8,0:2:0:0:
60,226,57922,6,0,P|69:141|59:85,1,111.999996582031,6|0,3:2|3:2,0:0:0:0:
220,16,58275,2,0,P|211:101|221:157,1,111.999996582031,8|0,0:2|3:0,0:0:0:0:
217,146,58539,1,8,0:2:0:0:
217,146,58628,1,0,3:0:0:0:
306,165,58804,1,0,3:2:0:0:
108,126,58981,1,10,0:2:0:0:
393,185,59157,1,4,3:2:0:0:
393,185,59510,5,8,0:2:0:0:
355,295,59687,1,8,0:2:0:0:
290,209,59863,1,0,3:2:0:0:
290,209,59951,1,0,3:2:0:0:
290,209,60039,1,12,0:2:0:0:
459,271,60216,1,0,3:2:0:0:
310,367,60392,1,4,0:3:0:0:
280,340,60481,1,0,3:0:0:0:
244,324,60569,1,2,3:2:0:0:
204,324,60657,1,0,3:2:0:0:
170,329,60745,6,0,P|108:343|57:356,1,95.9999970703126,14|0,0:2|3:2,0:0:0:0:
251,165,61098,2,0,P|313:179|364:192,1,95.9999970703126,2|8,3:2|0:2,0:0:0:0:
156,18,61451,2,0,P|94:32|43:45,1,95.9999970703126,2|0,3:2|3:2,0:0:0:0:
235,149,61804,1,10,0:2:0:0:
235,149,61981,1,0,3:2:0:0:
389,44,62157,6,0,P|468:49|524:57,1,95.9999970703126,12|0,0:2|3:2,0:0:0:0:
226,125,62510,1,2,3:2:0:0:
401,63,62686,2,0,P|476:88|528:110,1,95.9999970703126,8|0,0:2|3:2,0:0:0:0:
220,101,63039,1,0,3:2:0:0:
405,86,63215,2,0,P|470:129|515:164,1,95.9999970703126,10|0,0:2|3:2,0:0:0:0:
512,341,63569,6,0,P|410:281|330:297,1,191.999994140625,14|0,0:2|3:2,0:0:0:0:
160,351,64098,1,8,0:2:0:0:
294,222,64275,1,0,3:2:0:0:
294,222,64451,1,0,3:2:0:0:
139,119,64628,2,0,P|206:98|277:93,1,95.9999970703126,8|0,0:2|3:2,0:0:0:0:
150,323,64981,2,0,P|83:344|12:349,1,95.9999970703126,14|0,0:2|3:2,0:0:0:0:
263,200,65334,2,0,P|284:267|289:338,1,95.9999970703126,0|12,3:2|0:2,0:0:0:0:
37,215,65687,2,0,P|16:148|11:77,1,95.9999970703126,0|0,3:2|3:2,0:0:0:0:
119,241,66039,1,10,0:2:0:0:
99,111,66216,1,4,0:3:0:0:
99,111,66304,1,4,0:3:0:0:
99,111,66392,6,0,P|103:57|113:-19,1,95.9999970703126,14|0,0:2|3:2,0:0:0:0:
291,174,66745,2,0,P|308:122|338:52,1,95.9999970703126,2|8,3:2|0:2,0:0:0:0:
420,306,67098,2,0,P|450:261|497:200,1,95.9999970703126,2|0,3:2|3:2,0:0:0:0:
229,259,67451,1,10,0:2:0:0:
229,259,67628,1,0,3:2:0:0:
380,198,67804,5,12,0:2:0:0:
361,366,67981,1,0,3:2:0:0:
229,259,68157,1,2,3:2:0:0:
399,221,68334,5,8,0:2:0:0:
337,378,68511,1,0,3:2:0:0:
237,240,68687,1,0,3:2:0:0:
454,142,68863,5,10,0:2:0:0:
349,274,69040,1,0,3:2:0:0:
294,113,69216,2,0,P|346:73|505:39,1,191.999994140625,14|0,0:2|3:2,0:0:0:0:
233,203,69745,2,0,P|181:163|22:129,1,191.999994140625,8|0,0:2|3:2,0:0:0:0:
58,363,70275,1,10,0:2:0:0:
207,318,70451,1,0,3:2:0:0:
97,205,70628,5,10,0:2:0:0:
86,207,70716,1,4,0:3:0:0:
77,213,70804,1,0,3:2:0:0:
78,380,70981,1,12,0:2:0:0:
210,297,71157,5,8,0:2:0:0:
210,286,71245,1,4,0:3:0:0:
208,275,71333,1,0,3:2:0:0:
76,217,71510,1,12,0:2:0:0:
332,347,71687,2,0,P|341:324|346:284,1,47.9999985351563,2|0,3:2|0:0,0:0:0:0:
219,228,71863,2,0,P|211:255|205:291,1,47.9999985351563,10|8,0:2|0:2,0:0:0:0:
366,362,72039,6,0,P|390:275|377:179,1,143.999995605469,4|0,3:2|0:0,0:0:0:0:
389,196,72392,2,0,P|460:198|507:200,1,95.9999970703126,10|0,0:2|0:0,0:0:0:0:
489,0,72745,2,0,P|397:-1|340:62,1,143.999995605469,2|0,0:0|0:0,0:0:0:0:
343,61,73098,2,0,P|272:59|225:57,1,95.9999970703126,10|0,0:2|0:0,0:0:0:0:
163,93,73451,1,0,3:2:0:0:
229,259,73628,1,0,3:2:0:0:
152,203,73804,2,0,P|77:209|24:276,1,143.999995605469,10|8,0:2|0:2,0:0:0:0:
18,271,74157,2,0,P|11:195|16:147,1,95.9999970703126,2|0,0:0|3:2,0:0:0:0:
74,365,74510,1,10,0:2:0:0:
74,365,74687,1,2,0:0:0:0:
179,310,74863,6,0,P|246:294|301:320,1,95.9999970703126,6|0,3:2|3:2,0:0:0:0:
485,365,75216,2,0,P|430:378|339:345,1,143.999995605469,8|8,0:2|0:2,0:0:0:0:
385,334,75569,2,0,P|403:283|411:204,1,95.9999970703126,6|0,3:2|3:2,0:0:0:0:
317,87,75922,2,0,P|299:138|291:217,1,95.9999970703126,10|0,0:2|3:0,0:0:0:0:
290,200,76187,1,8,0:2:0:0:
290,200,76275,6,0,P|221:193|162:188,1,95.9999970703126,6|0,3:2|3:2,0:0:0:0:
83,68,76628,1,10,0:2:0:0:
240,6,76804,1,0,3:0:0:0:
240,6,76892,1,8,0:2:0:0:
240,6,76981,2,0,P|232:71|210:123,1,95.9999970703126,2|0,3:2|3:2,0:0:0:0:
27,171,77334,1,10,0:2:0:0:
140,157,77510,1,4,0:3:0:0:
140,157,77598,1,4,0:3:0:0:
140,157,77687,6,0,P|155:232|150:293,1,95.9999970703126,6|0,3:2|3:2,0:0:0:0:
276,366,78039,2,0,P|248:274|251:164,1,191.999994140625,10|0,0:2|0:0,0:0:0:0:
248,178,78569,1,0,3:2:0:0:
362,348,78745,2,0,P|371:294|396:242,1,95.9999970703126,10|0,0:2|0:0,0:0:0:0:
451,375,79098,2,0,P|469:330|476:283,1,95.9999970703126,2|0,3:2|3:2,0:0:0:0:
375,91,79451,2,0,L|268:99,1,95.9999970703126,10|0,0:2|0:0,0:0:0:0:
509,178,79804,2,0,L|413:170,1,95.9999970703126,2|0,0:0|3:2,0:0:0:0:
303,243,80157,1,10,0:2:0:0:
256,256,80245,1,8,0:2:0:0:
209,248,80334,1,8,0:2:0:0:
173,215,80422,1,8,0:2:0:0:
159,169,80510,6,0,B|131:289|187:219|161:368,1,191.999994140625,6|0,3:2|0:0,0:0:0:0:
249,171,81039,1,12,0:2:0:0:
80,311,81216,2,0,P|38:287|16:213,1,95.9999970703126,2|0,0:0|3:2,0:0:0:0:
85,17,81569,1,4,0:3:0:0:
123,18,81657,1,4,0:3:0:0:
160,26,81745,1,0,3:2:0:0:
196,39,81834,1,0,3:2:0:0:
229,57,81922,1,12,0:2:0:0:
229,57,83334,5,6,3:2:0:0:
409,10,83510,2,0,P|467:36|513:59,1,88.000002685547,2|8,0:0|0:2,0:0:0:0:
487,161,83863,5,2,0:0:0:0:
307,114,84039,2,0,P|249:140|203:163,1,88.000002685547,2|0,3:2|0:0,0:0:0:0:
228,267,84392,5,10,0:2:0:0:
408,220,84568,2,0,P|466:246|512:269,1,88.000002685547,2|0,0:0|3:2,0:0:0:0:
482,373,84922,1,2,0:0:0:0:
330,271,85098,6,0,P|325:210|337:157,1,88.000002685547,10|2,0:2|0:0,0:0:0:0:
337,162,85363,1,2,0:0:0:0:
337,162,85451,1,2,3:2:0:0:
150,137,85628,1,2,0:0:0:0:
138,331,85804,1,10,0:2:0:0:
138,331,86157,5,10,0:2:0:0:
159,303,86245,1,8,0:2:0:0:
177,272,86334,2,0,P|181:222|181:199,1,44.0000013427735,2|0,3:2|3:2,0:0:0:0:
79,75,86510,1,4,0:3:0:0:
58,103,86598,1,4,0:3:0:0:
40,134,86687,2,0,P|36:184|36:207,1,44.0000013427735,2|0,3:2|3:2,0:0:0:0:
257,294,86863,5,10,0:2:0:0:
172,140,87039,1,6,0:0:0:0:
348,146,87216,1,10,0:2:0:0:
256,192,87392,5,6,3:2:0:0:
256,192,87569,12,0,88892,0:0:0:0:
