osu file format v14

[General]
AudioFilename: audio.mp3
AudioLeadIn: 0
PreviewTime: 37716
Countdown: 0
SampleSet: Soft
StackLeniency: 0.7
Mode: 0
LetterboxInBreaks: 0
WidescreenStoryboard: 0

[Editor]
DistanceSpacing: 0.6
BeatDivisor: 4
GridSize: 32
TimelineZoom: 1

[Metadata]
Title:Hana no Tou (TV Size)
TitleUnicode:花の塔 (TV Size)
Artist:Sayuri
ArtistUnicode:さユり
Creator:Rtyzen
Version:Flower
Source:リコリス・リコイル
Tags:Fsjallink Yurino Ayumi DayDreamkwy ed ending anime lycoris recoil lycoreco リコリコ jpop japanese pop j-pop flower tower 酸欠少女さユり sanketsu-girl sanketsu shoujo shojo hypoxia girl yuri
BeatmapID:3699428
BeatmapSetID:1804015

[Difficulty]
HPDrainRate:5
CircleSize:4
OverallDifficulty:8.5
ApproachRate:9.2
SliderMultiplier:2.1
SliderTickRate:1

[Events]
//Background and Video events
0,0,"takinabg.png",0,0
Video,120,"video.mp4"
//Break Periods
//Storyboard Layer 0 (Background)
//Storyboard Layer 1 (Fail)
//Storyboard Layer 2 (Pass)
//Storyboard Layer 3 (Foreground)
//Storyboard Layer 4 (Overlay)
//Storyboard Sound Samples

[TimingPoints]
40,352.941176470588,4,2,1,80,1,0
40,-50,4,2,1,80,0,0
128,-50,4,2,1,5,0,0
216,-500,4,2,1,80,0,0
481,-500,4,2,1,5,0,0
569,-50,4,2,1,80,0,0
657,-50,4,2,1,5,0,0
745,-500,4,2,1,80,0,0
1010,-500,4,2,1,5,0,0
1098,-40,4,2,1,80,0,0
1187,-40,4,2,1,5,0,0
1275,-500,4,2,1,80,0,0
1539,-500,4,2,1,5,0,0
1628,-58.8235294117647,4,2,1,80,0,0
2863,-58.8235294117647,4,2,1,70,0,0
7804,-50,4,2,1,70,0,0
8687,-58.8235294117647,4,2,1,70,0,0
12569,-133.333333333333,4,2,1,70,0,0
13628,-133.333333333333,4,2,1,60,0,0
14157,-83.3333333333333,4,2,1,60,0,0
23863,-66.6666666666667,4,2,1,65,0,0
24216,-58.8235294117647,4,2,1,65,0,0
24569,-83.3333333333333,4,2,1,65,0,0
25451,-111.111111111111,4,2,1,65,0,0
25539,-111.111111111111,4,2,1,55,0,0
30216,-71.4285714285714,4,2,1,55,0,0
31098,-71.4285714285714,4,2,1,60,0,0
31628,-100,4,2,1,60,0,0
31804,-100,4,2,1,65,0,0
32510,-100,4,2,1,70,0,0
33216,-100,4,2,1,75,0,0
33922,-100,4,2,1,80,0,0
34275,-100,4,2,1,60,0,0
34628,-100,4,2,1,70,0,0
34981,-100,4,2,1,80,0,0
35334,-100,4,2,1,90,0,0
37275,-50,4,2,1,90,0,0
37804,-50,4,2,1,50,0,0
38157,-66.6666666666667,4,2,1,90,0,1
38245,-66.6666666666667,4,2,1,80,0,1
38863,-83.3333333333333,4,2,1,80,0,1
39216,-66.6666666666667,4,2,1,80,0,1
40275,-83.3333333333333,4,2,1,80,0,1
40981,-66.6666666666667,4,2,1,80,0,1
42039,-55.5555555555556,4,2,1,80,0,1
42392,-66.6666666666667,4,2,1,80,0,1
44687,-83.3333333333333,4,2,1,80,0,1
44863,-55.5555555555556,4,2,1,80,0,1
45216,-66.6666666666667,4,2,1,80,0,1
45569,-55.5555555555556,4,2,1,80,0,1
45834,-83.3333333333333,4,2,1,80,0,1
46275,-66.6666666666667,4,2,1,80,0,1
47687,-55.5555555555556,4,2,1,80,0,1
48039,-66.6666666666667,4,2,1,80,0,1
49804,-55.5555555555556,4,2,1,80,0,1
50157,-66.6666666666667,4,2,1,80,0,1
54039,-83.3333333333333,4,2,1,80,0,1
54745,-55.5555555555556,4,2,1,80,0,1
57922,-66.6666666666667,4,2,1,80,0,1
58981,-83.3333333333333,4,2,1,80,0,1
59157,-55.5555555555556,4,2,1,80,0,1
60392,-66.6666666666667,4,2,1,80,0,1
60745,-66.6666666666667,4,2,1,80,0,0
72039,-66.6666666666667,4,2,1,75,0,0
72745,-76.9230769230769,4,2,1,75,0,0
73098,-58.8235294117647,4,2,1,75,0,0
73451,-76.9230769230769,4,2,1,75,0,0
74863,-58.8235294117647,4,2,1,75,0,0
75216,-76.9230769230769,4,2,1,75,0,0
75569,-58.8235294117647,4,2,1,75,0,0
77334,-66.6666666666667,4,2,1,75,0,0
78039,-58.8235294117647,4,2,1,75,0,0
78392,-76.9230769230769,4,2,1,75,0,0
82275,-76.9230769230769,4,2,1,55,0,0
83334,-58.8235294117647,4,2,1,70,0,0
84569,-62.5,4,2,1,70,0,0
88892,-62.5,4,2,1,5,0,0

[Colours]
Combo1 : 74,165,255
Combo2 : 164,255,72
Combo3 : 255,255,111

[HitObjects]
130,66,40,6,0,B|128:86|156:93|156:93|177:99|177:99|215:106|203:161,1,105,4|0,3:2|0:0,0:0:0:0:
386,266,216,2,0,L|391:230,1,31.5,2|0,3:2|0:0,0:0:0:0:
406,129,569,6,0,B|407:149|379:156|379:156|358:162|358:162|320:169|332:224,1,105,2|0,3:2|0:0,0:0:0:0:
150,329,745,2,0,L|145:293,1,31.5,2|0,3:2|0:0,0:0:0:0:
272,280,1098,6,0,B|288:296|288:296|256:328|256:328|223:296|223:296|240:280,1,131.25,2|0,3:2|0:0,0:0:0:0:
256,96,1275,2,0,L|256:128,1,31.5,2|0,3:2|0:0,0:0:0:0:
117,155,1628,6,0,P|170:156|191:238,1,89.2500017023087,2|0,3:2|0:0,0:0:0:0:
365,286,1804,2,0,B|366:311|384:328|384:328|359:327|333:359,1,89.2500017023087,2|0,3:2|0:0,0:0:0:0:
256,127,1981,2,0,P|281:173|221:232,1,89.2500017023087,2|0,0:0|0:0,0:0:0:0:
66,333,2157,5,8,0:2:0:0:
57,321,2245,1,8,0:3:0:0:
71,325,2334,1,4,0:3:0:0:
57,330,2422,1,0,3:0:0:0:
66,318,2510,1,4,3:2:0:0:
303,360,2863,6,0,B|361:338|361:338|371:253|472:237,1,178.500003404617,6|2,3:2|0:0,0:0:0:0:
491,316,3128,1,0,0:0:0:0:
480,310,3216,2,0,P|440:334|439:389,1,89.2500017023087,8|0,0:2|0:0,0:0:0:0:
191,252,3392,6,0,B|204:266|206:293|206:293|222:266|274:277,1,89.2500017023087,2|0,0:0|0:0,0:0:0:0:
488,182,3569,2,0,B|441:160|441:160|284:200|284:200|189:165,1,267.750005106926,2|0,3:2|0:0,0:0:0:0:
292,105,3922,6,0,P|328:141|319:198,1,89.2500017023087,10|0,0:2|0:0,0:0:0:0:
72,344,4098,2,0,B|4:329|-3:223|76:188|76:188|81:243|138:232,1,267.750005106926,2|0,0:0|0:0,0:0:0:0:
191,252,4451,6,0,B|206:269|206:269|187:355,1,89.2500017023087,2|0,0:0|0:0,0:0:0:0:
329,177,4628,2,0,B|314:194|314:194|333:280,1,89.2500017023087,10|0,0:2|0:0,0:0:0:0:
124,82,4804,1,2,0:0:0:0:
116,85,4892,1,2,0:0:0:0:
108,88,4981,1,2,3:2:0:0:
295,28,5157,2,0,B|235:34|274:65|206:69,1,89.2500017023087,2|0,0:0|0:0,0:0:0:0:
100,91,5334,2,0,B|181:55|231:125|227:126|220:126|261:202|366:138,1,267.750005106926,10|0,0:2|0:0,0:0:0:0:
411,119,5687,6,0,B|401:91|403:71|403:71|383:86|344:75,1,89.2500017023087,2|0,3:2|0:0,0:0:0:0:
139,261,5863,2,0,B|175:285|180:336|180:336|203:291|299:285,1,178.500003404617,2|8,0:0|0:2,0:0:0:0:
236,153,6128,5,0,0:0:0:0:
215,148,6216,2,0,P|196:180|233:233,1,89.2500017023087,2|0,0:0|0:0,0:0:0:0:
375,363,6392,2,0,B|424:348|470:337|470:337|439:253|422:159,1,267.750005106926,2|0,3:2|0:0,0:0:0:0:
381,100,6745,6,0,B|410:78|410:78|492:101,1,89.2500017023087,10|0,0:2|0:0,0:0:0:0:
254,291,6922,2,0,B|225:313|225:313|64:267,1,178.500003404617,2|0,0:0|3:2,0:0:0:0:
376,93,7275,6,0,P|331:116|334:173,1,89.2500017023087,2|0,0:0|0:0,0:0:0:0:
241,134,7451,2,0,P|238:184|289:210,1,89.2500017023087,10|0,0:2|0:0,0:0:0:0:
474,233,7628,5,2,0:0:0:0:
480,229,7716,1,2,0:0:0:0:
486,225,7804,2,0,B|440:202|440:202|406:206|396:246,1,105,6|0,3:2|0:0,0:0:0:0:
294,382,7981,2,0,B|341:361|341:361|359:332|335:299,1,105,10|0,0:2|0:0,0:0:0:0:
237,126,8157,6,0,B|183:139|183:139|174:225,1,105,14|0,0:2|0:0,0:0:0:0:
90,344,8334,1,0,3:0:0:0:
157,384,8422,1,10,0:0:0:0:
222,344,8510,6,0,B|237:290|237:290|167:239,1,105,6|0,3:2|0:0,0:0:0:0:
78,128,8687,2,0,B|42:137|42:137|16:243|16:243|57:298,1,178.500003404617,2|8,0:0|0:2,0:0:0:0:
222,344,9039,6,0,B|240:304|240:304|183:337,1,89.2500017023087,2|0,0:0|0:0,0:0:0:0:
35,268,9216,2,0,B|123:240|123:240|154:185|154:185|287:151,1,267.750005106926,2|0,3:2|0:0,0:0:0:0:
293,83,9569,6,0,B|324:96|324:96|352:174,1,89.2500017023087,10|0,0:2|0:0,0:0:0:0:
455,363,9745,2,0,B|413:324|413:324|446:193,1,178.500003404617,2|0,0:0|3:2,0:0:0:0:
261,304,10098,6,0,B|260:348|260:348|337:315,1,89.2500017023087,2|0,0:0|0:0,0:0:0:0:
382,307,10275,2,0,B|424:319|424:319|412:236,1,89.2500017023087,10|0,0:2|0:0,0:0:0:0:
325,225,10451,1,2,0:0:0:0:
317,228,10539,1,2,0:0:0:0:
309,231,10628,1,2,3:2:0:0:
462,81,10804,6,0,B|439:99|439:99|359:81,1,89.2500017023087,2|0,0:0|0:0,0:0:0:0:
303,53,10981,2,0,B|260:29|260:29|121:69,1,178.500003404617,10|0,0:2|3:2,0:0:0:0:
23,165,11245,1,0,3:2:0:0:
16,145,11334,5,10,0:2:0:0:
69,148,11422,1,8,0:2:0:0:
102,189,11510,1,2,3:2:0:0:
102,242,11598,1,0,3:2:0:0:
46,293,11687,5,4,0:3:0:0:
40,328,11775,1,4,0:3:0:0:
65,351,11863,1,2,3:2:0:0:
100,355,11951,1,0,3:2:0:0:
178,371,12039,6,0,B|187:348|198:339|198:339|171:257,1,89.2500017023087,10|0,0:2|0:0,0:0:0:0:
23,165,12216,2,0,B|37:183|33:207|33:207|51:186|106:178,1,89.2500017023087,6|0,0:0|0:0,0:0:0:0:
333,146,12392,2,0,B|308:141|298:131|298:131|221:172,1,89.2500017023087,10|0,0:2|0:0,0:0:0:0:
153,208,12569,6,0,B|225:227|245:151|248:147|251:143|251:102|260:39|332:30|379:58|407:80|448:117|398:172|347:203|325:127,1,433.125016522408,6|0,3:2|0:0,0:0:0:0:
246,93,13628,1,0,3:2:0:0:
220,54,13716,1,0,3:2:0:0:
242,13,13804,1,4,0:3:0:0:
248,12,14157,6,0,P|240:55|231:88,1,62.9999980773926,6|0,3:2|0:0,0:0:0:0:
75,148,14334,2,0,P|67:191|58:224,1,62.9999980773926,2|0,3:2|0:0,0:0:0:0:
266,293,14510,1,10,0:2:0:0:
155,136,14687,2,0,P|139:220|121:285,1,125.999996154785,2|0,3:2|0:0,0:0:0:0:
270,300,15039,6,0,P|238:304|210:317,1,62.9999980773926,2|0,3:2|0:0,0:0:0:0:
62,209,15216,2,0,P|93:204|121:191,1,62.9999980773926,8|0,0:2|0:0,0:0:0:0:
341,53,15392,2,0,P|270:32|228:81,1,125.999996154785,2|0,3:2|0:0,0:0:0:0:
234,61,15745,6,0,P|242:110|244:138,1,62.9999980773926,0|0,3:2|0:0,0:0:0:0:
350,257,15922,1,8,0:2:0:0:
155,126,16098,2,0,L|366:153,1,188.999994232178,2|0,3:2|0:0,0:0:0:0:
421,158,16451,6,0,P|428:128|433:97,1,62.9999980773926,2|0,3:2|0:0,0:0:0:0:
261,233,16628,2,0,P|253:276|244:309,1,62.9999980773926,10|0,0:2|0:0,0:0:0:0:
243,124,16804,1,2,3:2:0:0:
468,229,16981,6,0,P|438:255|439:298,1,62.9999980773926,2|0,3:2|0:0,0:0:0:0:
361,260,17157,2,0,P|358:299|389:329,1,62.9999980773926,2|0,3:2|0:0,0:0:0:0:
442,360,17334,1,8,0:2:0:0:
177,171,17510,6,0,B|200:195|202:229|202:229|225:201|285:197,1,125.999996154785,2|0,3:2|0:0,0:0:0:0:
448,365,17863,2,0,L|368:374,1,62.9999980773926,2|0,3:2|0:0,0:0:0:0:
303,345,18039,2,0,L|223:354,1,62.9999980773926,10|0,0:2|0:0,0:0:0:0:
453,200,18216,6,0,B|480:212|513:197|513:197|500:228|511:260,1,125.999996154785,2|0,3:2|0:0,0:0:0:0:
369,296,18569,1,2,3:2:0:0:
448,365,18745,2,0,B|460:333|460:333|438:277,1,62.9999980773926,8|0,0:2|0:0,0:0:0:0:
370,204,18922,2,0,B|342:184|342:184|282:190,1,62.9999980773926,2|0,3:2|0:0,0:0:0:0:
203,235,19098,1,2,3:2:0:0:
410,80,19275,6,0,P|357:111|335:104,1,62.9999980773926,12|0,0:2|0:0,0:0:0:0:
106,165,19451,2,0,P|74:87|126:57,1,125.999996154785,12|0,0:2|3:2,0:0:0:0:
163,31,19716,1,0,3:2:0:0:
233,65,19804,6,0,L|217:153,1,62.9999980773926,2|0,3:2|0:0,0:0:0:0:
203,235,19981,2,0,L|187:323,1,62.9999980773926,0|0,3:2|0:0,0:0:0:0:
283,188,20157,1,8,0:2:0:0:
6,337,20334,6,0,B|54:306|54:306|147:341,1,125.999996154785,2|2,3:2|0:0,0:0:0:0:
348,322,20687,1,0,3:2:0:0:
258,348,20863,2,0,L|269:286,1,62.9999980773926,10|0,0:2|0:0,0:0:0:0:
349,138,21039,6,0,B|392:230|392:230|500:193,1,188.999994232178,2|0,3:2|0:0,0:0:0:0:
508,132,21392,2,0,P|493:95|456:82,1,62.9999980773926,2|0,3:2|0:0,0:0:0:0:
288,208,21569,1,8,0:2:0:0:
508,132,21745,6,0,B|438:132|433:84|434:82|438:82|426:22|346:35,1,188.999994232178,2|0,3:2|0:0,0:0:0:0:
288,63,22098,1,0,3:2:0:0:
206,291,22275,2,0,P|180:250|161:235,1,62.9999980773926,10|0,0:2|0:0,0:0:0:0:
110,191,22451,2,0,P|69:164|45:159,1,62.9999980773926,2|0,3:2|0:0,0:0:0:0:
291,174,22628,6,0,P|244:188|225:202,1,62.9999980773926,6|0,3:2|0:0,0:0:0:0:
169,240,22804,2,0,P|133:272|121:294,1,62.9999980773926,2|0,3:2|0:0,0:0:0:0:
95,356,22981,1,10,0:2:0:0:
55,161,23157,6,0,B|57:123|96:113|96:113|194:132,1,125.999996154785,2|0,3:2|0:0,0:0:0:0:
410,214,23510,2,0,P|415:242|429:282,1,62.9999980773926,2|0,3:2|0:0,0:0:0:0:
287,370,23687,2,0,P|282:342|268:302,1,62.9999980773926,8|0,0:2|0:0,0:0:0:0:
347,149,23863,6,0,B|327:197|318:246|318:246|274:227|234:226,1,157.500006008148,10|0,3:2|0:0,0:0:0:0:
264,229,24216,6,0,B|309:230|334:195|334:195|404:208|436:306|375:348,1,267.750005106926,10|0,3:2|0:0,0:0:0:0:
287,370,24569,2,0,B|288:356|281:334|281:334|298:342|324:335,1,62.9999980773926,10|0,3:2|0:0,0:0:0:0:
458,186,24745,5,10,3:2:0:0:
263,147,24922,1,0,3:2:0:0:
68,108,25098,1,10,3:2:0:0:
458,186,25451,6,0,P|374:197|352:311,1,188.999994232178,4|0,3:2|0:0,0:0:0:0:
496,348,25981,2,0,P|480:282|449:269,1,94.499997116089,8|0,0:2|0:0,0:0:0:0:
212,207,26334,1,2,3:2:0:0:
329,370,26510,2,0,B|266:360|298:333|226:329,1,94.499997116089,10|2,0:2|0:0,0:0:0:0:
191,125,26863,6,0,B|128:135|160:162|88:166,1,94.499997116089,2|0,3:2|0:0,0:0:0:0:
35,145,27128,2,0,L|23:91,1,47.2499985580445,0|2,3:2|0:0,0:0:0:0:
282,156,27392,2,0,L|311:289,1,94.499997116089,10|0,0:2|0:0,0:0:0:0:
306,79,27745,1,2,3:2:0:0:
192,209,27922,1,10,0:2:0:0:
434,288,28098,5,10,0:2:0:0:
445,293,28186,1,8,0:2:0:0:
456,298,28275,1,2,3:2:0:0:
483,208,28451,1,2,0:0:0:0:
463,307,28628,1,2,0:0:0:0:
312,186,28804,5,10,0:2:0:0:
355,120,28981,1,2,0:0:0:0:
429,143,29157,1,2,3:2:0:0:
261,265,29334,5,10,0:2:0:0:
211,128,29510,1,2,0:0:0:0:
388,211,29687,5,2,3:2:0:0:
197,339,29863,2,0,B|157:325|157:325|149:312|149:312|97:291,1,94.499997116089,2|2,3:2|3:2,0:0:0:0:
315,370,30216,6,0,B|294:265|294:265|284:249|284:249|260:124,1,220.499993270874,12|0,0:2|0:0,0:0:0:0:
306,87,30569,1,4,0:3:0:0:
167,225,30745,1,8,0:2:0:0:
416,294,30922,1,10,0:2:0:0:
457,262,31010,1,8,0:2:0:0:
442,215,31098,2,0,P|406:207|363:192,1,73.4999977569581,4|0,3:2|0:0,0:0:0:0:
160,221,31275,5,0,1:0:0:0:
128,257,31363,1,0,1:0:0:0:
133,304,31451,1,0,1:0:0:0:
171,334,31539,1,0,1:0:0:0:
183,336,31628,6,0,P|220:319|266:315,1,52.5,6|0,3:2|0:0,0:0:0:0:
276,143,31804,1,2,1:2:0:0:
259,94,31892,1,0,1:0:0:0:
212,74,31980,1,0,1:0:0:0:
166,94,32068,1,0,1:0:0:0:
150,95,32157,6,0,P|162:131|168:175,1,52.5,6|0,3:2|0:0,0:0:0:0:
373,213,32334,2,0,P|361:177|355:133,1,52.5,4|4,0:3|0:3,0:0:0:0:
264,41,32510,5,4,3:2:0:0:
259,94,32598,1,8,0:0:0:0:
253,146,32686,1,10,0:2:0:0:
247,198,32774,1,8,0:2:0:0:
211,265,32863,5,8,0:2:0:0:
214,272,32951,1,8,0:2:0:0:
217,279,33039,1,6,3:2:0:0:
57,211,33216,1,8,0:2:0:0:
36,162,33304,1,8,0:2:0:0:
44,111,33392,1,10,0:2:0:0:
77,70,33480,1,8,0:2:0:0:
126,51,33568,1,4,3:2:0:0:
371,45,33745,5,10,0:2:0:0:
421,72,33834,1,8,0:2:0:0:
428,123,33922,1,6,3:2:0:0:
421,131,34275,5,0,3:2:0:0:
194,184,34451,1,0,3:2:0:0:
333,31,34628,5,2,3:2:0:0:
224,254,34804,1,0,3:2:0:0:
119,66,34981,5,2,3:2:0:0:
299,236,35157,1,2,3:2:0:0:
256,96,35334,5,4,3:2:0:0:
90,295,35510,1,8,0:2:0:0:
97,300,35598,1,8,0:2:0:0:
102,307,35687,1,8,0:2:0:0:
256,90,35863,5,4,0:3:0:0:
422,295,36039,1,8,0:2:0:0:
415,300,36127,1,8,0:2:0:0:
410,307,36216,1,8,0:2:0:0:
448,77,36392,5,8,0:2:0:0:
397,69,36480,1,8,0:3:0:0:
354,97,36568,1,4,0:3:0:0:
340,146,36656,1,0,3:0:0:0:
233,206,36745,5,12,0:2:0:0:
268,177,36833,1,8,0:2:0:0:
258,219,36922,1,8,0:2:0:0:
242,177,37010,1,8,0:2:0:0:
278,205,37098,1,8,0:2:0:0:
0,178,37275,6,0,P|144:221|201:392,1,315,4|0,3:2|0:0,0:0:0:0:
204,363,37628,2,0,P|183:305|224:263,1,105,0|0,3:2|0:0,0:0:0:0:
362,175,37804,5,2,0:0:0:0:
437,193,37981,1,2,0:0:0:0:
172,31,38157,6,0,B|147:55|127:62|127:62|169:188,1,157.500006008148,4|0,3:2|3:2,0:0:0:0:
429,327,38510,2,0,B|454:303|474:296|474:296|432:170,1,157.500006008148,10|0,0:2|3:0,0:0:0:0:
299,117,38775,1,8,0:2:0:0:
286,124,38863,2,0,P|281:167|275:215,1,62.9999980773926,2|0,3:2|0:0,0:0:0:0:
429,327,39039,2,0,P|434:284|440:236,1,62.9999980773926,0|0,3:2|0:0,0:0:0:0:
144,278,39216,6,0,B|223:263|256:321|251:321|244:322|284:395|390:348,1,236.250009012223,10|0,0:2|0:0,0:0:0:0:
429,327,39569,1,0,3:2:0:0:
377,141,39745,1,0,3:2:0:0:
248,304,39922,6,0,B|331:278|331:278|310:200,1,157.500006008148,10|0,0:2|3:0,0:0:0:0:
377,141,40187,1,8,0:2:0:0:
393,141,40275,2,0,P|431:170|433:207,1,62.9999980773926,0|0,3:0|0:0,0:0:0:0:
303,78,40451,2,0,P|340:48|377:56,1,62.9999980773926,0|0,3:2|0:0,0:0:0:0:
443,56,40628,1,10,0:2:0:0:
185,152,40804,5,0,3:0:0:0:
176,150,40892,1,0,3:0:0:0:
167,148,40981,2,0,B|159:169|141:180|141:180|160:177|193:213,1,78.7500030040742,2|0,3:2|0:0,0:0:0:0:
282,267,41157,2,0,B|300:280|306:300|306:300|308:281|351:258,1,78.7500030040742,0|0,3:2|0:0,0:0:0:0:
267,181,41334,1,10,0:2:0:0:
44,339,41510,5,0,3:0:0:0:
46,346,41598,1,8,0:2:0:0:
49,354,41687,2,0,B|143:331|94:292|213:272,1,157.500006008148,2|0,3:2|3:2,0:0:0:0:
466,127,42039,2,0,B|442:170|433:215|433:215|392:195|315:179,1,188.999994232178,10|0,0:2|3:0,0:0:0:0:
301,121,42304,1,0,3:0:0:0:
336,52,42392,6,0,P|371:38|422:65,1,78.7500030040742,2|0,3:2|0:0,0:0:0:0:
466,127,42569,2,0,P|495:150|497:207,1,78.7500030040742,0|0,3:2|0:0,0:0:0:0:
454,281,42745,1,8,0:2:0:0:
176,52,42922,6,0,P|141:38|90:65,1,78.7500030040742,0|8,3:0|0:2,0:0:0:0:
58,130,43098,1,0,3:0:0:0:
66,167,43186,1,8,0:2:0:0:
93,195,43274,1,0,3:2:0:0:
131,204,43362,1,0,3:0:0:0:
168,191,43450,1,10,0:2:0:0:
345,70,43628,5,10,0:2:0:0:
386,55,43716,1,8,0:2:0:0:
430,87,43804,2,0,P|409:180|402:266,1,157.500006008148,4|0,3:2|3:2,0:0:0:0:
454,305,44069,1,0,3:0:0:0:
465,321,44157,2,0,P|486:276|474:235,1,78.7500030040742,10|0,0:2|0:0,0:0:0:0:
260,177,44334,1,0,3:0:0:0:
259,184,44422,1,8,0:2:0:0:
258,191,44510,1,2,3:2:0:0:
280,59,44687,6,0,P|290:80|338:128,1,62.9999980773926,0|0,3:2|0:0,0:0:0:0:
221,318,44863,2,0,P|180:224|115:150,1,188.999994232178,10|0,0:2|3:0,0:0:0:0:
40,196,45128,1,0,3:0:0:0:
31,208,45216,2,0,B|41:227|41:248|41:248|58:238|84:240,1,78.7500030040742,0|0,3:2|0:0,0:0:0:0:
173,66,45392,2,0,P|113:76|65:79,1,78.7500030040742,0|0,3:2|0:0,0:0:0:0:
176,247,45569,6,0,B|209:237|238:234|238:234|273:182|273:182|307:182|366:171,1,188.999994232178,10|0,0:2|3:0,0:0:0:0:
447,213,45834,1,8,0:2:0:0:
461,227,45922,2,0,P|474:267|446:302,1,62.9999980773926,0|0,3:0|0:0,0:0:0:0:
283,313,46098,2,0,P|269:265|256:238,1,62.9999980773926,0|0,3:2|0:0,0:0:0:0:
353,0,46275,2,0,P|381:98|408:154,1,157.500006008148,10|0,0:2|0:0,0:0:0:0:
405,147,46628,6,0,P|449:131|502:127,1,78.7500030040742,2|0,3:2|0:0,0:0:0:0:
176,247,46804,2,0,P|132:230|79:226,1,78.7500030040742,0|0,3:2|0:0,0:0:0:0:
350,265,46981,1,10,0:2:0:0:
199,80,47157,1,0,3:0:0:0:
164,73,47245,1,8,0:2:0:0:
132,100,47334,2,0,P|163:171|184:247,1,157.500006008148,2|0,3:2|3:2,0:0:0:0:
398,339,47687,6,0,B|463:307|435:223|435:223|399:222|358:167,1,188.999994232178,10|0,0:2|3:2,0:0:0:0:
350,135,47951,1,0,3:2:0:0:
399,80,48039,2,0,P|442:86|466:134,1,78.7500030040742,6|0,3:2|0:0,0:0:0:0:
308,226,48216,5,8,0:2:0:0:
261,204,48304,1,8,0:2:0:0:
240,157,48392,1,0,3:2:0:0:
255,108,48480,1,8,0:2:0:0:
268,97,48569,6,0,P|277:54|240:15,1,78.7500030040742,4|0,0:3|0:0,0:0:0:0:
46,64,48745,5,0,3:2:0:0:
73,116,48833,1,8,0:2:0:0:
94,171,48921,1,8,0:2:0:0:
107,229,49009,1,8,0:2:0:0:
111,287,49097,1,4,3:2:0:0:
272,353,49275,1,8,0:2:0:0:
279,356,49363,1,8,0:2:0:0:
343,316,49451,6,0,P|385:299|441:310,1,78.7500030040742,4|0,3:2|0:0,0:0:0:0:
274,277,49628,2,0,P|280:232|317:189,1,78.7500030040742,0|0,3:2|0:0,0:0:0:0:
27,291,49804,2,0,B|91:300|135:349|135:349|133:308|92:281,1,188.999994232178,10|0,0:2|3:0,0:0:0:0:
29,199,50069,1,8,0:2:0:0:
17,209,50157,2,0,P|73:198|100:159,1,78.7500030040742,2|0,3:2|0:0,0:0:0:0:
140,131,50334,2,0,P|158:77|138:34,1,78.7500030040742,0|0,3:2|0:0,0:0:0:0:
83,18,50510,5,10,0:2:0:0:
350,56,50687,1,0,3:0:0:0:
359,58,50775,1,0,3:0:0:0:
368,60,50863,2,0,B|366:84|382:99|382:99|357:98|334:140,1,78.7500030040742,2|0,3:2|0:0,0:0:0:0:
287,172,51039,2,0,B|263:177|252:196|252:196|246:171|200:160,1,78.7500030040742,0|0,3:2|0:0,0:0:0:0:
473,222,51216,6,0,P|391:250|384:330,1,157.500006008148,10|0,0:2|3:0,0:0:0:0:
506,359,51481,1,8,0:2:0:0:
512,346,51569,2,0,P|478:302|450:305,1,78.7500030040742,2|0,3:2|0:0,0:0:0:0:
291,275,51745,2,0,L|203:294,1,78.7500030040742,0|0,3:2|0:0,0:0:0:0:
431,144,51922,1,8,0:2:0:0:
267,29,52098,5,0,3:0:0:0:
226,21,52187,1,0,3:0:0:0:
198,57,52275,2,0,P|217:92|235:145,1,78.7500030040742,2|0,3:2|0:0,0:0:0:0:
291,275,52451,2,0,P|272:240|254:187,1,78.7500030040742,0|0,3:2|0:0,0:0:0:0:
272,32,52628,1,10,0:2:0:0:
112,166,52804,5,0,3:0:0:0:
105,174,52892,1,8,0:2:0:0:
98,182,52981,2,0,P|138:192|188:225,1,78.7500030040742,2|0,3:2|0:0,0:0:0:0:
389,156,53157,2,0,P|349:146|299:113,1,78.7500030040742,0|0,3:2|0:0,0:0:0:0:
198,57,53334,1,10,0:2:0:0:
30,258,53510,5,0,3:0:0:0:
8,297,53598,1,0,3:0:0:0:
35,339,53687,2,0,B|108:356|136:291|130:290|127:290|164:229|263:255,1,236.250009012223,2|0,3:2|0:0,0:0:0:0:
311,280,54039,2,0,P|304:321|300:356,1,62.9999980773926,10|0,0:2|0:0,0:0:0:0:
471,384,54216,1,0,3:0:0:0:
474,338,54304,1,8,0:2:0:0:
484,292,54392,1,2,3:2:0:0:
490,248,54480,1,8,0:2:0:0:
494,202,54568,1,0,3:2:0:0:
249,36,54745,6,0,P|241:125|327:117,1,188.999994232178,10|0,0:2|3:0,0:0:0:0:
360,48,55010,1,8,0:2:0:0:
340,33,55098,1,6,3:2:0:0:
386,161,55275,1,0,3:2:0:0:
432,289,55451,1,8,0:2:0:0:
152,169,55628,5,0,3:0:0:0:
151,175,55716,1,8,0:2:0:0:
150,181,55804,1,2,3:2:0:0:
238,201,55981,1,0,3:2:0:0:
72,154,56157,1,12,0:2:0:0:
371,230,56334,5,0,3:0:0:0:
389,254,56422,1,0,3:0:0:0:
380,283,56510,1,2,3:2:0:0:
388,152,56687,1,0,3:2:0:0:
321,348,56863,1,12,0:2:0:0:
186,94,57039,5,0,3:2:0:0:
225,47,57128,1,8,0:2:0:0:
282,62,57216,1,2,3:2:0:0:
90,193,57392,1,0,3:2:0:0:
404,248,57569,1,8,0:2:0:0:
288,63,57745,1,0,0:0:0:0:
181,352,57922,6,0,P|167:290|157:258,1,78.7500030040742,6|0,3:2|0:0,0:0:0:0:
280,228,58098,2,0,P|266:166|256:134,1,78.7500030040742,0|0,3:2|0:0,0:0:0:0:
389,95,58275,1,8,0:2:0:0:
186,94,58451,1,0,3:0:0:0:
217,87,58539,1,8,0:2:0:0:
248,76,58627,1,0,3:0:0:0:
277,60,58715,1,0,3:0:0:0:
303,41,58803,1,0,3:2:0:0:
489,204,58981,2,0,P|453:181|409:174,1,62.9999980773926,10|0,0:2|0:0,0:0:0:0:
133,256,59157,6,0,B|191:280|200:378|200:378|246:284|360:312,1,283.499991348267,4|0,3:2|0:0,0:0:0:0:
243,192,59510,2,0,P|220:226|261:209,1,94.499997116089,8|0,0:2|0:0,0:0:0:0:
383,288,59687,2,0,P|417:311|400:270,1,94.499997116089,8|0,0:2|0:0,0:0:0:0:
393,111,59863,5,0,3:2:0:0:
346,138,59951,1,0,3:2:0:0:
354,193,60039,1,12,0:2:0:0:
497,279,60216,1,0,3:2:0:0:
256,227,60392,2,0,B|204:232|199:280|202:282|206:283|206:331|138:339,1,157.500006008148,4|2,0:3|3:2,0:0:0:0:
82,312,60657,1,0,3:2:0:0:
60,300,60745,5,14,0:2:0:0:
68,157,60922,1,0,3:2:0:0:
216,127,61098,1,2,3:2:0:0:
269,18,61275,5,8,0:2:0:0:
308,181,61451,1,2,3:2:0:0:
470,143,61628,1,0,3:2:0:0:
158,189,61804,5,10,0:2:0:0:
441,232,61981,1,0,3:2:0:0:
359,14,62157,5,12,0:2:0:0:
265,85,62334,1,0,3:2:0:0:
344,175,62510,1,2,3:2:0:0:
134,180,62687,5,12,0:2:0:0:
287,233,62863,1,0,3:2:0:0:
255,384,63039,1,0,3:2:0:0:
423,210,63216,5,10,0:2:0:0:
138,273,63392,1,0,3:2:0:0:
267,38,63569,5,14,0:2:0:0:
328,115,63745,1,0,3:2:0:0:
278,203,63922,1,0,3:2:0:0:
260,35,64098,5,8,0:2:0:0:
412,114,64275,1,0,3:2:0:0:
359,277,64451,1,0,3:2:0:0:
252,31,64628,5,8,0:2:0:0:
457,212,64804,1,0,3:2:0:0:
220,322,64981,5,14,0:2:0:0:
129,237,65157,1,0,3:2:0:0:
219,148,65334,1,0,3:2:0:0:
358,195,65510,5,12,0:2:0:0:
336,285,65687,1,0,3:2:0:0:
314,375,65863,1,0,3:2:0:0:
430,225,66039,5,10,0:2:0:0:
472,325,66216,1,4,0:3:0:0:
460,372,66304,1,4,0:3:0:0:
411,381,66392,1,14,0:2:0:0:
258,313,66569,1,0,3:2:0:0:
501,182,66745,1,2,3:2:0:0:
354,311,66922,5,8,0:2:0:0:
211,128,67098,1,2,3:2:0:0:
429,146,67275,1,0,3:2:0:0:
190,266,67451,5,10,0:2:0:0:
283,33,67628,1,0,3:2:0:0:
428,261,67804,5,12,0:2:0:0:
294,136,67981,1,0,3:2:0:0:
466,76,68157,1,2,3:2:0:0:
295,220,68334,5,8,0:2:0:0:
385,43,68510,1,0,3:2:0:0:
430,270,68687,1,0,3:2:0:0:
218,164,68863,5,10,0:2:0:0:
459,82,69039,1,0,3:2:0:0:
208,165,69216,5,14,0:2:0:0:
138,103,69392,1,0,3:2:0:0:
197,26,69569,1,0,3:2:0:0:
368,278,69745,5,8,0:2:0:0:
459,197,69921,1,0,3:2:0:0:
382,97,70098,1,0,3:2:0:0:
270,322,70275,5,10,0:2:0:0:
287,40,70451,1,0,3:2:0:0:
70,145,70628,5,10,0:2:0:0:
120,135,70716,1,4,0:3:0:0:
168,155,70804,1,0,3:2:0:0:
195,199,70892,1,0,3:2:0:0:
199,213,70981,6,0,P|193:248|183:318,1,78.7500030040742,12|0,0:2|0:0,0:0:0:0:
382,368,71157,1,8,0:2:0:0:
429,326,71245,1,4,0:3:0:0:
411,264,71334,1,0,3:2:0:0:
178,297,71510,1,12,0:2:0:0:
441,175,71687,1,2,3:2:0:0:
208,108,71863,5,10,0:2:0:0:
176,62,71951,1,8,0:2:0:0:
207,26,72039,2,0,B|287:1|317:64|313:65|304:66|352:148|486:75,1,236.250009012223,4|0,3:2|0:0,0:0:0:0:
480,59,72392,2,0,B|468:40|470:16|470:16|459:35|421:24,1,78.7500030040742,10|0,0:2|0:0,0:0:0:0:
304,83,72569,1,0,3:0:0:0:
297,87,72657,1,8,0:2:0:0:
290,92,72745,2,0,P|298:120|307:170,1,68.2499968757631,2|0,3:2|0:0,0:0:0:0:
480,186,72922,1,0,3:2:0:0:
234,235,73098,6,0,B|341:232|292:281|426:275,1,178.500003404617,10|0,0:2|3:0,0:0:0:0:
480,186,73363,1,0,3:0:0:0:
457,164,73451,2,0,P|414:174|402:221,1,68.2499968757631,0|0,3:2|0:0,0:0:0:0:
275,341,73628,2,0,B|265:356|287:401|299:356|294:336|258:327,1,68.2499968757631,0|0,3:2|0:0,0:0:0:0:
120,155,73804,2,0,B|108:198|96:230|96:230|127:242|173:271,1,136.499993751526,10|0,0:2|3:0,0:0:0:0:
209,111,74069,1,8,0:2:0:0:
201,89,74157,2,0,P|163:63|110:78,1,68.2499968757631,2|0,3:2|0:0,0:0:0:0:
304,87,74334,2,0,P|295:41|247:14,1,68.2499968757631,0|0,3:2|0:0,0:0:0:0:
112,158,74510,1,10,0:2:0:0:
380,256,74687,5,2,3:2:0:0:
412,261,74775,1,0,3:0:0:0:
437,243,74863,2,0,P|413:174|377:64,1,178.500003404617,6|0,3:2|3:2,0:0:0:0:
193,190,75216,2,0,P|222:275|267:412,1,204.749990627289,8|8,0:2|0:2,0:0:0:0:
122,321,75569,6,0,B|106:297|81:281|81:281|222:309,1,178.500003404617,6|0,3:2|3:2,0:0:0:0:
482,91,75922,2,0,B|517:130|473:178|473:178|348:137,1,178.500003404617,10|0,0:2|3:0,0:0:0:0:
324,70,76187,1,8,0:2:0:0:
307,54,76275,2,0,P|343:17|396:44,1,89.2500017023087,6|0,3:2|0:0,0:0:0:0:
193,190,76451,2,0,B|169:192|153:208|153:208|148:180|118:166,1,89.2500017023087,0|0,3:2|0:0,0:0:0:0:
401,249,76628,1,10,0:2:0:0:
288,339,76804,5,0,3:0:0:0:
285,325,76892,1,8,0:2:0:0:
283,311,76980,1,2,3:2:0:0:
281,297,77068,1,8,0:2:0:0:
279,283,77156,1,0,3:2:0:0:
168,58,77334,2,0,P|120:72|103:115,1,78.7500030040742,10|0,0:2|0:0,0:0:0:0:
29,218,77510,5,4,0:3:0:0:
41,214,77598,1,4,0:3:0:0:
53,210,77687,1,6,3:2:0:0:
174,53,77863,1,0,3:2:0:0:
164,286,78039,2,0,B|226:263|226:263|244:222|244:222|330:192,1,178.500003404617,10|0,0:2|3:0,0:0:0:0:
402,223,78304,1,8,0:2:0:0:
420,237,78392,2,0,P|408:295|410:331,1,68.2499968757631,0|0,3:0|0:0,0:0:0:0:
220,209,78569,2,0,P|232:151|230:115,1,68.2499968757631,0|0,3:2|0:0,0:0:0:0:
361,37,78745,5,10,0:2:0:0:
468,95,78922,1,0,3:0:0:0:
479,120,79010,1,0,3:0:0:0:
470,143,79098,1,2,3:2:0:0:
271,76,79275,1,0,3:2:0:0:
348,255,79451,5,10,0:2:0:0:
390,117,79628,1,0,0:0:0:0:
191,189,79804,5,2,3:2:0:0:
283,351,79981,1,0,3:2:0:0:
323,355,80069,1,0,3:0:0:0:
356,332,80157,1,10,0:2:0:0:
361,291,80245,1,8,0:2:0:0:
377,253,80334,1,8,0:2:0:0:
415,238,80422,1,8,0:2:0:0:
453,250,80510,6,0,L|219:278,1,204.749990627289,6|0,3:2|0:0,0:0:0:0:
187,315,80863,1,0,3:0:0:0:
275,74,81039,2,0,P|345:112|336:180,1,136.499993751526,12|2,0:2|0:0,0:0:0:0:
60,259,81392,1,0,3:2:0:0:
33,91,81569,1,4,0:3:0:0:
196,163,81745,1,0,3:2:0:0:
197,172,81834,1,0,3:2:0:0:
198,181,81922,1,12,0:2:0:0:
27,74,83334,6,0,B|80:82|80:82|130:35,1,89.2500017023087,6|0,3:2|0:0,0:0:0:0:
382,30,83510,2,0,B|278:61|278:61|287:110|240:139,1,178.500003404617,2|8,0:0|0:2,0:0:0:0:
112,52,83863,6,0,B|158:42|158:42|206:79,1,89.2500017023087,2|0,0:0|0:0,0:0:0:0:
354,169,84039,2,0,B|336:200|336:200|233:225|233:225|183:199,1,178.500003404617,2|0,3:2|0:0,0:0:0:0:
382,30,84392,6,0,B|376:73|376:73|411:88|425:132,1,89.2500017023087,10|0,0:2|0:0,0:0:0:0:
225,323,84569,2,0,B|286:292|285:222|285:222|329:295|442:248,1,252,2|0,0:0|0:0,0:0:0:0:
461,307,84922,5,2,0:0:0:0:
200,208,85098,1,10,0:2:0:0:
366,24,85275,1,2,3:2:0:0:
374,27,85363,1,2,3:2:0:0:
382,30,85451,2,0,P|365:78|323:90,1,84,2|0,3:2|0:0,0:0:0:0:
344,167,85628,2,0,P|293:163|270:125,1,84,2|0,0:0|0:0,0:0:0:0:
203,98,85804,1,10,0:2:0:0:
424,139,85981,1,0,3:2:0:0:
193,96,86157,5,10,0:2:0:0:
154,132,86245,1,8,0:2:0:0:
155,184,86333,1,2,3:2:0:0:
189,225,86421,1,0,3:2:0:0:
265,228,86510,5,4,0:3:0:0:
292,251,86598,1,4,0:3:0:0:
287,285,86686,1,2,3:2:0:0:
263,310,86774,1,0,3:2:0:0:
201,345,86863,5,10,0:2:0:0:
262,126,87039,1,6,0:0:0:0:
432,279,87216,1,10,0:2:0:0:
259,118,87392,1,6,3:2:0:0:
256,192,87481,12,0,88892,0:0:0:0:
