osu file format v14

[General]
AudioFilename: audio.mp3
AudioLeadIn: 0
PreviewTime: 37819
Countdown: 0
SampleSet: Soft
StackLeniency: 0.7
Mode: 3
LetterboxInBreaks: 0
SpecialStyle: 0
WidescreenStoryboard: 1

[Editor]
DistanceSpacing: 1.5
BeatDivisor: 4
GridSize: 4
TimelineZoom: 2.5

[Metadata]
Title:Hana no Tou (TV Size)
TitleUnicode:花の塔 (TV Size)
Artist:Sayuri
ArtistUnicode:さユり
Creator:Revv-
Version:Easy
Source:リコリス・リコイル
Tags:lycoris recoil lycoreco anime japanese pop jpop j-pop rock jrock j-rock ed ending 酸欠少女 sanketsu-girl アニプレックス aniplex a-1 pictures 足立慎吾 adachi shingo アサウラ asaura いみぎむる imi gimuru tower of flower リコリコ
BeatmapID:4364722
BeatmapSetID:2083809

[Difficulty]
HPDrainRate:6.5
CircleSize:4
OverallDifficulty:6.5
ApproachRate:5
SliderMultiplier:1.4
SliderTickRate:1

[Events]
//Background and Video events
0,0,"yeah.jpg",0,0
Video,49,"sayuri.mp4"
//Break Periods
//Storyboard Layer 0 (Background)
//Storyboard Layer 1 (Fail)
//Storyboard Layer 2 (Pass)
//Storyboard Layer 3 (Foreground)
//Storyboard Layer 4 (Overlay)
//Storyboard Sound Samples

[TimingPoints]
75,352.941162109375,4,2,1,50,1,0
38192,-100,4,2,1,50,0,1
55133,-100,4,2,1,50,0,0
60780,-100,4,2,1,50,0,1
81957,-100,4,2,1,50,0,0

[HitObjects]
64,192,75,5,0,0:0:0:0:
320,192,251,1,0,0:0:0:0:
448,192,604,1,0,0:0:0:0:
192,192,780,1,0,0:0:0:0:
320,192,1133,1,0,0:0:0:0:
64,192,1310,1,0,0:0:0:0:
192,192,1663,1,0,0:0:0:0:
448,192,1839,1,0,0:0:0:0:
192,192,2192,128,0,2545:0:0:0:0:
448,192,2545,1,0,0:0:0:0:
64,192,2545,1,0,0:0:0:0:
320,192,2898,1,0,0:0:0:0:
192,192,3074,1,0,0:0:0:0:
64,192,3427,1,0,0:0:0:0:
320,192,3604,1,0,0:0:0:0:
448,192,3957,1,0,0:0:0:0:
320,192,4133,1,0,0:0:0:0:
192,192,4486,1,0,0:0:0:0:
320,192,4663,1,0,0:0:0:0:
448,192,5016,128,0,5369:0:0:0:0:
64,192,5369,1,0,0:0:0:0:
320,192,5722,1,0,0:0:0:0:
192,192,5898,1,0,0:0:0:0:
64,192,6251,1,0,0:0:0:0:
192,192,6427,1,0,0:0:0:0:
448,192,6780,1,0,0:0:0:0:
320,192,6957,1,0,0:0:0:0:
192,192,7310,1,0,0:0:0:0:
64,192,7486,1,0,0:0:0:0:
448,192,7839,128,0,8192:0:0:0:0:
320,192,7839,1,0,0:0:0:0:
64,192,8192,1,0,0:0:0:0:
320,192,8545,1,0,0:0:0:0:
192,192,8722,1,0,0:0:0:0:
64,192,9074,1,0,0:0:0:0:
192,192,9251,1,0,0:0:0:0:
448,192,9604,1,0,0:0:0:0:
192,192,9780,1,0,0:0:0:0:
64,192,10133,1,0,0:0:0:0:
320,192,10310,1,0,0:0:0:0:
448,192,10663,128,0,11016:0:0:0:0:
192,192,11016,1,0,0:0:0:0:
64,192,11369,128,0,11722:0:0:0:0:
448,192,11722,128,0,12074:0:0:0:0:
192,192,12074,1,0,0:0:0:0:
320,192,12251,1,0,0:0:0:0:
448,192,12251,1,0,0:0:0:0:
192,192,12427,1,0,0:0:0:0:
64,192,12604,1,0,0:0:0:0:
320,192,12604,128,0,13663:0:0:0:0:
192,192,13663,1,0,0:0:0:0:
448,192,13839,1,0,0:0:0:0:
64,192,14192,1,0,0:0:0:0:
192,192,14192,1,0,0:0:0:0:
320,192,14369,1,0,0:0:0:0:
192,192,14545,1,0,0:0:0:0:
448,192,14722,1,0,0:0:0:0:
64,192,15074,1,0,0:0:0:0:
320,192,15251,1,0,0:0:0:0:
192,192,15427,1,0,0:0:0:0:
448,192,15780,1,0,0:0:0:0:
64,192,15957,1,0,0:0:0:0:
192,192,16133,1,0,0:0:0:0:
320,192,16486,1,0,0:0:0:0:
192,192,16663,1,0,0:0:0:0:
320,192,17016,1,0,0:0:0:0:
448,192,17192,1,0,0:0:0:0:
64,192,17369,1,0,0:0:0:0:
192,192,17545,1,0,0:0:0:0:
448,192,17898,1,0,0:0:0:0:
192,192,18074,1,0,0:0:0:0:
320,192,18251,1,0,0:0:0:0:
64,192,18604,1,0,0:0:0:0:
320,192,18780,1,0,0:0:0:0:
192,192,18957,1,0,0:0:0:0:
64,192,19310,1,0,0:0:0:0:
448,192,19310,1,0,0:0:0:0:
320,192,19486,1,0,0:0:0:0:
192,192,19486,1,0,0:0:0:0:
64,192,19839,1,0,0:0:0:0:
192,192,20016,1,0,0:0:0:0:
320,192,20192,1,0,0:0:0:0:
64,192,20369,1,0,0:0:0:0:
448,192,20722,1,0,0:0:0:0:
320,192,20898,1,0,0:0:0:0:
192,192,21074,1,0,0:0:0:0:
64,192,21427,1,0,0:0:0:0:
320,192,21604,1,0,0:0:0:0:
192,192,21780,1,0,0:0:0:0:
448,192,22133,1,0,0:0:0:0:
64,192,22310,1,0,0:0:0:0:
448,192,22663,1,0,0:0:0:0:
192,192,22663,1,0,0:0:0:0:
320,192,22839,1,0,0:0:0:0:
64,192,23016,1,0,0:0:0:0:
192,192,23192,1,0,0:0:0:0:
320,192,23545,1,0,0:0:0:0:
64,192,23722,1,0,0:0:0:0:
192,192,23898,1,0,0:0:0:0:
192,192,24251,1,0,0:0:0:0:
448,192,24604,1,0,0:0:0:0:
192,192,24780,1,0,0:0:0:0:
448,192,24957,1,0,0:0:0:0:
64,192,25133,1,0,0:0:0:0:
192,192,25486,1,0,0:0:0:0:
320,192,25486,1,0,0:0:0:0:
448,192,26016,1,0,0:0:0:0:
192,192,26369,1,0,0:0:0:0:
320,192,26545,1,0,0:0:0:0:
64,192,26898,1,0,0:0:0:0:
320,192,27163,1,0,0:0:0:0:
192,192,27427,1,0,0:0:0:0:
448,192,27780,1,0,0:0:0:0:
320,192,27957,1,0,0:0:0:0:
64,192,28310,1,0,0:0:0:0:
448,192,28839,1,0,0:0:0:0:
192,192,29192,1,0,0:0:0:0:
320,192,29369,1,0,0:0:0:0:
448,192,29722,1,0,0:0:0:0:
192,192,29898,1,0,0:0:0:0:
320,192,30074,1,0,0:0:0:0:
64,192,30251,1,0,0:0:0:0:
192,192,30251,1,0,0:0:0:0:
448,192,30604,1,0,0:0:0:0:
192,192,30780,1,0,0:0:0:0:
320,192,30957,1,0,0:0:0:0:
64,192,31133,128,0,31663:0:0:0:0:
448,192,31663,128,0,32192:0:0:0:0:
192,192,32192,1,0,0:0:0:0:
320,192,32545,1,0,0:0:0:0:
192,192,32722,128,0,33074:0:0:0:0:
448,192,33074,128,0,33604:0:0:0:0:
64,192,33604,1,0,0:0:0:0:
192,192,33957,1,0,0:0:0:0:
448,192,34310,128,0,34663:0:0:0:0:
192,192,34663,128,0,35016:0:0:0:0:
320,192,35016,1,0,0:0:0:0:
448,192,35192,1,0,0:0:0:0:
192,192,35369,1,0,0:0:0:0:
64,192,35369,1,0,0:0:0:0:
320,192,35722,1,0,0:0:0:0:
192,192,35898,1,0,0:0:0:0:
192,192,36251,1,0,0:0:0:0:
320,192,36427,1,0,0:0:0:0:
192,192,36780,128,0,37310:0:0:0:0:
448,192,37310,128,0,37663:0:0:0:0:
64,192,37663,1,0,0:0:0:0:
448,192,38192,1,0,0:0:0:0:
64,192,38192,128,0,38545:0:0:0:0:
192,192,38545,128,0,38898:0:0:0:0:
320,192,38545,1,0,0:0:0:0:
320,192,38898,128,0,39251:0:0:0:0:
64,192,39251,1,0,0:0:0:0:
192,192,39251,1,0,0:0:0:0:
448,192,39604,1,0,0:0:0:0:
192,192,39957,1,0,0:0:0:0:
320,192,39957,1,0,0:0:0:0:
64,192,40310,1,0,0:0:0:0:
448,192,40663,128,0,41016:0:0:0:0:
320,192,40663,1,0,0:0:0:0:
64,192,41016,128,0,41369:0:0:0:0:
192,192,41369,128,0,41722:0:0:0:0:
448,192,41369,1,0,0:0:0:0:
320,192,41722,1,0,0:0:0:0:
320,192,42074,128,0,42427:0:0:0:0:
64,192,42074,1,0,0:0:0:0:
192,192,42427,128,0,42780:0:0:0:0:
64,192,42780,1,0,0:0:0:0:
448,192,42780,1,0,0:0:0:0:
320,192,43133,1,0,0:0:0:0:
192,192,43486,1,0,0:0:0:0:
64,192,43486,1,0,0:0:0:0:
320,192,43663,1,0,0:0:0:0:
448,192,43839,1,0,0:0:0:0:
192,192,43839,128,0,44192:0:0:0:0:
64,192,44192,128,0,44545:0:0:0:0:
320,192,44192,1,0,0:0:0:0:
448,192,44545,128,0,44898:0:0:0:0:
192,192,44898,1,0,0:0:0:0:
64,192,44898,1,0,0:0:0:0:
320,192,45251,1,0,0:0:0:0:
64,192,45604,1,0,0:0:0:0:
448,192,45604,1,0,0:0:0:0:
192,192,45957,1,0,0:0:0:0:
320,192,46310,128,0,46663:0:0:0:0:
64,192,46310,1,0,0:0:0:0:
64,192,46663,128,0,47016:0:0:0:0:
448,192,47016,128,0,47369:0:0:0:0:
320,192,47016,1,0,0:0:0:0:
64,192,47369,128,0,47722:0:0:0:0:
192,192,47722,128,0,48074:0:0:0:0:
320,192,47722,1,0,0:0:0:0:
448,192,48074,1,0,0:0:0:0:
64,192,48074,1,0,0:0:0:0:
320,192,48251,1,0,0:0:0:0:
192,192,48427,1,0,0:0:0:0:
448,192,48427,1,0,0:0:0:0:
320,192,48780,1,0,0:0:0:0:
192,192,48780,1,0,0:0:0:0:
64,192,48957,1,0,0:0:0:0:
448,192,49133,1,0,0:0:0:0:
192,192,49486,1,0,0:0:0:0:
64,192,49486,128,0,49839:0:0:0:0:
320,192,49839,128,0,50192:0:0:0:0:
448,192,49839,1,0,0:0:0:0:
192,192,50192,128,0,50545:0:0:0:0:
64,192,50545,128,0,50898:0:0:0:0:
320,192,50545,1,0,0:0:0:0:
448,192,50898,1,0,0:0:0:0:
192,192,51251,128,0,51604:0:0:0:0:
320,192,51251,1,0,0:0:0:0:
320,192,51604,128,0,51957:0:0:0:0:
64,192,51957,1,0,0:0:0:0:
448,192,51957,1,0,0:0:0:0:
448,192,52310,128,0,52663:0:0:0:0:
64,192,52663,128,0,53016:0:0:0:0:
192,192,52663,1,0,0:0:0:0:
320,192,53016,128,0,53369:0:0:0:0:
192,192,53369,128,0,53722:0:0:0:0:
448,192,53369,1,0,0:0:0:0:
320,192,53722,128,0,54074:0:0:0:0:
448,192,54074,128,0,54427:0:0:0:0:
64,192,54074,1,0,0:0:0:0:
64,192,54427,128,0,54780:0:0:0:0:
320,192,54780,128,0,55133:0:0:0:0:
192,192,54780,1,0,0:0:0:0:
448,192,55133,1,0,0:0:0:0:
64,192,55133,128,0,55486:0:0:0:0:
192,192,55486,1,0,0:0:0:0:
320,192,55486,1,0,0:0:0:0:
448,192,55839,128,0,56192:0:0:0:0:
64,192,56192,1,0,0:0:0:0:
192,192,56192,1,0,0:0:0:0:
192,192,56545,128,0,56898:0:0:0:0:
320,192,56898,1,0,0:0:0:0:
448,192,56898,1,0,0:0:0:0:
64,192,57251,128,0,57604:0:0:0:0:
448,192,57604,1,0,0:0:0:0:
192,192,57604,1,0,0:0:0:0:
320,192,57957,1,0,0:0:0:0:
192,192,57957,1,0,0:0:0:0:
448,192,58310,1,0,0:0:0:0:
64,192,58310,1,0,0:0:0:0:
192,192,58663,1,0,0:0:0:0:
448,192,59016,1,0,0:0:0:0:
192,192,59192,1,0,0:0:0:0:
320,192,59192,1,0,0:0:0:0:
64,192,59545,1,0,0:0:0:0:
320,192,59722,1,0,0:0:0:0:
192,192,59898,1,0,0:0:0:0:
448,192,60074,1,0,0:0:0:0:
64,192,60074,1,0,0:0:0:0:
448,192,60427,1,0,0:0:0:0:
320,192,60604,1,0,0:0:0:0:
192,192,60780,128,0,61133:0:0:0:0:
64,192,60780,1,0,0:0:0:0:
448,192,61133,128,0,61486:0:0:0:0:
64,192,61486,128,0,61839:0:0:0:0:
320,192,61839,128,0,62192:0:0:0:0:
192,192,61839,1,0,0:0:0:0:
64,192,62192,1,0,0:0:0:0:
448,192,62192,1,0,0:0:0:0:
64,192,62545,128,0,62898:0:0:0:0:
448,192,62898,1,0,0:0:0:0:
192,192,63251,1,0,0:0:0:0:
320,192,63251,1,0,0:0:0:0:
448,192,63604,1,0,0:0:0:0:
64,192,63604,1,0,0:0:0:0:
192,192,63957,1,0,0:0:0:0:
64,192,64133,1,0,0:0:0:0:
448,192,64310,1,0,0:0:0:0:
192,192,64663,1,0,0:0:0:0:
64,192,64663,1,0,0:0:0:0:
320,192,65016,128,0,65369:0:0:0:0:
448,192,65016,1,0,0:0:0:0:
64,192,65369,1,0,0:0:0:0:
448,192,65545,1,0,0:0:0:0:
192,192,65722,1,0,0:0:0:0:
448,192,66074,1,0,0:0:0:0:
320,192,66251,1,0,0:0:0:0:
192,192,66427,128,0,66780:0:0:0:0:
64,192,66427,1,0,0:0:0:0:
320,192,66780,128,0,67133:0:0:0:0:
448,192,67133,128,0,67486:0:0:0:0:
192,192,67486,128,0,67839:0:0:0:0:
320,192,67486,1,0,0:0:0:0:
448,192,67839,1,0,0:0:0:0:
64,192,67839,1,0,0:0:0:0:
320,192,68192,1,0,0:0:0:0:
64,192,68369,1,0,0:0:0:0:
192,192,68545,1,0,0:0:0:0:
448,192,68898,128,0,69251:0:0:0:0:
64,192,69251,1,0,0:0:0:0:
192,192,69251,1,0,0:0:0:0:
320,192,69604,1,0,0:0:0:0:
448,192,69780,1,0,0:0:0:0:
64,192,69957,1,0,0:0:0:0:
192,192,70310,1,0,0:0:0:0:
320,192,70310,1,0,0:0:0:0:
448,192,70663,128,0,71016:0:0:0:0:
64,192,71016,1,0,0:0:0:0:
320,192,71016,1,0,0:0:0:0:
192,192,71192,128,0,71545:0:0:0:0:
320,192,71545,1,0,0:0:0:0:
448,192,71545,1,0,0:0:0:0:
64,192,71722,1,0,0:0:0:0:
448,192,71898,1,0,0:0:0:0:
192,192,72074,1,0,0:0:0:0:
320,192,72074,1,0,0:0:0:0:
320,192,72427,128,0,72780:0:0:0:0:
64,192,72427,1,0,0:0:0:0:
448,192,72780,128,0,73133:0:0:0:0:
64,192,73133,128,0,73486:0:0:0:0:
192,192,73133,1,0,0:0:0:0:
448,192,73486,1,0,0:0:0:0:
192,192,73839,128,0,74192:0:0:0:0:
320,192,73839,1,0,0:0:0:0:
448,192,74192,1,0,0:0:0:0:
192,192,74545,1,0,0:0:0:0:
64,192,74545,1,0,0:0:0:0:
320,192,74722,1,0,0:0:0:0:
64,192,74898,128,0,75251:0:0:0:0:
448,192,74898,1,0,0:0:0:0:
320,192,75251,128,0,75604:0:0:0:0:
448,192,75604,1,0,0:0:0:0:
192,192,75604,1,0,0:0:0:0:
64,192,75957,128,0,76310:0:0:0:0:
320,192,76310,1,0,0:0:0:0:
448,192,76310,1,0,0:0:0:0:
320,192,76663,128,0,77016:0:0:0:0:
64,192,77016,1,0,0:0:0:0:
448,192,77369,1,0,0:0:0:0:
192,192,77369,1,0,0:0:0:0:
320,192,77545,1,0,0:0:0:0:
192,192,77722,128,0,78074:0:0:0:0:
64,192,77722,1,0,0:0:0:0:
448,192,78074,128,0,78427:0:0:0:0:
320,192,78074,1,0,0:0:0:0:
192,192,78427,1,0,0:0:0:0:
320,192,78780,128,0,79133:0:0:0:0:
64,192,78780,1,0,0:0:0:0:
192,192,79133,128,0,79486:0:0:0:0:
448,192,79486,128,0,79839:0:0:0:0:
320,192,79486,1,0,0:0:0:0:
64,192,79839,1,0,0:0:0:0:
192,192,80192,128,0,80545:0:0:0:0:
320,192,80545,1,0,0:0:0:0:
448,192,80545,1,0,0:0:0:0:
448,192,80898,1,0,0:0:0:0:
64,192,81074,1,0,0:0:0:0:
192,192,81074,1,0,0:0:0:0:
192,192,81427,1,0,0:0:0:0:
448,192,81604,1,0,0:0:0:0:
320,192,81780,1,0,0:0:0:0:
192,192,81957,128,0,82310:0:0:0:0:
64,192,81957,1,0,0:0:0:0:
64,192,83369,1,0,0:0:0:0:
192,192,83545,1,0,0:0:0:0:
448,192,83898,1,0,0:0:0:0:
320,192,84074,1,0,0:0:0:0:
192,192,84427,1,0,0:0:0:0:
320,192,84604,1,0,0:0:0:0:
64,192,84957,1,0,0:0:0:0:
448,192,85133,1,0,0:0:0:0:
320,192,85486,128,0,85839:0:0:0:0:
192,192,85839,1,0,0:0:0:0:
448,192,86192,128,0,86545:0:0:0:0:
64,192,86545,128,0,86898:0:0:0:0:
448,192,86898,1,0,0:0:0:0:
320,192,87074,1,0,0:0:0:0:
192,192,87074,1,0,0:0:0:0:
64,192,87251,1,0,0:0:0:0:
320,192,87427,128,0,94663:0:0:0:0:
448,192,87427,1,0,0:0:0:0:
